#TITLE:AFRONOVA(X-Special);
#ARTIST:RE-VENGE;
#BANNER:AFRONOVA(X-Special).png;
#BACKGROUND:AFRONOVA(X-Special)-bg.png;
#CDTITLE:./CDTitles/DDR X.png;
#MUSIC:AFRONOVA.ogg;
#SAMPLESTART:30;
#SAMPLELENGTH:15;
#DISPLAYBPM:200;
#BPMS:0=199.5,4=200;
#STAGE:3;

//---------------dance-single - ----------------
#NOTES:
     dance-single:
     :
     Challenge:
     13:
     :
0000
0000
0000
0000
,
0000
0000
0000
0000
,
0000
0000
0000
0000
,
0000
0000
0000
0000
,
0000
0000
0000
0000
,
0000
0000
0000
0000
,
0000
0000
0000
0000
,
1000
1000
1000
1000
0100
0100
0100
0100
,
0010
0010
0010
0010
0001
0001
0001
0001
,
2000
0000
3001
0010
0100
0000
1100
0000
,
0002
0000
1003
0010
0100
0000
0101
0000
,
0002
0000
1003
0010
0100
0000
0101
0000
,
2000
0000
3001
0010
0100
0000
1100
0000
,
0001
0010
0001
0010
0100
0000
0011
0000
,
1000
0010
1000
0010
0100
0000
1100
0000
,
1000
0010
1000
0010
0100
0000
1010
0000
,
0001
0010
0001
0010
0100
0000
0101
0000
,
1000
0100
1000
0100
0001
0100
0001
0100
,
1000
0001
0010
1000
0001
0100
1000
0100
,
0001
1000
0010
0001
1000
0100
0001
0100
,
0010
1000
0010
0100
0001
0000
0110
0000
,
0001
0010
0001
0010
1000
0010
1000
0010
,
0001
1000
0100
0001
1000
0010
0001
0010
,
1000
0001
0100
1000
0001
0010
1000
0010
,
0100
0001
0100
0010
1000
0000
0110
0000
,
1100
0101
1010
0011
,
0110
1001
0110
0000
,
1100
0101
1010
0110
,
0001
1000
0001
0000
0110
0000
0000
0000
,
0011
1010
0101
1100
,
0110
1001
0110
0000
,
1010
0011
1100
0101
,
1000
0001
1000
0000
0110
0000
0000
0000
,
1000
0100
0020
0000
0031
0010
0100
1000
,
0100
1000
0020
0000
1030
0001
0010
0100
,
0010
0001
2000
0000
3100
0010
0001
1000
,
0010
0001
1000
0100
0002
0000
1003
0000
,
0001
0010
0200
0000
1300
0100
0010
0001
,
0010
0001
0200
0000
0301
1000
0100
0010
,
0100
1000
0002
0000
0013
0100
1000
0001
,
0100
1000
0001
0010
2000
0000
3001
0000
,
0001
0001
0100
0100
0010
0010
1000
0000
,
1010
0110
0011
0101
,
1000
1000
0100
0100
0010
0010
0001
0000
,
0101
0110
1100
1010
,
0010
0010
0100
0100
0010
0010
0100
0100
,
0001
0001
1000
1000
0001
0000
1001
0000
,
0000
0000
0000
2000
0000
0000
0000
0000
0000
0001
0000
0010
,
0000
0100
0000
0001
0000
0010
0000
0100
0000
0100
0000
0001
,
3000
0000
1001
0000
0110
0000
0001
0010
,
0100
0000
1000
0010
0100
0000
0001
0010
,
0100
0000
1000
1000
0100
0100
0010
0001
,
0100
0000
0001
0001
0100
0010
1000
0010
,
0100
0000
0001
0010
0100
0000
1000
0100
,
0010
0000
1001
0000
0010
0100
1000
0000
,
0001
0001
0010
0010
0200
0000
2300
0000
,
3001
0010
2000
0000
3001
0100
2000
0000
,
3020
0000
0032
0000
1003
0100
0002
0000
,
1003
0010
0002
0000
1003
0000
0110
0000
,
1001
0110
0020
0032
,
1003
0100
0002
0000
1003
0010
0002
0000
,
0203
0000
2300
0000
3001
0010
2000
0000
,
3001
0100
2000
0000
3001
0000
0110
0000
,
2002
0000
3003
0000
0001
0010
0100
1000
,
0010
0001
1000
0000
1000
0100
0001
0010
,
0100
1000
0010
0000
0100
0001
0100
1000
,
0001
0010
0100
0000
0001
0010
0100
1000
,
0100
0010
0001
0000
0001
0100
0010
1000
,
0100
0010
0001
0100
0010
1000
0100
0001
,
1000
0010
0001
0010
1000
0001
0100
1000
,
0100
0010
0001
0010
0100
1000
0100
0010
,
0001
1000
0001
0000
1001
0000
0000
0000
,
1001
0110
1100
0101
0011
1010
,
0110
0000
0000
0000
,
0000
0000
0000
0000
;

//---------------dance-double - ----------------
#NOTES:
     dance-double:
     :
     Challenge:
     14:
     :
00000000
00000000
00000000
00000000
,
00000000
00000000
00000000
00000000
,
00000000
00000000
00000000
00000000
,
00000000
00000000
00000000
00000000
,
00000000
00000000
00000000
00000000
,
00000000
00000000
00000000
00000000
,
00000000
00000000
00000000
00000000
,
00100000
00010000
00001000
00000000
00000010
00001000
00010000
00000000
,
01000000
00010000
00001000
00000000
00000100
00001000
00010000
00000000
,
10010000
00110000
00011000
00001100
,
00000011
00001100
00011000
10010000
,
00010000
00100000
01000000
10000000
01000000
00000000
10010000
00000000
,
01000000
00010000
00001000
00010000
00001000
00000000
00000110
00000000
,
00000011
00001100
00011000
00110000
,
10010000
00110000
00011000
00001001
,
00000001
00000010
00001000
00010000
00001000
00000000
00011000
00000000
,
00001000
00010000
01000000
00010000
00001000
00000100
00001000
00000000
,
00001000
00000100
00000001
00000010
00001000
00010000
00001000
00010000
,
00100000
10000000
01000000
00010000
00001000
00010000
00001000
00000100
,
00000001
00000010
00001000
00010000
00001000
00010000
00100000
10000000
,
01000000
00010000
00001000
00010000
00001000
00010000
00001000
00010000
,
00100000
10000000
01000000
00010000
00001000
00000100
00000001
00000010
,
00001000
00010000
00001000
00010000
00001000
00010000
00001000
00010000
,
00100000
10000000
01000000
00010000
00001000
00000100
00000001
00000010
,
00001000
00010000
00001000
00010000
00001000
00000000
01100000
00000000
,
00100000
01000000
00100000
00010000
00001000
00000100
00000001
00000000
,
00000011
00001100
00000110
00000000
,
00000010
00000100
00000010
00001000
00010000
01000000
10000000
00000000
,
10000000
00100000
01000000
00000000
01100000
00000000
00000000
00000000
,
10000000
00100000
00010000
00001000
00000100
00000001
00001000
00000000
,
00000011
00001100
00000110
00000000
,
00000001
00000010
00001000
00010000
01000000
10000000
00010000
00000000
,
00010000
00100000
01000000
00000000
02200000
00000000
03300000
00000000
,
10000000
01000000
00100000
00010000
00100000
00000000
00100000
00001000
,
00010000
00001000
00000100
00000000
00000100
00001000
00010000
00100000
,
00010000
00000000
00010000
00001000
00000010
00000001
00000100
00000000
,
00000011
00000110
00000011
00000110
,
00000001
00000100
00000010
00001000
00000010
00000000
00000010
00010000
,
00001000
00010000
01000000
00000000
01000000
00010000
00001000
00000010
,
00001000
00000000
00001000
00010000
00100000
10000000
01000000
00000000
,
10100000
01100000
10100000
01100000
,
10000000
01000000
00010000
00000000
00001000
00000100
00000001
00000000
,
00000001
00000100
00001000
00000000
00010000
01000000
10000000
00000000
,
10000000
00100000
00010000
00000000
00001000
00000010
00000001
00000000
,
00000001
00000010
00001000
00000000
00010000
00100000
10000000
00000000
,
00100000
00010000
00001000
00000000
00100000
00010000
00001000
00000000
,
00000010
00001000
00010000
00000000
00000010
00001000
00010000
00000000
,
00000000
00000000
00000000
01100000
00000000
00000000
00000000
00000000
00000000
00000110
00000000
00000011
,
00000000
00001000
00000000
00011000
00000000
00010000
00000000
01100000
00000000
10010000
00000000
10010000
,
00000000
00110000
00011000
00001010
,
00011000
00000000
00010000
00001000
00010000
00000000
00000010
00001000
,
00010000
00000000
00001000
00010000
00001000
00010000
00100000
00010000
,
00001000
00000000
00010000
00001000
01000000
00000000
00011000
00000000
,
00000100
00002000
00010000
00000000
00003100
00002000
00010000
00000000
,
00003100
00001000
00010000
00000000
00100000
00020000
00001000
00000000
,
00130000
00020000
00001000
00000000
00230000
00000000
20300000
00000000
,
30010000
01000000
00100000
00000000
00010000
01000000
00100000
00010000
,
00001000
00000100
00000020
00000000
00000032
00000000
00001003
00000100
,
00000010
00000000
00000001
00000100
00000010
00000000
00000010
00001000
,
00010000
00000000
00011000
00000000
10010000
00000000
00001000
00000100
,
00000002
00000000
00000013
00000100
00001000
00000000
00000100
00001000
,
00010000
00000000
00100000
00010000
00001000
00000000
00001000
00010000
,
01000000
10000000
00100000
00000000
00100000
00010000
00001000
00000000
,
00002002
00000000
00003003
00000000
00000001
00000010
00000001
00000010
,
00001000
00000010
00001000
00010000
00001000
00010000
00100000
00010000
,
00100000
10000000
00100000
10000000
00100000
01000000
00100000
01000000
,
00010000
01000000
00010000
00000100
00010000
00000100
00000001
00000100
,
00000001
00000010
00000100
00001000
00010000
00001000
00010000
00001000
,
00010000
00100000
00010000
00001000
00000010
00001000
00010000
00100000
,
00010000
00001000
00000010
00001000
00010000
00100000
00010000
00001000
,
00000100
00001000
00010000
01000000
00010000
00001000
00000100
00001000
,
00010000
01000000
00010000
00000000
00011000
00000000
00000000
00000000
,
00010000
00101000
00010000
00010010
00010000
00101000
,
00011000
00000000
00000000
00000000
,
00000000
00000000
00000000
00000000
;
