#TITLE:RUSH HOUR;
#SUBTITLE:;
#ARTIST:ARDOLF;
#MUSIC:RUSH HOUR.ogg;
#BANNER:RUSH HOUR.png;
#BACKGROUND:RUSH HOUR-bg.png;
#LYRICSPATH:;
#CDTITLE:Popular.png;
#SAMPLESTART:19.636;
#SAMPLELENGTH:15.000;
#BPMS:0.000000=165.000000;
#STOPS:256.000000=0.045000,
256.125000=0.045000,
256.250000=0.045000,
256.375000=0.045000
;
#TIMESIGNATURES:;
#BGCHANGES:0.000=RUSH HOUR.avi=0.000=0=0=0=StretchNoLoop====,
99999=-nosongbg-=1.000=0=0=0 // don't automatically add -songbackground-
;
#FGCHANGES:;
#ATTACKS:;
#SPEEDS:;
#SCROLLS:;
#DISPLAYBPM:165.000;
#TAGS:DMCA;

//---------------dance-single - Wrland---------------
#NOTES:
     dance-single:
     Wrland:
     Beginner:
     3:
     0,0,0,0,0:
// measure 0
0000
0000
0000
0000
,  // measure 1
0000
0000
0000
0000
,  // measure 2
0000
0000
0000
0000
,  // measure 3
0000
0000
0000
0000
,  // measure 4
0000
0000
0000
0000
,  // measure 5
0000
0000
0000
0000
,  // measure 6
0000
0000
0000
0000
,  // measure 7
0000
0000
0000
0000
,  // measure 8
1000
0000
0000
0000
,  // measure 9
0001
0000
0000
0000
,  // measure 10
0100
0000
0000
0000
,  // measure 11
0010
0000
0000
0000
,  // measure 12
0100
0000
0000
0000
,  // measure 13
0010
0000
0000
0000
,  // measure 14
0100
0000
1000
0000
,  // measure 15
0002
0000
0000
0003
,  // measure 16
1000
0000
0001
0000
,  // measure 17
1000
0000
0100
0000
,  // measure 18
1000
0000
0100
0000
,  // measure 19
0010
0000
0001
0000
,  // measure 20
0100
0000
0010
0000
,  // measure 21
0100
0000
0010
0000
,  // measure 22
0001
0000
0100
0000
,  // measure 23
0010
0000
0000
0100
,  // measure 24
0010
0000
0001
0000
,  // measure 25
0100
0000
1000
0000
,  // measure 26
0100
0000
1000
0000
,  // measure 27
0100
0000
0010
0000
,  // measure 28
0001
0000
0100
0000
,  // measure 29
0010
0000
0100
0000
,  // measure 30
1000
0000
0100
0000
,  // measure 31
0020
0000
0000
0130
,  // measure 32
0000
0000
0000
0000
,  // measure 33
0000
0000
0000
0000
,  // measure 34
0000
0000
0000
0000
,  // measure 35
0000
0000
0000
0000
,  // measure 36
0000
0000
0000
0000
,  // measure 37
0000
0000
0000
0000
,  // measure 38
0000
0000
0000
0000
,  // measure 39
0000
0000
0000
0000
,  // measure 40
0001
0000
0000
0000
,  // measure 41
1000
0000
0000
0000
,  // measure 42
0100
0000
0000
0000
,  // measure 43
0010
0000
0000
0000
,  // measure 44
0010
0000
0000
0000
,  // measure 45
1000
0000
0000
0000
,  // measure 46
1000
0000
0000
0000
,  // measure 47
0001
0000
0000
0000
,  // measure 48
0010
0000
0000
0000
,  // measure 49
0100
0000
0000
0000
,  // measure 50
0100
0000
0000
0000
,  // measure 51
0100
0000
0000
0000
,  // measure 52
0001
0000
0000
0000
,  // measure 53
0010
0000
0000
0000
,  // measure 54
0001
0000
0000
0000
,  // measure 55
2000
0000
0000
3001
,  // measure 56
0100
0000
1000
0000
,  // measure 57
0100
0000
0001
0000
,  // measure 58
0100
0000
0010
0000
,  // measure 59
0001
0000
0100
0000
,  // measure 60
0001
0000
0100
0000
,  // measure 61
1000
0000
0100
0000
,  // measure 62
1000
0000
0100
0000
,  // measure 63
0010
0000
0100
0000
,  // measure 64
0000
0010
0000
0000
0000
0100
0000
0000
,  // measure 65
0000
0001
0000
0000
0000
0100
0000
0000
,  // measure 66
0000
1000
0000
0000
0000
0100
0000
0000
,  // measure 67
0000
1000
0000
0000
0000
0100
0000
0000
,  // measure 68
0000
0001
0000
0000
0000
0100
0000
0000
,  // measure 69
0000
0010
0000
0000
0000
0001
0000
0000
,  // measure 70
0000
0100
0000
0000
0000
0010
0000
0200
,  // measure 71
0000
0000
0000
0000
0000
0310
0000
0001
,  // measure 72
0000
0000
0000
1000
0000
0000
0000
0001
,  // measure 73
0000
0000
0000
1000
0000
0000
0000
0100
,  // measure 74
0000
0000
0000
1000
0000
0000
0000
0100
,  // measure 75
0000
0000
0000
0010
0000
0000
0000
0001
,  // measure 76
0000
0000
0000
0100
0000
0000
0000
0010
,  // measure 77
0000
0000
0000
0100
0000
0000
0000
1000
,  // measure 78
0000
0000
0000
0100
0000
0000
0000
2000
,  // measure 79
0000
0000
0000
0000
0000
3001
0000
0100
,  // measure 80
0000
0000
0000
0010
0000
0000
0000
0001
,  // measure 81
0000
0000
0000
0100
0000
0000
0000
0010
,  // measure 82
0000
0000
0000
0100
0000
0000
0000
0001
,  // measure 83
0000
0000
0000
0100
0000
0000
0000
1000
,  // measure 84
0000
0000
0000
0100
0000
0000
0000
0001
,  // measure 85
0000
0000
0000
0100
0000
0000
0000
0010
,  // measure 86
0000
0000
0000
0100
0000
0000
0000
0020
,  // measure 87
0000
0000
0000
0000
0000
0130
0000
0000
;

//---------------dance-single - Wrland---------------
#NOTES:
     dance-single:
     Wrland:
     Easy:
     5:
     0,0,0,0,0:
// measure 0
0000
0000
0000
0000
,  // measure 1
0000
0000
0000
0000
,  // measure 2
0000
0000
0000
0000
,  // measure 3
0000
0000
0000
0000
,  // measure 4
0000
0000
0000
0000
,  // measure 5
0000
0000
0000
0000
,  // measure 6
0000
0000
0000
0000
,  // measure 7
0000
0000
0000
0000
,  // measure 8
1000
0000
1000
0000
,  // measure 9
0001
0000
0001
0000
,  // measure 10
0100
0000
0100
0000
,  // measure 11
0010
0000
0010
0000
,  // measure 12
0100
0000
0100
0000
,  // measure 13
0010
0000
0010
0000
,  // measure 14
0100
0000
1000
0000
,  // measure 15
0002
0000
0000
0003
,  // measure 16
1000
0000
0001
0000
,  // measure 17
1000
0000
0100
0000
,  // measure 18
1000
0000
0100
0000
,  // measure 19
0010
0000
0001
0000
,  // measure 20
0100
0000
0010
0000
,  // measure 21
0100
0000
0010
0000
,  // measure 22
0001
0000
0100
0000
,  // measure 23
0010
0000
0000
0100
,  // measure 24
0010
0000
0001
0000
,  // measure 25
0100
0000
1000
0000
,  // measure 26
0100
0000
1000
0000
,  // measure 27
0100
0000
0010
0000
,  // measure 28
0001
0000
0100
0000
,  // measure 29
0010
0000
0100
0000
,  // measure 30
1000
0000
0100
0000
,  // measure 31
0020
0000
0000
0130
,  // measure 32
0000
0000
0000
0000
,  // measure 33
0000
0000
0000
0000
,  // measure 34
0000
0000
0000
0000
,  // measure 35
0000
0000
0000
0000
,  // measure 36
0000
0000
0000
0000
,  // measure 37
0000
0000
0000
0000
,  // measure 38
0000
0000
0000
0000
,  // measure 39
0000
0000
0000
0000
,  // measure 40
0001
0000
0001
0000
,  // measure 41
1000
0000
1000
0000
,  // measure 42
0100
0000
0100
0000
,  // measure 43
0010
0000
0100
0000
,  // measure 44
0010
0000
0100
0000
,  // measure 45
1000
0000
0100
0000
,  // measure 46
1000
0000
0100
0000
,  // measure 47
0001
0000
0100
0000
,  // measure 48
0010
0000
0010
0000
,  // measure 49
0100
0000
1000
0000
,  // measure 50
0100
0000
1000
0000
,  // measure 51
0100
0000
0010
0000
,  // measure 52
0001
0000
0100
0000
,  // measure 53
0010
0000
0100
0000
,  // measure 54
0001
0000
0100
0000
,  // measure 55
2000
0000
0000
3001
,  // measure 56
0100
0000
1000
0000
,  // measure 57
0100
0000
0001
0000
,  // measure 58
0100
0000
0010
0000
,  // measure 59
0001
0000
0100
0000
,  // measure 60
0001
0000
0100
0000
,  // measure 61
1000
0000
0100
0000
,  // measure 62
1000
0000
0100
0000
,  // measure 63
0010
0000
0100
0000
,  // measure 64
0000
0010
0000
0000
0000
0100
0000
0000
,  // measure 65
0000
0001
0000
0000
0000
0100
0000
0000
,  // measure 66
0000
1000
0000
0000
0000
0100
0000
0000
,  // measure 67
0000
1000
0000
0000
0000
0100
0000
0000
,  // measure 68
0000
0001
0000
0000
0000
0100
0000
0000
,  // measure 69
0000
0010
0000
0000
0000
0001
0000
0000
,  // measure 70
0000
0100
0000
0000
0000
0010
0000
0200
,  // measure 71
0000
0000
0000
0000
0000
0310
0000
0001
,  // measure 72
0000
0000
0000
1000
0000
0000
0000
0001
,  // measure 73
0000
0000
0000
1000
0000
0000
0000
0100
,  // measure 74
0000
0000
0000
1000
0000
0000
0000
0100
,  // measure 75
0000
0000
0000
0010
0000
0000
0000
0001
,  // measure 76
0000
0000
0000
0100
0000
0000
0000
0010
,  // measure 77
0000
0000
0000
0100
0000
0000
0000
1000
,  // measure 78
0000
0000
0000
0100
0000
0000
0000
2000
,  // measure 79
0000
0000
0000
0000
0000
3001
0000
0100
,  // measure 80
0000
0000
0000
0010
0000
0000
0000
0001
,  // measure 81
0000
0000
0000
0100
0000
0000
0000
0010
,  // measure 82
0000
0000
0000
0100
0000
0000
0000
0001
,  // measure 83
0000
0000
0000
0100
0000
0000
0000
1000
,  // measure 84
0000
0000
0000
0100
0000
0000
0000
0001
,  // measure 85
0000
0000
0000
0100
0000
0000
0000
0010
,  // measure 86
0000
0000
0000
0100
0000
0000
0000
0020
,  // measure 87
0000
0000
0000
0000
0000
0130
0000
0000
;

//---------------dance-single - Wrland---------------
#NOTES:
     dance-single:
     Wrland:
     Medium:
     9:
     0,0,0,0,0:
// measure 0
0000
0000
0000
0000
,  // measure 1
0000
0000
0000
0000
,  // measure 2
0000
0000
0000
0000
,  // measure 3
0000
0000
0000
0000
,  // measure 4
0100
0100
0100
0010
,  // measure 5
0001
0001
0001
0100
,  // measure 6
0010
0010
0100
1000
,  // measure 7
0100
0000
1000
0000
0100
1000
0100
0000
,  // measure 8
0100
0010
0001
0100
,  // measure 9
0010
0000
0100
0000
0001
0100
0001
0000
,  // measure 10
0100
0010
0100
1000
,  // measure 11
0100
0000
1000
0000
0100
1000
0100
0000
,  // measure 12
0010
0000
0001
0000
0100
0001
0100
0000
,  // measure 13
0010
0000
0100
0000
1000
0100
1000
0000
,  // measure 14
0100
0000
0001
0000
0100
0001
0100
0000
,  // measure 15
0020
0000
0000
0030
,  // measure 16
0100
0000
0010
0000
0001
0100
0001
0000
,  // measure 17
0100
0000
1000
0000
0100
1000
0100
0000
,  // measure 18
0100
0000
0010
0000
0001
0100
0001
0000
,  // measure 19
0100
0000
0010
0000
1000
0100
1000
0000
,  // measure 20
0100
0000
0010
0000
0001
0100
0001
0000
,  // measure 21
0100
0000
0010
0000
0100
0010
0100
0000
,  // measure 22
1000
0000
0100
0000
0010
0001
0100
0000
,  // measure 23
0202
0000
0000
0303
,  // measure 24
0100
0000
1000
0000
0100
1000
0100
0000
,  // measure 25
0100
0000
0010
0000
0001
0100
0001
0000
,  // measure 26
0100
0000
0010
0000
0100
0010
0100
0000
,  // measure 27
1000
0000
0100
0000
1000
0100
1000
0000
,  // measure 28
0100
0000
0010
0000
0001
0100
0001
0000
,  // measure 29
0100
0000
0010
0000
0100
0010
0100
0000
,  // measure 30
1000
0000
0100
0000
0001
0100
0001
0000
,  // measure 31
0200
0000
0000
0310
,  // measure 32
0000
0000
0000
0000
,  // measure 33
0000
0000
0000
0000
,  // measure 34
0000
0000
0000
0000
,  // measure 35
0000
0000
0000
0000
,  // measure 36
0000
0000
0000
0000
,  // measure 37
0000
0000
0000
0000
,  // measure 38
0000
0000
0000
0000
,  // measure 39
0000
0000
0000
0000
,  // measure 40
0001
0000
1000
0000
0001
1000
0001
0000
,  // measure 41
1000
0000
0001
0000
1000
0001
1000
0000
,  // measure 42
0001
0000
1000
0000
0001
1000
0001
0000
,  // measure 43
1000
0000
0001
0000
1000
0001
1000
0000
,  // measure 44
0100
0000
0010
0000
0100
0010
0100
0000
,  // measure 45
0010
0000
0100
0000
0010
0100
0010
0000
,  // measure 46
0100
0000
0010
0000
0100
0010
0100
0000
,  // measure 47
0010
0000
0100
0000
0010
0100
0010
0000
,  // measure 48
0100
0000
1000
0000
0100
1000
0100
0000
,  // measure 49
0100
0000
0010
0000
0001
0100
0001
0000
,  // measure 50
0100
0000
0010
0000
0001
0100
0001
0000
,  // measure 51
0010
0000
0100
0000
1000
0100
1000
0000
,  // measure 52
0100
0000
0010
0000
0001
0100
0001
0000
,  // measure 53
0100
0000
0010
0000
0100
0010
0100
0000
,  // measure 54
1000
0000
0100
0000
1000
0100
1000
0000
,  // measure 55
0200
0000
0000
0310
,  // measure 56
0001
0000
1000
0000
0001
1000
0100
1000
,  // measure 57
0100
0000
0100
0000
0010
0100
0010
0001
,  // measure 58
0100
0000
0010
0000
0100
0010
0001
0100
,  // measure 59
0010
0000
0100
0000
1000
0100
1000
0100
,  // measure 60
0010
0000
0001
0000
0100
0001
0100
0001
,  // measure 61
0100
0000
0010
0000
0100
1000
0100
1000
,  // measure 62
0100
0000
0100
0000
0010
0001
0100
0010
,  // measure 63
0100
0000
0010
0000
0001
0100
0001
0100
,  // measure 64
0000
0010
0000
0100
0000
0010
0001
0100
,  // measure 65
0000
0010
0000
0100
1000
0100
1000
0100
,  // measure 66
0000
0010
0000
0001
0100
0001
0100
0001
,  // measure 67
0000
0100
0000
0010
0100
0010
0100
1000
,  // measure 68
0000
0100
0000
0010
0001
0100
0001
0100
,  // measure 69
0000
0010
0000
0100
0010
0100
0010
0001
,  // measure 70
0000
0100
0000
0010
0100
0010
0001
0200
,  // measure 71
0000
0000
0000
0000
0000
0301
0000
0010
,  // measure 72
0000
0100
0000
1000
0100
1000
0000
0100
,  // measure 73
0000
0010
0000
0001
0100
0001
0000
0100
,  // measure 74
0000
0010
0000
0100
0010
0100
0000
1000
,  // measure 75
0000
0100
0000
1000
0100
1000
0000
0100
,  // measure 76
0000
0010
0100
0010
0000
0001
0000
0100
,  // measure 77
0000
0001
0100
0001
0000
0100
0000
0010
,  // measure 78
0000
0100
0010
0100
0000
0001
0000
0100
,  // measure 79
0001
0100
0000
0010
0100
0110
0000
1000
,  // measure 80
0000
0100
1000
0100
0000
0100
0000
0001
,  // measure 81
0000
0100
0001
0100
0000
0010
0100
1000
,  // measure 82
0000
0100
0000
0010
0001
0100
0000
0010
,  // measure 83
0000
0001
0100
0001
0000
0100
0000
1000
,  // measure 84
0000
0100
0010
0100
0000
1000
0000
0100
,  // measure 85
0000
0010
0001
0100
0000
0010
0000
0001
,  // measure 86
0000
0100
0001
0100
0000
0010
0000
0200
,  // measure 87
0000
0000
0000
0000
0010
0310
0000
0000
;

//---------------dance-single - Wrland---------------
#NOTES:
     dance-single:
     Wrland:
     Hard:
     12:
     0,0,0,0,0:
// measure 0
0000
0000
0000
0000
,  // measure 1
0000
0000
0000
0000
,  // measure 2
0000
0000
0000
0000
,  // measure 3
0000
0000
0000
0000
,  // measure 4
0001
1000
0001
0000
1000
0100
1000
0000
,  // measure 5
0100
0000
0001
0100
0010
0100
0010
0000
,  // measure 6
0100
1000
0100
0000
0100
0010
0001
0000
,  // measure 7
0100
0010
0001
0100
0010
0100
0010
0001
,  // measure 8
0100
0000
0100
0000
0001
0000
0100
0000
0001
0100
0001
0000
0200
0000
0300
0000
,  // measure 9
0010
0000
0100
0000
1000
0000
0100
0000
1000
0100
1000
0000
0200
0000
0300
0000
,  // measure 10
0010
0000
0100
0000
0010
0000
0001
0000
0100
0001
0100
0000
0002
0000
0003
0000
,  // measure 11
0010
0000
0100
0000
0010
0000
0100
0000
1000
0100
1000
0000
0200
0000
0300
0000
,  // measure 12
0010
0100
0010
0001
0100
0001
0100
0010
,  // measure 13
0100
0010
0100
0010
0001
0010
0100
1000
0100
0001
0010
0100
0001
0010
0100
0001
,  // measure 14
0010
0100
0010
0001
0100
0010
0100
1000
,  // measure 15
0100
0100
0100
0100
0200
0000
0000
0000
0010
0000
0001
0000
0010
0000
0001
0000
,  // measure 16
2300
0000
0000
3000
0001
0000
0010
0000
1000
0100
0001
0000
1000
0000
0001
0000
,  // measure 17
0002
0000
0000
0003
1000
0000
0100
0000
1000
0100
0010
0000
1000
0000
0010
0000
,  // measure 18
0200
0000
0300
0000
0010
0000
0100
0000
0010
0001
0100
0000
0010
0000
0001
0000
,  // measure 19
0100
0000
0010
0000
0100
0000
1000
0000
0100
0001
1000
0000
0010
0100
0001
0000
,  // measure 20
0200
0000
0300
0000
0010
0000
0100
0000
0010
1000
0001
0000
0100
0000
0010
0000
,  // measure 21
0100
0010
1000
0100
2000
3000
0001
0100
,  // measure 22
0020
0000
0030
0000
0001
1000
0100
0010
0001
0000
0100
0000
0001
0000
0100
0000
,  // measure 23
2000
0000
3000
0020
0000
0030
0100
0000
1000
0000
0100
0000
1001
0000
0000
0000
,  // measure 24
0100
0010
0001
0100
0010
0100
1000
0100
,  // measure 25
0010
0000
1000
0000
0001
0000
0100
0000
0010
0001
0100
0000
1000
0000
0100
0000
,  // measure 26
0010
0001
0100
1000
0100
0010
0001
0100
,  // measure 27
1000
0100
1000
0000
0100
0010
0001
0000
0100
0000
0010
0000
0100
0000
0010
0000
,  // measure 28
0001
0000
0010
0000
0100
0000
1000
0000
0100
1000
0100
0000
0010
0000
0100
0000
,  // measure 29
0010
0000
0001
0000
0100
0000
0010
0000
0001
0100
0001
0000
0100
0000
0010
0000
,  // measure 30
0100
0010
0001
0100
0010
0100
1000
0100
,  // measure 31
0020
0000
0000
0000
0000
0100
1030
0000
,  // measure 32
0200
0000
0000
0000
,  // measure 33
0000
0000
0000
0000
,  // measure 34
0000
0000
0000
0000
,  // measure 35
0000
0000
0000
0000
,  // measure 36
0020
0000
0000
0000
,  // measure 37
0000
0000
0000
0000
,  // measure 38
0000
0000
0000
0000
,  // measure 39
0330
0000
0000
0000
,  // measure 40
1000
0001
1000
0100
1000
0100
0010
0000
,  // measure 41
0001
0100
0010
0100
0010
0001
0100
0000
,  // measure 42
0010
0100
0010
0001
0100
0010
0100
0000
,  // measure 43
1000
0100
1000
0100
0010
0001
0100
0000
,  // measure 44
0001
0100
0001
0100
0010
0100
1000
0000
,  // measure 45
0100
0010
0001
0100
0010
0100
1000
0000
,  // measure 46
0100
0010
0001
0100
0010
0100
1000
0100
,  // measure 47
0010
0000
0000
0100
0000
0000
0010
0000
0001
0000
0100
0000
0010
0000
0100
0000
,  // measure 48
1000
0000
0001
0000
1000
0000
0001
0000
1000
0001
1000
0000
0001
0000
0100
0000
,  // measure 49
0010
0000
0001
0000
0100
0000
0010
0000
0100
0010
0100
0000
0010
0000
0001
0000
,  // measure 50
0100
0000
0010
0000
0100
0000
1000
0000
0100
1000
0100
0000
0010
0000
0100
0000
,  // measure 51
0010
0000
0001
0000
0100
0000
0001
0000
0100
0001
0100
0000
0010
0000
0100
0000
,  // measure 52
1000
0000
0100
0000
1000
0000
0100
0000
0010
0001
0010
0000
0100
0000
1000
0000
,  // measure 53
0100
0000
0010
0000
0100
0000
0010
0000
0001
0100
0010
0000
0100
0000
1000
0000
,  // measure 54
0100
0010
0001
0100
0001
0000
0010
0000
0100
1000
0100
0010
0001
0000
0100
0000
,  // measure 55
0120
0100
0100
0100
0100
0000
0000
0000
1000
0000
0100
0000
1000
0000
0100
0000
,  // measure 56
1030
0100
0010
0001
0100
0010
0100
1000
,  // measure 57
0100
0000
0100
0010
0001
0100
0010
0100
,  // measure 58
1000
0100
0010
0001
0100
0010
0100
0010
,  // measure 59
0001
0000
0000
0100
0000
0000
0010
0000
0100
0000
1000
0000
0100
0000
0010
0000
,  // measure 60
0100
0010
0001
0100
0010
0100
1000
0100
,  // measure 61
0010
0001
0100
0010
0001
0100
0010
0002
,  // measure 62
0003
0010
0100
0010
0010
0100
1000
0100
,  // measure 63
0010
0000
0000
0001
0000
0000
0100
0000
0010
0000
0100
0000
1000
0000
0100
0000
,  // measure 64
0000
0010
0100
0010
0001
0100
0010
0100
,  // measure 65
1000
0100
0010
0001
0100
0010
0100
0000
,  // measure 66
0100
0010
0001
0100
0010
0100
1000
0100
,  // measure 67
0000
0100
0000
0000
0010
0000
0001
0000
0100
0000
0010
0000
0100
0000
1000
0000
,  // measure 68
0100
0010
0001
0100
0010
0100
1000
0100
,  // measure 69
0010
0000
0001
0000
0100
0000
0020
0000
0030
0200
0000
0300
0010
0000
0000
0000
,  // measure 70
0100
0100
0010
0100
1000
0100
0010
0002
,  // measure 71
1000
0100
1000
0100
1000
0100
1000
0203
,  // measure 72
0300
0000
0010
0100
0010
0000
0001
0000
0100
0000
0010
0000
0100
0000
0010
0000
,  // measure 73
0100
0010
0100
0020
0030
0001
1000
0002
,  // measure 74
0003
0000
0100
1000
0100
0000
0010
0000
0100
0000
0010
0000
0001
0000
0100
0000
,  // measure 75
0100
0010
0000
0001
0100
0000
0010
0000
0100
0000
1000
0000
0100
0000
0020
0000
,  // measure 76
0030
0000
0001
1000
0001
0000
0100
0000
0010
0000
0001
0000
0100
0000
0010
0000
,  // measure 77
0100
1000
0100
2000
3000
0100
0010
0002
,  // measure 78
0003
0000
0100
0010
0001
0000
0010
0000
0100
0000
1000
0000
0100
0000
0020
0000
,  // measure 79
0030
0200
0000
0300
0010
0000
0001
0000
0100
0000
1001
0000
0000
0000
0100
0000
,  // measure 80
0001
0000
0010
0100
0010
0000
0001
0000
0100
0000
0010
0000
0100
0000
0010
0001
,  // measure 81
0100
0100
0010
0100
0010
1000
0100
1000
,  // measure 82
0001
0000
0100
0010
0001
0000
0100
0000
0010
0000
0100
0000
0010
0000
0001
1000
,  // measure 83
0001
0000
1000
0001
1000
0000
0100
0010
0001
0000
0010
0100
1000
0000
0100
0000
,  // measure 84
0001
0000
0010
0100
0010
0000
0001
0000
0100
0000
0010
0000
0100
0000
1000
0001
,  // measure 85
0100
0010
0010
1000
0001
0010
0100
0000
0001
0000
0010
0000
0100
0000
0010
0001
,  // measure 86
0100
0000
0010
0000
0001
0000
0100
0001
0010
0000
0100
0000
0100
0010
0200
0000
,  // measure 87
0300
0020
0000
0030
0100
0000
0010
0000
0001
0000
0100
0000
0000
0000
1001
0000
;

//---------------dance-single - Wrland---------------
#NOTES:
     dance-single:
     Wrland:
     Challenge:
     15:
     0,0,0,0,0:
// measure 0
0000
0000
0000
0000
,  // measure 1
0000
0000
0000
0000
,  // measure 2
0000
0000
0000
0000
,  // measure 3
0000
0000
0000
0000
,  // measure 4
0001
0000
1000
0000
0001
0000
0100
0010
1000
0000
0100
0000
0010
0000
0100
0000
,  // measure 5
0001
0000
0100
0000
0010
0000
0100
0010
0100
0000
1000
0000
0100
0000
0010
0000
,  // measure 6
0001
0000
0100
0000
0001
0000
0100
0001
0100
0000
0010
0000
0100
0000
1000
0000
,  // measure 7
0100
0010
0100
0000
0001
0100
0001
0000
0100
0010
1000
0000
0100
0000
0010
0000
,  // measure 8
0001
0000
0100
0000
0010
0000
0100
0001
0100
0000
0010
0100
1000
0000
0010
0000
,  // measure 9
0100
0000
0001
0000
0100
0000
0001
0100
0001
0000
0010
0100
0010
0000
0100
0000
,  // measure 10
1000
0000
0100
0000
1000
0000
0100
1000
0100
0000
0010
0100
0010
0000
0001
0000
,  // measure 11
0100
0000
0001
0000
0100
0000
0001
0100
0001
0000
0010
0100
0010
0100
1000
0100
,  // measure 12
0010
0000
0001
0000
0100
0000
0001
0100
0001
0000
0100
0000
0010
0000
0100
0000
,  // measure 13
1000
0000
0100
0000
1000
0000
0100
1000
0100
0000
0010
0000
0100
0000
0010
0000
,  // measure 14
0001
0100
0010
0001
0100
0010
0001
0010
0100
0010
0100
0010
1000
0100
0010
0100
,  // measure 15
0001
0000
1000
0001
0100
0000
0010
0000
0100
0001
0010
0000
0100
0000
0010
0000
,  // measure 16
0002
0000
0000
0000
1003
0100
0010
0100
0010
0000
0001
0000
0100
0000
0010
0000
,  // measure 17
0200
0000
0000
0000
0310
0001
0100
0000
0020
0000
0000
0000
0130
0000
0001
0000
,  // measure 18
2000
0000
0000
0000
3100
0010
0100
0001
0100
0000
0010
0000
0100
0000
1000
0000
,  // measure 19
0200
0000
0000
0000
0310
0100
0001
0001
0100
0000
0010
0000
0100
0000
0010
0000
,  // measure 20
0002
0000
0000
0000
1003
0010
0100
1000
0100
0000
0010
0000
0100
0000
0001
0000
,  // measure 21
2000
0000
0000
0000
3100
0010
0001
0100
0002
0000
0000
0003
0100
0000
1000
0000
,  // measure 22
0002
0000
0000
0000
0103
0001
0010
0001
0100
0000
0010
0000
0100
0000
0010
0000
,  // measure 23
0001
0010
0000
0100
0001
0000
0010
0000
0100
0010
0000
0001
1101
0000
0000
0000
,  // measure 24
2000
0000
0000
0000
3100
0010
0100
0001
0100
0000
0010
0000
0100
0000
0001
0000
,  // measure 25
0002
0000
0000
0000
0013
0100
0010
0000
0002
0000
0000
0000
1003
0010
0100
1000
,  // measure 26
0020
0000
0000
0000
0031
0100
0001
0100
0010
0000
0001
0000
0100
0000
0010
0000
,  // measure 27
0100
1000
0000
0100
0010
0000
0001
0000
0100
0000
0010
0000
0001
0010
0100
0000
,  // measure 28
0200
0000
0000
0000
0310
0100
0010
0100
0002
0000
0000
0000
1003
0001
0010
0100
,  // measure 29
0020
0000
0000
0000
0130
0010
0100
0001
2000
0000
0000
0000
3010
0000
0001
0000
,  // measure 30
0200
0000
0000
0000
0301
0010
0001
0010
0100
0010
0100
0001
0010
0001
0100
0001
,  // measure 31
0010
0000
0000
0100
0010
0000
0001
0000
0100
0010
0000
1000
0000
0000
0001
0000
,  // measure 32
1000
0000
0000
0000
0100
0000
0000
1000
0000
0000
0100
0000
1000
0000
0000
0000
,  // measure 33
0100
0000
0000
0000
0010
0000
0000
0001
0000
0000
0100
0000
0001
0000
0000
0000
,  // measure 34
0100
0000
0000
0000
0010
0000
0000
0001
0000
0000
0100
0000
0001
0000
0000
0000
,  // measure 35
0100
0000
0000
0000
0010
0000
0000
0100
0000
0000
0010
0000
0001
0000
0000
0000
,  // measure 36
0100
0000
0000
0000
1000
0000
0000
0100
0000
0000
1000
0000
0100
0000
0000
0000
,  // measure 37
1000
0000
0000
0000
0100
0000
0000
0010
0000
0000
0001
0000
0100
0000
0000
0000
,  // measure 38
0010
0000
0000
0000
0100
0000
0000
0010
0000
0000
0001
0000
0100
0000
0000
0000
,  // measure 39
0010
0000
0000
0000
0100
0000
0000
0010
0000
0000
0001
0000
0100
0000
0010
0000
,  // measure 40
1000
0010
0200
0300
0020
0030
0100
0010
,  // measure 41
0002
0003
0200
0300
1000
0100
1000
0100
,  // measure 42
0020
0030
0001
1000
0100
0001
0010
0100
,  // measure 43
0020
0030
0100
1000
0100
0010
0001
0100
,  // measure 44
0020
0030
0200
0300
2000
3000
0100
0010
,  // measure 45
0002
0003
0200
0300
0010
0001
0100
0010
,  // measure 46
0200
0300
1000
0100
1000
0100
0010
0001
,  // measure 47
0200
0300
0001
0100
0001
0100
0010
0100
,  // measure 48
0100
0010
0100
0010
0001
0000
1000
0000
0100
0010
0100
0010
0100
0000
0001
0000
,  // measure 49
0020
0000
0230
0000
1300
0100
0010
0001
,  // measure 50
0100
0010
0100
0001
1000
0000
0100
0000
1000
0100
1000
0100
0010
0000
0001
0000
,  // measure 51
0002
0000
0000
0000
2003
0000
0000
0000
3100
0010
1000
0100
0001
0000
0010
0000
,  // measure 52
0100
0000
0010
0000
0001
0000
0100
0000
0010
0100
0010
0100
0010
0000
0001
0000
,  // measure 53
0100
0000
1000
0000
0100
0000
1000
0000
0100
1000
0100
0010
0001
0000
0100
0000
,  // measure 54
0010
0001
0100
0010
0001
0010
0100
0010
0001
0010
0100
1000
0100
0010
0100
1000
,  // measure 55
0100
0000
0010
0100
0001
0000
0010
0000
0100
0000
0010
0000
0101
0000
1100
0000
,  // measure 56
0200
0310
0002
0103
2000
3100
0200
1300
,  // measure 57
0200
0000
0310
0000
0002
0000
0103
0000
0010
0001
0100
0000
0010
0000
0100
0000
,  // measure 58
2000
3100
0020
0031
0020
0130
0020
0031
,  // measure 59
0100
0001
0100
0000
1000
0100
1000
0000
0100
0000
0010
0000
0001
0000
0100
0000
,  // measure 60
0020
0130
0020
0031
0200
0310
0200
1300
,  // measure 61
0200
0000
0310
0000
0002
0000
0103
0000
0010
1000
0001
0000
0100
0001
0010
0000
,  // measure 62
0200
0310
0002
0103
0020
0130
2000
3100
,  // measure 63
0020
0000
0031
0000
2000
0000
3100
0000
0010
0001
0100
0010
1000
0100
0010
0001
,  // measure 64
1000
0100
0010
0001
0200
0000
0000
0000
0310
0000
0000
0000
0200
0000
0000
0000
0310
0000
0000
0000
0002
0000
0000
0000
0103
0000
0000
0000
0010
0000
0001
0000
,  // measure 65
0100
0010
1000
0000
0100
0000
0010
0000
0001
0010
0100
0000
0010
0000
0200
0000
,  // measure 66
0310
0002
0103
0020
1030
0200
0310
0001
,  // measure 67
0100
1000
0010
0000
0001
0000
0100
0000
0010
1000
0100
0000
1000
0000
0201
0000
,  // measure 68
0310
0000
0200
0000
0310
0000
0200
0000
0310
0000
0002
0000
0013
0100
2000
0000
,  // measure 69
3100
0000
0020
0000
0031
0000
0200
0000
0310
1000
0002
0000
0013
0000
0100
0010
,  // measure 70
0100
0000
1000
0000
0100
0000
0010
0100
0001
0000
0100
0000
0020
0000
0000
0000
,  // measure 71
0100
1000
0001
0100
1000
0100
1000
0230
,  // measure 72
0000
0000
0310
0001
0010
0100
0010
0000
0100
0000
0010
0000
0001
0000
0200
0000
,  // measure 73
0000
0000
0301
0010
0100
0001
2000
0000
0000
0000
3100
0000
0010
0000
0002
0000
,  // measure 74
0000
0000
1003
0100
0010
0100
1000
0000
0001
0000
1000
0000
0100
0000
0100
0000
,  // measure 75
0010
0100
0000
0001
0100
0000
1000
0000
0001
0000
0100
0001
1000
0000
0200
0000
,  // measure 76
0000
0000
0310
0001
0010
0100
1000
0000
0100
0000
0010
0000
1000
0000
0200
0000
,  // measure 77
0000
0310
1000
0002
0000
1003
0100
0020
,  // measure 78
0000
0000
0130
1000
0100
0001
0010
0000
0100
0000
0010
0000
0100
0000
0001
0000
,  // measure 79
0100
0010
0000
0000
0001
0000
1000
0100
0000
0001
1011
0000
0000
0000
0200
0000
,  // measure 80
0000
0000
0310
0001
0010
0100
0010
0000
0000
0000
1000
0100
0010
0001
0200
0000
,  // measure 81
0310
0002
1003
0002
0000
1003
0100
0200
,  // measure 82
0000
0000
0310
0001
0010
0100
1000
0000
0100
0000
0010
0000
0001
0000
0100
0010
,  // measure 83
0001
0010
0100
0000
0100
0000
1000
0100
0001
0100
0010
0000
0100
0000
0002
0000
,  // measure 84
0000
0000
0103
1000
0100
0010
0100
0000
0010
0000
0001
0100
0010
0000
2000
0000
,  // measure 85
0000
3001
0010
0200
0000
0310
1000
0002
,  // measure 86
0000
0000
1003
0100
0010
0001
0100
0010
0001
0010
0100
0000
1000
0001
0010
0000
,  // measure 87
1000
0100
0000
0000
0010
0000
0100
0010
0000
1000
0001
0000
0010
0000
0200
0000
,  // measure 88
0000
0300
0000
0000
0000
0000
0000
0000
;
