#TITLE:法界の火 ~ Flame For Puja;
#SUBTITLE:;
#ARTIST:demetori;
#TITLETRANSLIT:Fires of Hokkai ~ Flame for Puja;
#SUBTITLETRANSLIT:;
#ARTISTTRANSLIT:;
#GENRE:Touhou;
#CREDIT:demetori;
#TAGS:DMCA;
#JACKET:Fires of Hokkai ~ Flame for Puja-jacket.png;
#MUSIC:Fires of Hokkai ~ Flame for Puja.ogg;
#BANNER:Fires of Hokkai ~ Flame for Puja.png;
#BACKGROUND:Fires of Hokkai ~ Flame for Puja-bg.png;
#CDTITLE:Touhou Project.png;
#SAMPLESTART:34.970;
#SAMPLELENGTH:15;
#SELECTABLE:YES;
#OFFSET:-19.610;
#BPMS:0.000=125.000;
#STOPS:;
#DISPLAYBPM:125.000;
#BGCHANGES:;
#FGCHANGES:;

//--------------- dance-single - Wrland ----------------
#NOTES:
     dance-single:
     Wrland:
     Beginner:
     1:
     0,0,0,0,0:
0000
0000
0000
0000
,
0000
0000
0000
0000
,
0000
0000
0000
0000
,
0000
0000
0000
0000
,
0000
0000
0000
0000
,
0000
0000
0000
0000
,
0000
0000
0000
0000
,
0000
0000
0000
0000
,
2000
0000
0000
0000
,
0000
0000
0000
0000
,
3000
0000
0000
0000
,
0002
0003
2000
3000
,
0002
0000
0000
0000
,
0000
0000
0000
0000
,
0003
0000
0000
0000
,
0000
0000
2000
3000
,
0100
0000
0000
0000
,
0000
0000
0000
0000
,
0100
0000
0000
0000
,
0020
0030
0200
0300
,
0010
0000
0000
0000
,
0000
0000
0000
0000
,
0001
0000
0000
0000
,
0000
0000
0000
0000
,
1000
0000
0000
0000
,
0000
0000
0000
0000
,
0100
0000
0000
0000
,
2000
3000
0200
0300
,
0010
0000
0000
0000
,
0000
0000
0000
0000
,
0001
0000
0000
0000
,
0000
0000
0000
0000
,
2000
0000
0000
0000
,
0000
0000
0000
0000
,
3000
0000
0000
0000
,
0000
0000
0000
0000
,
0002
0000
0000
0000
,
0000
0000
0000
0000
,
0003
0000
0000
0000
,
0000
0000
0000
0000
,
1001
1001
0000
0000
0000
0000
0000
0000
;

//--------------- dance-single - Wrland ----------------
#NOTES:
     dance-single:
     Wrland:
     Easy:
     3:
     0,0,0,0,0:
0000
0000
0000
0000
,
0000
0000
0000
0000
,
0000
0000
0000
0000
,
0000
0000
0000
0000
,
0000
0000
0000
0000
,
0000
0000
0000
0000
,
0000
0000
0000
0000
,
0000
0000
0000
0000
,
2000
0000
0000
0000
,
0000
0000
0000
0000
,
3000
0000
0000
0000
,
0002
0003
2000
3000
,
0002
0000
0000
0000
,
0000
0000
0000
0000
,
0003
0000
0000
0000
,
0000
0000
2000
3000
,
0100
0000
0000
0000
,
0100
0000
0000
0000
,
0010
0000
0000
0000
,
0020
0030
0200
0300
,
0010
0000
0000
0000
,
0001
0000
0000
0000
,
1000
0000
0000
0000
,
0000
0000
0000
0000
,
1000
0000
0000
0000
,
0001
0000
0000
0000
,
0100
0000
0000
0000
,
2000
3000
0200
0300
,
0010
0000
0000
0000
,
0100
0000
0000
0000
,
0001
0000
0000
0000
,
0010
0000
0000
0000
,
2000
0000
0000
0000
,
0000
0000
0000
0000
,
3000
0000
0000
0000
,
0000
0000
0000
0000
,
0002
0000
0000
0000
,
0000
0000
0000
0000
,
0003
0000
0000
0000
,
0000
0000
0000
0000
,
1001
1001
0000
0000
0000
0000
0000
0000
;

//--------------- dance-single - Wrland ----------------
#NOTES:
     dance-single:
     Wrland:
     Medium:
     6:
     0,0,0,0,0:
0000
0000
0000
0000
,
0000
0000
0000
0000
,
0000
0000
0000
0000
,
0000
0000
0000
0000
,
0000
0000
0000
0000
,
0000
0000
0000
0000
,
0000
0000
0000
0000
,
0000
0000
0000
0000
,
2000
0000
3000
0001
,
0002
0000
0003
0001
,
0200
0000
0300
0010
,
0200
0300
2000
3000
,
0200
0000
0300
1000
,
0200
0000
0300
0100
,
0020
0000
0030
0001
,
0200
0300
0020
0030
,
0100
0100
1000
0000
,
0100
0100
0010
0000
,
0100
0100
0001
0000
,
0002
0003
2000
3000
,
0001
0001
1000
0000
,
0001
0001
0100
0000
,
0001
0001
0010
0000
,
0001
0000
0000
0000
0001
0000
0000
0000
1000
0000
0200
0000
0000
0300
0000
0000
,
1000
1000
0100
0000
,
1000
1000
0010
0000
,
1000
1000
0001
0000
,
2000
3000
0002
0003
,
0100
0100
0010
0000
,
0010
0010
0001
0000
,
0010
0010
1000
0000
,
0001
0000
0000
0000
0000
0000
0000
0000
1000
0000
0200
0000
0000
0300
0000
0000
,
2000
0000
0000
0000
,
0000
0000
0000
0000
,
3000
0000
0000
0000
,
0000
0000
0000
0000
,
0002
0000
0000
0000
,
0000
0000
0000
0000
,
0003
0000
0000
0000
,
0000
0000
0000
0000
,
1001
1001
0000
0000
0000
0000
0000
0000
;

//--------------- dance-single - Wrland ----------------
#NOTES:
     dance-single:
     Wrland:
     Hard:
     8:
     0,0,0,0,0:
0000
0000
0000
0000
,
0000
0000
0000
0000
,
0000
0000
0000
0000
,
0000
0000
0000
0000
,
2000
0000
0000
0000
,
0000
0000
3000
0000
,
0002
0000
0000
0000
,
0000
0003
0000
0000
,
2000
0000
0000
0000
3000
0000
0100
1000
,
0200
0000
0000
0300
2000
0000
0000
0000
3000
0000
0000
0000
0100
0000
0010
0000
,
0200
0300
0020
0000
0030
0000
0001
0100
,
0002
0000
0000
0000
0000
0003
0000
0000
0200
0000
0000
0000
0300
0000
0000
0000
,
2200
0000
0000
0000
3300
0000
0100
0010
,
0200
0000
0000
0300
0020
0000
0000
0000
0030
0000
0000
0000
0001
0000
0100
0000
,
0002
0000
0000
0003
0200
0000
0000
0000
0300
0000
0000
0000
0010
0000
0001
0000
,
0020
0030
0002
0003
0020
0000
0030
0000
,
0100
0000
1000
0000
0100
0000
1000
1000
,
0100
0000
1000
0000
0100
0000
0010
0100
,
0010
0000
0001
0000
0100
0000
0001
0100
,
0002
0000
0000
0003
0200
0000
0300
0000
2002
0000
0000
0000
3003
0000
0000
0000
,
0110
0000
0010
0000
0001
0000
0010
0001
,
0010
0000
0100
0000
1000
0000
0100
0010
,
0001
0000
0100
0000
0001
0000
0010
0100
,
0010
0000
0000
0000
0001
0000
0000
0000
0100
0000
0020
0000
0000
0030
0000
0000
,
0100
0000
1000
0000
0100
0000
1000
0100
,
1000
0000
0100
0000
0010
0000
0100
0010
,
0100
0000
0010
0000
0001
0000
0100
0001
,
0200
0300
0001
0000
2002
0000
3003
0000
,
1100
0000
0100
0000
0010
0000
0001
0100
,
0010
0000
0100
0000
1000
0000
0100
0010
,
0001
0000
0100
0000
0010
0000
0001
0100
,
0001
0000
0000
0000
0100
0000
0000
0000
0010
0000
0200
0000
0000
0300
0000
0000
,
1001
0000
1000
0000
0001
0000
0001
0001
,
1000
0001
2000
3000
,
0100
0000
1000
0100
2000
0000
3000
0000
,
0100
0000
0010
0100
0020
0000
0030
0000
,
0001
0000
0001
0100
0002
0000
0003
0000
,
0010
0000
0100
1000
0200
0000
0300
0000
,
0100
0000
0010
0100
0020
0000
0030
0000
,
0100
0000
0010
0001
0200
0000
0300
0000
,
1001
1001
0000
0000
0000
0000
0000
0000
;
