#TITLE:Desaparecer;
#SUBTITLE:;
#ARTIST:Olaya Sound System;
#TITLETRANSLIT:;
#SUBTITLETRANSLIT:;
#ARTISTTRANSLIT:;
#GENRE:Latin;
#CREDIT:Cósmica!;
#MUSIC:Desaparecer.ogg;
#BANNER:Desaparecer.png;
#JACKET:Desaparecer-jacket.png;
#TAGS:DMCA;
#BACKGROUND:BG.png;
#CDTITLE:Cosmica!.png;
#SAMPLESTART:68.199;
#SAMPLELENGTH:15;
#SELECTABLE:YES;
#OFFSET:0.000;
#BPMS:0.000=98.013;
#STOPS:0.000=0.045;
#DISPLAYBPM:98.000;
#BGCHANGES:0.000=Desaparecer.avi=0.000=0=0=0=StretchNoLoop====,
99999=-nosongbg-=1.000=0=0=0 // don't automatically add -songbackground-
;
#FGCHANGES:;

//--------------- dance-single - Wrland ----------------
#NOTES:
     dance-single:
     Wrland:
     Beginner:
     1:
     0,0,0,0,0:
0000
0000
0000
0000
,
0000
0000
0000
0000
,
0000
0000
0000
0000
,
0000
0000
0000
0000
,
0100
0000
0000
0000
,
0000
0000
0000
0000
,
0010
0000
0000
0000
,
0000
0000
0000
0000
,
0001
0000
0000
0000
,
0000
0000
0000
0000
,
1000
0000
0000
0000
,
0000
0000
0000
0000
,
0100
0000
0000
0000
,
0000
0000
0000
0000
,
0010
0000
0000
0000
,
0000
0000
0000
0000
,
0001
0000
0000
0000
,
0000
0000
0000
0000
,
1000
0000
0000
0000
,
0000
0000
0000
0000
,
0100
0000
0000
0000
,
0000
0000
0000
0000
,
0010
0000
0000
0000
,
0000
0000
0000
0000
,
0001
0000
0000
0000
,
0000
0000
0000
0000
,
1000
0000
0000
0000
,
0000
0000
0000
0000
,
0100
0000
0000
0000
,
0000
0000
0000
0000
,
0010
0000
0000
0000
,
0000
0000
0000
0000
,
0002
0000
0000
0000
,
0003
0000
0000
0000
,
2000
0000
0000
0000
,
3000
0000
0000
0000
,
0200
0000
0000
0000
,
0300
0000
0000
0000
,
0020
0000
0000
0000
,
0030
0000
0000
0000
,
0000
0000
1001
0000
;

//--------------- dance-single - Wrland ----------------
#NOTES:
     dance-single:
     Wrland:
     Easy:
     2:
     0,0,0,0,0:
0000
0000
0000
0000
,
0000
0000
0000
0000
,
0000
0000
0000
0000
,
0000
0000
0000
0000
,
0100
0000
0000
0000
,
0100
0000
0000
0000
,
0010
0000
0000
0000
,
0010
0000
0000
0000
,
0001
0000
0000
0000
,
0001
0000
0000
0000
,
1000
0000
0000
0000
,
1000
0000
0000
0000
,
0100
0000
0000
0000
,
0100
0000
0000
0000
,
0010
0000
0000
0000
,
0010
0000
0000
0000
,
0001
0000
0000
0000
,
0001
0000
0000
0000
,
1000
0000
0000
0000
,
1000
0000
0000
0000
,
0100
0000
0000
0000
,
0100
0000
0000
0000
,
0010
0000
0000
0000
,
0010
0000
0000
0000
,
0001
0000
0000
0000
,
0001
0000
0000
0000
,
1000
0000
0000
0000
,
1000
0000
0000
0000
,
0100
0000
0000
0000
,
0100
0000
0000
0000
,
0010
0000
0000
0000
,
1000
0000
0000
0000
,
0002
0000
0000
0000
,
0003
0000
0000
0000
,
2000
0000
0000
0000
,
3000
0000
0000
0000
,
0200
0000
0000
0000
,
0300
0000
0000
0000
,
0020
0000
0000
0000
,
0030
0000
0000
0000
,
0000
0000
1001
0000
;

//--------------- dance-single - Wrland ----------------
#NOTES:
     dance-single:
     Wrland:
     Medium:
     6:
     0,0,0,0,0:
0000
0000
0000
0000
,
0000
0000
0000
0000
,
0000
0000
0000
0000
,
0000
0000
0000
0000
,
1000
0000
0100
0000
,
0010
0100
0010
0001
,
0100
0001
0100
0010
,
0200
0000
0000
0300
,
0010
0000
0100
0000
,
1000
0000
0100
0000
1000
0000
0100
0010
,
0001
0100
0010
0001
,
0100
0100
0010
0010
,
0001
0001
2000
3000
,
1000
0100
1000
0000
,
0100
0010
0001
0000
,
0100
0010
0100
0000
,
1000
1000
0002
0003
,
0100
0010
0100
0000
,
0010
0001
0100
0000
,
0001
0100
1000
0000
,
0010
0100
0020
0030
,
0001
0100
0010
0000
,
1000
0100
1000
0000
,
0100
0010
0001
0000
,
0100
0100
2000
3000
,
0001
0001
1000
0000
,
0100
0100
1000
0000
,
0100
0100
0010
0000
,
0001
0000
1000
0000
,
0001
1000
0001
0000
,
0100
1000
0100
0010
,
0001
0000
0100
0000
0100
0100
0010
0000
,
0001
0001
1000
1000
,
0100
0100
1000
1000
,
0100
0100
0010
0010
,
0100
0100
0010
0001
,
0100
0100
1000
1000
,
0100
0100
0010
0001
,
0100
0001
0100
0001
,
0100
0010
0100
0010
,
1001
0000
0110
0000
;

//--------------- dance-single - Wrland ----------------
#NOTES:
     dance-single:
     Wrland:
     Hard:
     10:
     0,0,0,0,0:
0000
0000
0000
0000
,
0000
0000
0000
0000
,
0000
0000
0000
0000
,
0000
0000
0000
0000
,
1000
0000
0001
0000
1000
0000
0001
1000
0000
0100
1000
0000
0100
0000
0010
0000
,
0002
0000
0000
0003
0200
0000
0300
0000
0010
0000
0100
0010
0100
0000
0000
0000
,
0010
0001
0100
0010
0100
1000
0100
1000
,
0100
0000
1000
0100
1000
0000
0100
0000
0010
0000
0001
0000
0100
0000
0000
0000
,
0010
0000
0100
0000
0010
0000
0001
0100
0000
0010
0100
1000
0100
0000
0010
0000
,
0002
0000
0000
0003
0100
0000
1000
0000
0100
0000
1000
0000
0100
0000
0010
0000
,
0002
0000
0000
0003
2000
0000
0000
0000
0000
0000
3000
0000
0001
0000
1000
0000
,
0001
0000
1000
0001
1000
0000
0001
1000
0001
0000
0100
0000
0010
0000
0000
0000
,
0001
0000
0100
0010
0100
0000
1000
0100
,
1000
0000
0100
0010
0001
0000
0100
0000
,
0010
0000
0001
0000
0100
0000
0010
0001
0000
1000
0000
0000
0100
0000
1000
0000
,
0100
0000
0000
0000
0100
0000
0010
0000
0001
0000
0100
0001
0100
0000
0000
0000
,
0010
0000
0100
0000
1000
0000
0100
1000
0000
0100
0000
0000
0010
0000
0001
0000
,
0100
0000
0001
0000
0010
0000
0100
0000
0010
0000
0001
0100
0001
0000
0000
0000
,
0010
0100
1000
0000
0100
1000
0100
0000
,
0100
0000
0010
0000
0001
0000
0100
0000
0001
0000
0100
0001
0100
0000
0000
0000
,
0010
0000
0001
0100
1000
0000
0100
0000
1000
0000
0200
0000
0000
0000
0300
0000
,
0010
0000
0002
0000
0000
0000
0003
0000
0010
0000
0100
0010
1000
0000
0000
0000
,
0100
0000
1000
0000
0100
0000
0001
1000
0000
0020
0000
0000
0000
0030
1000
0000
,
0010
0000
0100
0000
0010
0000
0001
0000
0100
0000
0001
0100
0001
0000
0000
0000
,
0010
0000
0100
0010
1000
0000
0100
0010
0001
0000
0000
0000
0010
0000
0100
0000
,
0010
0000
0001
0000
0100
0000
0010
0000
0100
0000
1000
0100
1000
0000
0000
0000
,
0100
0000
0010
0000
0001
0000
0100
0010
0000
0100
0010
0100
0010
0000
0001
0000
,
0100
0010
0100
1000
0100
0000
1000
0100
,
0001
0000
0000
0000
0100
0000
0001
0100
0000
0010
0100
0010
0001
0000
0100
0000
,
0020
0000
0030
0000
0100
0000
1000
0000
0100
0000
1000
0100
1000
0000
0001
2000
,
0000
0000
3000
0100
0000
0000
1000
0000
0100
0001
1000
0000
0100
0000
0010
0000
,
0001
0000
0100
0000
0020
0000
0030
0000
0100
0000
0010
0100
0010
0000
0000
0000
,
0001
0000
0100
0001
0100
0000
0000
0001
0000
1000
0000
0100
0010
0000
0001
0000
,
0100
0000
0010
1000
0200
0000
0300
0000
0010
0000
0100
0000
0010
0000
0001
0000
,
0100
0000
0001
0100
0001
0000
0000
0100
0000
1000
0000
0100
1000
0000
0100
0000
,
0010
0000
0001
0100
0001
0000
0010
0000
0100
0000
1000
0100
2000
0000
3000
0000
,
0100
0000
1000
0010
0100
0000
0000
0010
0000
0100
0000
0010
0100
0000
0010
0000
,
0001
0000
0000
0100
0001
0000
0010
0000
0000
0100
0000
0010
0100
0000
0010
0000
,
0001
0000
0000
0100
0001
0000
0000
0010
0000
0100
0000
1000
0100
0000
1000
0000
,
0100
0000
0010
0001
0100
0000
0010
0000
0100
0000
0010
0100
0010
0000
0100
0000
,
1001
0000
0110
0000
;
