#VERSION:0.83;
#TITLE:Snowy Summer;
#SUBTITLE:;
#ARTIST:클로즈유어아이즈;
#TITLETRANSLIT:;
#SUBTITLETRANSLIT:;
#ARTISTTRANSLIT:CLOSE YOUR EYES;
#GENRE:K-Pop;
#CREDIT:UNCORE;
#MUSIC:Snowy Summer.ogg;
#BANNER:Snowy Summer.png;
#BACKGROUND:Snowy Summer-bg.png;
#JACKET:Snowy Summer-jacket.png;
#DISCIMAGE:;
#CDIMAGE:;
#SELECTABLE:YES;
#LYRICSPATH:Snowy Summer.lrc;
#CDTITLE:Wrland Season 4 bergtour.png;
#SAMPLESTART:25.879091;
#SAMPLELENGTH:15;
#BPMS:0.000000=110.000000;
#STOPS:0.000000=0.242727;
#WARPS:;
#DELAYS:;
#SPEEDS:;
#SCROLLS:;
#TICKCOUNTS:;
#TIMESIGNATURES:;
#LABELS:;
#COMBOS:;
#FAKES:;
#BGCHANGES:0=Snowy Summer.mp4=0.000000=0=0=0=StretchNoLoop====,
99999=-nosongbg-=1.000000=0=0=0=StretchNoLoop====
;
#FGCHANGES:;
#ATTACKS:;
#DISPLAYBPM:110.000000;
#TAGS:DMCA;

//---------------dance-single - bSP - 2---------------
#NOTEDATA:;
#CHARTNAME:;
#CHARTSTYLE:Pad;
#CREDIT:Wrland Simfiles;
#STEPSTYPE:dance-single;
#DESCRIPTION:bSP - 2;
#DIFFICULTY:Beginner;
#METER:2;
#METERF:2;
#RADARVALUES:0,0,0,0,0;
#NOTES:
// measure 0
0000
0000
0000
0000
,  // measure 1
0000
0000
0000
0000
,  // measure 2
0000
0000
0000
0000
,  // measure 3
0000
0000
0000
0000
,  // measure 4
0000
1000
0000
0000
,  // measure 5
0000
1000
0000
0000
,  // measure 6
0000
0001
0000
0000
,  // measure 7
0000
0001
0000
0000
,  // measure 8
0000
1000
0000
0000
,  // measure 9
0000
0010
0000
0000
,  // measure 10
0000
0010
0000
0000
,  // measure 11
0000
1000
0000
0000
,  // measure 12
0000
2000
0000
0000
,  // measure 13
0000
0000
0000
0000
,  // measure 14
0000
3000
0000
0000
,  // measure 15
0000
0000
0000
0000
,  // measure 16
0000
0002
0000
0000
,  // measure 17
0000
0000
0000
0000
,  // measure 18
0000
0003
0000
0000
,  // measure 19
0000
0000
0000
0000
,  // measure 20
0000
0200
0000
0000
,  // measure 21
0000
0000
0000
0000
,  // measure 22
0000
0300
0000
0000
,  // measure 23
0000
0000
0000
0000
,  // measure 24
0000
0020
0000
0000
,  // measure 25
0000
0000
0000
0000
,  // measure 26
0000
0030
0000
0000
,  // measure 27
0000
0000
0000
0000
,  // measure 28
0000
1001
0000
0000
,  // measure 29
0000
0000
0000
0000
,  // measure 30
0000
1001
0000
0000
,  // measure 31
0000
0000
0000
0000
,  // measure 32
0000
0110
0000
0000
,  // measure 33
0000
0000
0000
0000
,  // measure 34
0000
0110
0000
0000
,  // measure 35
0000
0000
0000
0000
,  // measure 36
0000
2000
0000
0000
,  // measure 37
0000
0000
0000
0000
,  // measure 38
0000
3000
0000
0000
,  // measure 39
0000
0000
0000
0000
,  // measure 40
0000
0002
0000
0000
,  // measure 41
0000
0000
0000
0000
,  // measure 42
0000
0003
0000
0000
,  // measure 43
0000
0000
0000
0000
,  // measure 44
0000
2000
0000
0000
,  // measure 45
0000
0000
0000
0000
,  // measure 46
0000
3000
0000
0000
,  // measure 47
0000
0000
0000
0000
,  // measure 48
0000
0002
0000
0000
,  // measure 49
0000
0000
0000
0000
,  // measure 50
0000
0003
0000
0000
;

//---------------dance-single - BSP - 5---------------
#NOTEDATA:;
#CHARTNAME:;
#CHARTSTYLE:Pad;
#CREDIT:Wrland Simfiles;
#STEPSTYPE:dance-single;
#DESCRIPTION:BSP - 5;
#DIFFICULTY:Easy;
#METER:5;
#METERF:5;
#RADARVALUES:0,0,0,0,0;
#NOTES:
// measure 0
0000
0000
0000
0000
,  // measure 1
0000
0000
0000
0000
,  // measure 2
0000
0000
0000
0000
,  // measure 3
0000
0000
0000
0000
,  // measure 4
0000
1000
0000
0001
,  // measure 5
0001
0000
0000
1000
,  // measure 6
1000
0000
0000
0001
,  // measure 7
0001
0000
0000
1000
,  // measure 8
1000
0010
0100
0010
,  // measure 9
0000
0100
0010
0100
,  // measure 10
0000
0002
0003
2000
,  // measure 11
3000
0002
0000
0003
,  // measure 12
0000
1000
1000
1000
,  // measure 13
0000
0001
0001
0001
,  // measure 14
0000
2000
0000
3000
,  // measure 15
0000
0002
0000
0003
,  // measure 16
0000
1000
0010
1000
,  // measure 17
0000
0001
0100
0001
,  // measure 18
0000
0200
0000
0300
,  // measure 19
0000
0020
0000
0030
,  // measure 20
0000
1000
0000
0001
,  // measure 21
0000
1000
0001
1000
,  // measure 22
0000
0010
0000
0100
,  // measure 23
0000
0010
0100
0010
,  // measure 24
0000
1000
1000
1000
,  // measure 25
0000
0001
0001
0001
,  // measure 26
0000
2000
0000
3000
,  // measure 27
0000
0002
0000
0003
,  // measure 28
0000
1001
0000
0000
,  // measure 29
0000
0000
0000
0000
,  // measure 30
0000
1001
0000
0000
,  // measure 31
0000
0000
0000
0000
,  // measure 32
0000
0110
0000
0000
,  // measure 33
0000
0000
0000
0000
,  // measure 34
0000
0110
0000
0000
,  // measure 35
0000
0000
0000
0000
,  // measure 36
0000
1000
1000
1000
,  // measure 37
0000
0001
0001
0001
,  // measure 38
0000
2000
0000
3000
,  // measure 39
0000
0002
0000
0003
,  // measure 40
0000
1000
0010
1000
,  // measure 41
0000
0001
0100
0001
,  // measure 42
0000
0200
0000
0300
,  // measure 43
0000
0020
0000
0030
,  // measure 44
0000
1000
0000
0001
,  // measure 45
0000
1000
0001
1000
,  // measure 46
0000
0010
0000
0100
,  // measure 47
0000
0010
0100
0010
,  // measure 48
0000
1000
1000
1000
,  // measure 49
0000
0001
0001
0001
,  // measure 50
0000
2000
0000
3000
,  // measure 51
0000
0002
0000
0003
;

//---------------dance-single - DSP - 10---------------
#NOTEDATA:;
#CHARTNAME:;
#CHARTSTYLE:Pad;
#CREDIT:Wrland Simfiles;
#STEPSTYPE:dance-single;
#DESCRIPTION:DSP - 10;
#DIFFICULTY:Medium;
#METER:10;
#METERF:10;
#RADARVALUES:0,0,0,0,0;
#NOTES:
// measure 0
0000
0000
0000
0000
,  // measure 1
0000
0000
0000
0000
,  // measure 2
0000
0000
0000
0000
,  // measure 3
0000
0000
0000
0000
,  // measure 4
0000
1000
1000
0001
,  // measure 5
0001
1000
1000
0010
,  // measure 6
0010
0100
0100
0001
,  // measure 7
0001
0000
0200
0300
0002
0003
2000
3000
,  // measure 8
0020
0030
0100
0000
0001
0000
1000
0000
,  // measure 9
0010
0100
0001
0010
,  // measure 10
0100
0000
2000
0000
0000
3000
0002
0000
,  // measure 11
0000
2000
0000
3003
,  // measure 12
0000
0000
0000
0000
1000
0000
0000
0000
0010
0000
1000
0000
0020
0000
0000
0030
,  // measure 13
0100
0000
0000
0000
0001
0000
1000
0000
0010
0000
0000
0000
2000
0000
0000
3000
,  // measure 14
0001
0000
0000
0000
1000
0001
1000
0001
1000
0000
0001
0000
1001
0000
0000
0000
,  // measure 15
0001
1000
0001
1000
0001
0000
1000
0000
2002
0000
0000
0000
3003
0000
0000
0000
,  // measure 16
0000
0000
0000
0000
0001
0000
1000
0000
0010
0000
0100
0000
0002
0000
0000
0003
,  // measure 17
1000
0000
0010
0000
0100
0000
0001
0000
1000
0000
0000
0000
0020
0000
0000
0030
,  // measure 18
0100
0000
0000
0000
0010
0100
0010
0100
0010
0000
0100
0000
0110
0000
0000
0000
,  // measure 19
0100
0010
0100
0010
0100
0000
0010
0000
0110
0000
0000
0000
0000
0000
0000
0000
,  // measure 20
0000
1000
0010
0000
0000
0100
0001
0000
,  // measure 21
0000
0000
1000
0000
0001
0000
0000
0001
1000
0000
0000
1000
0001
0000
0000
0000
,  // measure 22
1000
0010
0100
0000
0000
0100
0001
1000
,  // measure 23
0010
0200
0000
0300
0001
0000
0001
0000
,  // measure 24
0001
0000
0000
0000
1000
0000
0000
0000
0010
0000
1000
0000
0020
0000
0000
0030
,  // measure 25
0100
0000
0000
0000
0001
0000
1000
0000
0010
0000
0000
0000
2000
0000
0000
3000
,  // measure 26
0001
0000
0000
0000
1000
0001
1000
0001
1000
0000
0001
0000
1001
0000
0000
0000
,  // measure 27
0001
1000
0001
1000
0001
0000
1000
0000
2002
0000
0000
0000
3003
0000
0000
0000
,  // measure 28
0000
1000
0001
1000
,  // measure 29
0001
1000
0001
1000
,  // measure 30
0001
0010
0100
0010
,  // measure 31
0100
0010
0100
0010
,  // measure 32
0100
2000
3000
0002
,  // measure 33
0003
0200
0300
0020
,  // measure 34
0030
2000
3000
0002
,  // measure 35
0003
2000
0000
3001
,  // measure 36
0000
0000
0000
0000
1000
0000
0000
0000
0010
0000
1000
0000
0020
0000
0000
0030
,  // measure 37
0100
0000
0000
0000
0001
0000
1000
0000
0010
0000
0000
0000
2000
0000
0000
3000
,  // measure 38
0001
0000
0000
0000
1000
0001
1000
0001
1000
0000
0001
0000
1001
0000
0000
0000
,  // measure 39
0001
1000
0001
1000
0001
0000
1000
0000
2002
0000
0000
0000
3003
0000
0000
0000
,  // measure 40
0000
0000
0000
0000
0001
0000
1000
0000
0010
0000
0100
0000
0002
0000
0000
0003
,  // measure 41
1000
0000
0010
0000
0100
0000
0001
0000
1000
0000
0000
0000
0020
0000
0000
0030
,  // measure 42
0100
0000
0000
0000
0010
0100
0010
0100
0010
0000
0100
0000
0110
0000
0000
0000
,  // measure 43
0100
0010
0100
0010
0100
0000
0010
0000
0110
0000
0000
0000
0000
0000
0000
0000
,  // measure 44
0000
1000
0010
0000
0000
0100
0001
0000
,  // measure 45
0000
0000
1000
0000
0001
0000
0000
0001
1000
0000
0000
1000
0001
0000
0000
0000
,  // measure 46
1000
0010
0100
0000
0000
0100
0001
1000
,  // measure 47
0010
0200
0000
0300
0001
0000
0001
0000
,  // measure 48
0001
0000
0000
0000
1000
0000
0000
0000
0010
0000
1000
0000
0020
0000
0000
0030
,  // measure 49
0100
0000
0000
0000
0001
0000
1000
0000
0010
0000
0000
0000
2000
0000
0000
3000
,  // measure 50
0001
0000
0000
0000
1000
0001
1000
0001
1000
0000
0001
0000
1001
0000
0000
0000
,  // measure 51
0001
1000
0001
1000
0001
0000
1000
0000
2002
0000
0000
0000
3003
0000
0000
0000
;

//---------------dance-single - ESP - 12---------------
#NOTEDATA:;
#CHARTNAME:;
#CHARTSTYLE:Pad;
#CREDIT:Wrland Simfiles;
#STEPSTYPE:dance-single;
#DESCRIPTION:ESP - 12;
#DIFFICULTY:Hard;
#METER:12;
#METERF:12;
#RADARVALUES:0,0,0,0,0;
#NOTES:
// measure 0
0000
0000
0000
0000
,  // measure 1
0000
0000
0000
0000
,  // measure 2
0000
0000
0000
0000
,  // measure 3
0000
0000
0000
0000
,  // measure 4
0000
0000
0000
0000
1000
0000
0000
1000
0001
0000
0000
0000
0001
0000
0000
0001
,  // measure 5
1000
0000
0000
0000
1000
0000
0000
1000
0010
0000
0000
0000
0010
0000
0000
0010
,  // measure 6
0100
0000
0000
0000
0100
0000
0000
0100
0001
0000
0000
0000
0001
0000
0000
0001
,  // measure 7
1000
0000
0000
0000
1000
0000
0000
1000
0010
0000
0000
0000
0100
0000
0000
0100
,  // measure 8
0001
0000
2000
3000
0002
0003
2000
3000
,  // measure 9
0002
0103
0020
0030
2000
3000
0002
0003
,  // measure 10
1000
0001
2000
0000
3001
0000
2000
0000
,  // measure 11
0000
0002
3003
1010
,  // measure 12
0101
0000
0000
0000
1000
0001
1000
0000
0010
0000
0100
0000
0002
0000
0003
0000
,  // measure 13
0100
0000
0001
0000
0010
0100
1000
0000
0020
0000
0030
0000
2000
0000
3000
0000
,  // measure 14
0002
0000
0003
0000
1000
0010
0100
0001
1000
0000
0001
0000
2000
0000
0000
3000
,  // measure 15
0001
0100
0010
1000
0001
0000
1000
0000
0002
0000
0000
0000
0000
0000
0000
0000
,  // measure 16
0003
0000
1000
0000
0001
1000
0001
0000
0100
0000
0010
0000
2000
0000
3000
0000
,  // measure 17
0010
0000
1000
0000
0100
0010
0001
0000
0200
0000
0300
0000
0002
0000
0003
0000
,  // measure 18
2000
0000
3000
0000
0001
0100
0010
1000
0001
0000
1000
0000
0002
0000
0000
0003
,  // measure 19
1000
0010
0100
0001
1000
0000
0001
0000
2000
0000
0000
0000
0000
0000
0000
0000
,  // measure 20
3000
0001
2000
0000
3000
0010
0200
0000
,  // measure 21
0300
0000
0100
0000
0010
0000
0000
0010
1000
0000
0000
1000
0020
0000
0030
0000
,  // measure 22
0100
0000
0001
0000
2000
0000
0000
3000
0000
0000
0001
0000
1000
0000
0001
0000
,  // measure 23
1000
0000
0002
0000
0000
0003
0000
0000
1100
0000
0000
0000
0011
0000
0000
0000
,  // measure 24
1100
0000
0000
0000
1000
0001
1000
0000
0010
0000
0100
0000
0002
0000
0003
0000
,  // measure 25
0100
0000
0001
0000
0010
0100
1000
0000
0020
0000
0030
0000
2000
0000
3000
0000
,  // measure 26
0002
0000
0003
0000
1000
0010
0100
0001
1000
0000
0001
0000
2000
0000
0000
3000
,  // measure 27
0001
0100
0010
1000
0001
0000
1000
0000
0002
0000
0000
0000
0000
0000
0000
0000
,  // measure 28
0003
0000
1100
0000
,  // measure 29
1100
0000
0011
0000
,  // measure 30
0011
0000
1001
0000
,  // measure 31
1001
0000
1010
0000
,  // measure 32
1010
0000
0000
0000
0001
1000
0001
0000
0100
0000
0010
0000
1000
0000
0001
0000
,  // measure 33
2000
0000
0001
0000
,  // measure 34
3001
0000
1000
0000
0001
0000
0000
0001
1000
0000
0000
1000
0001
0000
0000
0001
,  // measure 35
1000
0000
0000
1000
0010
0000
0000
0010
0100
0000
0000
0100
0001
0000
0000
0000
,  // measure 36
1000
0001
1000
0001
1000
0001
1000
0000
0010
0000
0100
0000
0002
0000
0003
0000
,  // measure 37
0100
0000
0001
0000
0010
0100
1000
0000
0020
0000
0030
0000
2000
0000
3000
0000
,  // measure 38
0002
0000
0003
0000
1000
0010
0100
0001
1000
0000
0001
0000
2000
0000
0000
3000
,  // measure 39
0001
0100
0010
1000
0001
0000
1000
0000
0002
0000
0000
0000
0000
0000
0000
0000
,  // measure 40
0003
0000
1000
0000
0001
1000
0001
0000
0100
0000
0010
0000
2000
0000
3000
0000
,  // measure 41
0010
0000
1000
0000
0100
0010
0001
0000
0200
0000
0300
0000
0002
0000
0003
0000
,  // measure 42
2000
0000
3000
0000
0001
0100
0010
1000
0001
0000
1000
0000
0002
0000
0000
0003
,  // measure 43
1000
0010
0100
0001
1000
0000
0001
0000
2000
0000
0000
0000
0000
0000
0000
0000
,  // measure 44
3000
0001
2000
0000
3000
0010
0200
0000
,  // measure 45
0300
0000
0100
0000
0010
0000
0000
0010
1000
0000
0000
1000
0010
0000
0000
0000
,  // measure 46
0100
0000
0001
0000
2000
0000
0000
3000
0000
0000
0001
0000
1000
0000
0001
0000
,  // measure 47
1000
0000
0002
0000
0000
0003
0000
0000
1100
0000
0000
0000
0011
0000
0000
0000
,  // measure 48
1100
0000
0000
0000
1000
0001
1000
0000
0010
0000
0100
0000
0002
0000
0003
0000
,  // measure 49
0100
0000
0001
0000
0010
0100
1000
0000
0020
0000
0030
0000
2000
0000
3000
0000
,  // measure 50
0002
0000
0003
0000
1000
0010
0100
0001
1000
0000
0001
0000
2000
0000
0000
3000
,  // measure 51
0001
0100
0010
1000
0001
0000
1000
0000
0002
0000
0000
0000
0000
0000
0000
0000
,  // measure 52
0003
0000
0000
0000
;
