#VERSION:0.83;
#TITLE:STRONGER;
#SUBTITLE:;
#ARTIST:DeBisco;
#TITLETRANSLIT:;
#SUBTITLETRANSLIT:;
#ARTISTTRANSLIT:;
#GENRE:Trance;
#CREDIT:DeBisco;
#MUSIC:STRONGER.ogg;
#BANNER:STRONGER.png;
#BACKGROUND:STRONGER-bg.png;
#JACKET:STRONGER-jacket.png;
#DISCIMAGE:;
#CDIMAGE:;
#SELECTABLE:YES;
#LYRICSPATH:STRONGER.lrc;
#CDTITLE:DeBisco.png;
#SAMPLESTART:43.478261;
#SAMPLELENGTH:15;
#BPMS:0.000000=138.000000;
#STOPS:;
#WARPS:;
#DELAYS:;
#SPEEDS:;
#SCROLLS:;
#TICKCOUNTS:;
#TIMESIGNATURES:;
#LABELS:;
#COMBOS:;
#FAKES:;
#BGCHANGES:0=STRONGER.mp4=0.000000=0=0=0=StretchNoLoop====,
99999=-nosongbg-=1.000000=0=0=0=StretchNoLoop====
;
#FGCHANGES:;
#ATTACKS:;
#DISPLAYBPM:138.000000;

//---------------dance-single - bSP - 1---------------
#NOTEDATA:;
#CHARTNAME:;
#CHARTSTYLE:Pad;
#CREDIT:Wrland Simfiles;
#STEPSTYPE:dance-single;
#DESCRIPTION:bSP - 1;
#DIFFICULTY:Beginner;
#METER:1;
#METERF:1;
#RADARVALUES:0,0,0,0,0;
#NOTES:
// measure 0
0000
0000
0000
0000
,  // measure 1
0000
0000
0000
0000
,  // measure 2
0000
0000
0000
0000
,  // measure 3
0000
0000
0000
0000
,  // measure 4
0000
0000
0000
0000
,  // measure 5
0000
0000
0000
0000
,  // measure 6
0000
0000
0000
0000
,  // measure 7
0000
0000
0000
0000
,  // measure 8
0000
0000
0000
0000
,  // measure 9
2000
0000
0000
0000
,  // measure 10
0000
0000
0000
0000
,  // measure 11
3000
0000
0000
0000
,  // measure 12
0000
0000
0000
0000
,  // measure 13
0002
0000
0000
0000
,  // measure 14
0000
0000
0000
0000
,  // measure 15
0003
0000
0000
0000
,  // measure 16
0000
0000
0000
0000
,  // measure 17
0200
0000
0000
0000
,  // measure 18
0000
0000
0000
0000
,  // measure 19
0300
0000
0000
0000
,  // measure 20
0000
0000
0000
0000
,  // measure 21
0020
0000
0000
0000
,  // measure 22
0000
0000
0000
0000
,  // measure 23
0030
0000
0000
0000
,  // measure 24
0000
0000
0000
0000
,  // measure 25
1000
0000
0000
0000
,  // measure 26
1000
0000
0000
0000
,  // measure 27
1000
0000
0000
0000
,  // measure 28
1000
0000
0000
0000
,  // measure 29
0001
0000
0000
0000
,  // measure 30
0001
0000
0000
0000
,  // measure 31
0001
0000
0000
0000
,  // measure 32
1001
0000
0000
0000
,  // measure 33
1000
0000
0000
0000
,  // measure 34
1000
0000
0000
0000
,  // measure 35
1000
0000
0000
0000
,  // measure 36
1000
0000
0000
0000
,  // measure 37
0001
0000
0000
0000
,  // measure 38
0001
0000
0000
0000
,  // measure 39
0001
0000
0000
0000
,  // measure 40
1001
0000
0000
0000
,  // measure 41
1000
0000
0000
0000
,  // measure 42
0010
0000
0000
0000
,  // measure 43
0010
0000
0000
0000
,  // measure 44
0100
0000
0000
0000
,  // measure 45
0001
0000
0000
0000
,  // measure 46
0100
0000
0000
0000
,  // measure 47
0001
0000
0000
0000
,  // measure 48
1000
0000
0000
0000
,  // measure 49
1000
0000
0000
0000
,  // measure 50
0010
0000
0000
0000
,  // measure 51
0010
0000
0000
0000
,  // measure 52
0100
0000
0000
0000
,  // measure 53
0001
0000
0000
0000
,  // measure 54
0100
0000
0000
0000
,  // measure 55
0001
0000
0000
0000
,  // measure 56
0000
0000
0000
0000
,  // measure 57
2000
0000
0000
0000
,  // measure 58
0000
0000
0000
0000
,  // measure 59
3000
0000
0000
0000
,  // measure 60
0000
0000
0000
0000
,  // measure 61
0002
0000
0000
0000
,  // measure 62
0000
0000
0000
0000
,  // measure 63
0003
0000
0000
0000
;

//---------------dance-single - BSP - 4---------------
#NOTEDATA:;
#CHARTNAME:;
#CHARTSTYLE:Pad;
#CREDIT:Wrland Simfiles;
#STEPSTYPE:dance-single;
#DESCRIPTION:BSP - 4;
#DIFFICULTY:Easy;
#METER:4;
#METERF:4;
#RADARVALUES:0,0,0,0,0;
#NOTES:
// measure 0
0000
0000
0000
0000
,  // measure 1
0000
0000
0000
0000
,  // measure 2
0000
0000
0000
0000
,  // measure 3
0000
0000
0000
0000
,  // measure 4
0000
0000
0000
0000
,  // measure 5
0000
0000
0000
0000
,  // measure 6
0000
0000
0000
0000
,  // measure 7
0000
0000
0000
0000
,  // measure 8
0000
0000
0000
0000
,  // measure 9
2000
0000
0000
0000
,  // measure 10
3000
0000
0000
0000
,  // measure 11
0002
0000
0000
0000
,  // measure 12
0003
0000
0000
0000
,  // measure 13
2000
0000
0000
0000
,  // measure 14
3000
0000
0000
0000
,  // measure 15
0020
0000
0000
0000
,  // measure 16
0030
0000
0000
0000
,  // measure 17
0200
0000
0000
0000
,  // measure 18
0300
0000
0000
0000
,  // measure 19
0020
0000
0000
0000
,  // measure 20
0030
0000
0000
0000
,  // measure 21
0110
0000
0000
0000
,  // measure 22
0000
0000
0000
0000
,  // measure 23
1001
0000
0000
0000
,  // measure 24
0000
0000
0000
0000
,  // measure 25
1000
0000
0001
0000
,  // measure 26
1000
1000
1000
0000
,  // measure 27
1000
0000
0001
0000
,  // measure 28
1000
1000
1000
0000
,  // measure 29
0001
0000
1000
0000
,  // measure 30
0001
0001
0001
0000
,  // measure 31
0001
0000
1000
0000
,  // measure 32
1001
0000
0000
0000
,  // measure 33
1000
0000
0001
0000
,  // measure 34
1000
1000
1000
0000
,  // measure 35
1000
0000
0001
0000
,  // measure 36
1000
1000
1000
0000
,  // measure 37
0001
0000
1000
0000
,  // measure 38
0001
0001
0001
0000
,  // measure 39
0001
0000
1000
0000
,  // measure 40
1001
0000
0000
0000
,  // measure 41
1000
0000
1000
0000
,  // measure 42
0010
0000
0010
0000
,  // measure 43
0010
0000
0100
0000
,  // measure 44
0100
0000
0010
0000
,  // measure 45
0001
0000
0001
0000
,  // measure 46
0100
0000
0100
0000
,  // measure 47
0001
0000
0001
0000
,  // measure 48
1000
0000
1000
0000
,  // measure 49
1000
0000
1000
0000
,  // measure 50
0010
0000
0010
0000
,  // measure 51
0010
0000
0100
0000
,  // measure 52
0100
0000
0010
0000
,  // measure 53
0001
0000
0001
0000
,  // measure 54
0100
0000
0100
0000
,  // measure 55
0001
0000
0001
0000
,  // measure 56
1000
0000
1000
0000
,  // measure 57
2000
0000
0000
0000
,  // measure 58
3000
0000
0000
0000
,  // measure 59
0002
0000
0000
0000
,  // measure 60
0003
0000
0000
0000
,  // measure 61
2000
0000
0000
0000
,  // measure 62
3000
0000
0000
0000
,  // measure 63
0002
0000
0000
0000
,  // measure 64
0003
0000
0000
0000
;

//---------------dance-single - DSP - 8---------------
#NOTEDATA:;
#CHARTNAME:;
#CHARTSTYLE:Pad;
#CREDIT:Wrland Simfiles;
#STEPSTYPE:dance-single;
#DESCRIPTION:DSP - 8;
#DIFFICULTY:Medium;
#METER:8;
#METERF:8;
#RADARVALUES:0,0,0,0,0;
#NOTES:
// measure 0
0000
0000
0000
0000
,  // measure 1
0000
0000
0000
0000
,  // measure 2
0000
0000
0000
0000
,  // measure 3
0000
0000
0000
0000
,  // measure 4
0000
0000
0000
0000
,  // measure 5
0000
0000
0000
0000
,  // measure 6
0000
0000
0000
0000
,  // measure 7
0000
0000
0000
0000
,  // measure 8
0000
0000
0000
0000
,  // measure 9
1000
0000
0000
0001
0000
0001
0000
0001
,  // measure 10
0000
0000
0000
1000
0000
1000
0000
1000
,  // measure 11
0000
0000
0002
0000
,  // measure 12
0000
0000
0000
0003
,  // measure 13
0000
0001
0000
1000
0000
1000
0000
1000
,  // measure 14
0000
0000
0000
0001
0000
0001
0000
0001
,  // measure 15
0000
0000
2000
0000
,  // measure 16
0000
0000
0000
3000
,  // measure 17
2000
0000
0000
0000
,  // measure 18
3001
0000
0000
0000
,  // measure 19
0002
0000
0000
0000
,  // measure 20
1003
0000
0000
0000
,  // measure 21
1001
0000
1000
0000
,  // measure 22
1001
0000
0001
0000
,  // measure 23
1001
0000
1000
0000
,  // measure 24
0002
0000
0000
1003
,  // measure 25
1000
0000
1000
0000
1000
0001
1000
0000
,  // measure 26
0001
0000
0001
0000
0001
1000
0001
0000
,  // measure 27
1000
0000
1000
0000
1000
0001
1000
0000
,  // measure 28
0001
0000
0001
0000
0001
1000
0001
0000
,  // measure 29
0100
0000
0100
0000
0100
0010
0100
0000
,  // measure 30
0010
0000
0010
0000
0010
0100
0010
0000
,  // measure 31
1000
0000
1000
0000
1000
0001
1000
0000
,  // measure 32
0002
0000
0000
1003
,  // measure 33
1000
0000
0010
0000
1000
0010
1000
0000
,  // measure 34
0001
0000
0010
0000
0001
0010
0001
0000
,  // measure 35
0010
0000
0100
0000
0010
0100
0010
0000
,  // measure 36
0001
0000
1000
0000
0001
1000
0001
0000
,  // measure 37
1000
0000
0100
0000
1000
0100
1000
0000
,  // measure 38
0001
0000
0100
0000
0001
0100
0001
0000
,  // measure 39
1000
0000
0001
0000
1000
0010
0100
0000
,  // measure 40
0002
0000
0000
1003
,  // measure 41
0001
0000
0001
0000
0001
1000
0001
0000
,  // measure 42
1000
0000
1000
0000
1000
0001
1000
0000
,  // measure 43
0001
0000
0001
0000
1000
0001
1000
0000
,  // measure 44
1000
0000
1000
0000
0001
1000
0001
0000
,  // measure 45
1000
0000
0010
0000
1000
0010
1000
0000
,  // measure 46
1000
0000
0010
0000
1000
0010
1000
0000
,  // measure 47
0001
0000
0100
0000
0001
0100
0001
0000
,  // measure 48
2000
0000
0000
3001
,  // measure 49
1000
0000
0001
0000
1000
0001
1000
0000
,  // measure 50
0001
0000
1000
0000
0001
1000
0001
0000
,  // measure 51
0010
0000
0100
0000
0010
0100
0010
0000
,  // measure 52
0100
0000
0010
0000
0100
0010
0100
0000
,  // measure 53
1000
0000
0100
0000
1000
0100
1000
0000
,  // measure 54
0010
0000
0100
0000
0010
0100
0010
0000
,  // measure 55
1000
0000
0001
0000
1000
0001
1000
0000
,  // measure 56
0002
0000
0000
0000
,  // measure 57
1003
0000
1000
0000
1000
0001
1000
0000
,  // measure 58
1000
0000
1000
0000
1000
0001
1000
0000
,  // measure 59
0001
0000
0001
0000
0001
1000
0001
0000
,  // measure 60
0001
0000
0001
0000
0001
1000
0001
0000
,  // measure 61
1000
0000
1000
0000
1000
0001
1000
0000
,  // measure 62
1000
0000
1000
0000
1000
0001
1000
0000
,  // measure 63
0001
0000
0001
0000
0001
1000
0001
0000
,  // measure 64
2000
0000
0000
0000
,  // measure 65
3001
0000
0000
0000
;

//---------------dance-single - ESP - 12---------------
#NOTEDATA:;
#CHARTNAME:;
#CHARTSTYLE:Pad;
#CREDIT:Wrland Simfiles;
#STEPSTYPE:dance-single;
#DESCRIPTION:ESP - 12;
#DIFFICULTY:Hard;
#METER:12;
#METERF:12;
#RADARVALUES:0,0,0,0,0;
#NOTES:
// measure 0
0000
0000
0000
0000
,  // measure 1
0000
0000
0000
0000
,  // measure 2
0000
0000
0000
0000
,  // measure 3
0000
0000
0000
0000
,  // measure 4
0000
0000
0000
0000
,  // measure 5
0000
0000
0000
0000
,  // measure 6
0000
0000
0000
0000
,  // measure 7
0000
0000
0000
0000
,  // measure 8
0000
0000
0000
0000
,  // measure 9
1000
0001
1000
0002
0003
2000
3000
0020
,  // measure 10
0030
1000
0010
2000
3000
0200
0300
0010
,  // measure 11
0002
0003
0000
1000
0001
2000
3000
0002
,  // measure 12
0003
0000
1000
0020
0000
0000
0030
0000
,  // measure 13
0000
1000
0010
0200
0300
0002
0003
2000
,  // measure 14
3000
1000
0001
2000
3000
0010
0100
0001
,  // measure 15
2000
3000
0000
1000
0001
2000
3000
0020
,  // measure 16
0030
0000
0100
0002
0000
0000
0003
0000
,  // measure 17
1000
1000
1001
0000
,  // measure 18
0001
0001
1001
0000
,  // measure 19
1000
0100
0110
0000
,  // measure 20
0001
0010
0110
0000
,  // measure 21
1000
0001
1000
0000
0001
1000
0001
0000
,  // measure 22
1000
0010
0100
0001
1000
0001
1000
0000
,  // measure 23
1000
0001
1001
0000
0001
1000
1001
0000
,  // measure 24
2000
0000
0000
3001
,  // measure 25
1000
0010
1000
0010
1000
0000
0001
0000
0100
0001
0100
0001
0100
0000
0010
0000
,  // measure 26
0100
0010
0100
0010
0100
0000
0010
0000
1000
0001
1000
0001
1000
0000
0001
0000
,  // measure 27
1000
0010
0100
0001
1000
0000
0100
0000
0010
0100
1000
0001
0100
0000
0010
0000
,  // measure 28
1000
0010
0100
0001
1000
0000
0100
0000
0010
0100
1000
0001
0100
0000
0010
0000
,  // measure 29
1000
1000
0001
0001
1000
0000
0001
0000
1000
1000
0010
0010
0100
0000
0001
0000
,  // measure 30
0010
0010
0100
0100
1000
0000
0001
0000
1000
1000
0001
0001
1000
0000
0001
0000
,  // measure 31
1000
0001
1000
0001
1000
0000
0001
0000
0001
1000
0001
1000
0001
0000
1000
0000
,  // measure 32
0002
0000
0000
1003
,  // measure 33
1000
1010
1000
1010
,  // measure 34
1000
1001
1000
1001
,  // measure 35
0001
0101
0001
0101
,  // measure 36
0100
0110
0100
0110
,  // measure 37
0010
1010
0010
1010
,  // measure 38
1000
1001
1000
1001
,  // measure 39
0001
1001
0001
1001
,  // measure 40
2000
0000
0000
3001
,  // measure 41
1000
0001
1000
0001
1000
0000
0000
0000
0001
1000
0001
1000
0001
0000
0000
0000
,  // measure 42
1000
0001
1000
0001
1000
0000
0000
0000
0001
1000
0001
1000
0001
0000
0000
0000
,  // measure 43
0010
0100
0010
0100
0010
0000
0000
0000
0100
0010
0100
0010
0100
0000
0000
0000
,  // measure 44
0010
0100
0010
0100
0010
0000
0000
0000
0100
0010
0100
0010
0100
0000
0000
0000
,  // measure 45
1000
0010
0100
0001
1000
0000
0000
0000
0001
0100
0010
1000
0001
0000
0000
0000
,  // measure 46
1000
0010
0100
0001
1000
0000
0000
0000
0001
0100
0010
1000
0001
0000
0000
0000
,  // measure 47
1000
0001
1000
0001
1000
0000
0000
0000
0001
1000
0001
1000
0001
0000
0000
0000
,  // measure 48
2000
0000
0000
3001
,  // measure 49
1000
1001
0001
1001
,  // measure 50
1000
1001
0001
1001
,  // measure 51
1000
1010
0001
1010
,  // measure 52
1000
1010
0001
1010
,  // measure 53
0001
0101
0100
0101
,  // measure 54
0001
0101
0100
0101
,  // measure 55
1000
1001
0001
1001
,  // measure 56
2000
0000
0000
3001
,  // measure 57
1000
0010
1000
0010
0000
1000
0001
1000
,  // measure 58
0000
0100
0010
0100
0000
1000
0001
1000
,  // measure 59
0000
0010
0100
0010
0000
1000
0100
1000
,  // measure 60
0000
0001
0100
0001
0000
0010
0001
0010
,  // measure 61
0000
0100
1000
0100
0000
0010
0001
0010
,  // measure 62
0000
0100
1000
0001
0000
1000
0001
1000
,  // measure 63
0000
0010
0100
0001
0000
1000
0001
1000
,  // measure 64
2000
0000
0000
0000
,  // measure 65
3001
0000
0000
0000
;
