#VERSION:0.83;
#TITLE:RUSH HOUR;
#SUBTITLE:;
#ARTIST:ARDOLF;
#TITLETRANSLIT:;
#SUBTITLETRANSLIT:;
#ARTISTTRANSLIT:;
#GENRE:Powerstomp Core;
#CREDIT:Wrland Simfiles;
#MUSIC:RUSH HOUR.ogg;
#BANNER:RUSH HOUR.png;
#BACKGROUND:RUSH HOUR-bg.png;
#JACKET:RUSH HOUR-jacket.png;
#DISCIMAGE:;
#CDIMAGE:;
#SELECTABLE:YES;
#LYRICSPATH:;
#CDTITLE:Wrland Season 4 bergtour.png;
#SAMPLESTART:23.272727;
#SAMPLELENGTH:15;
#BPMS:0.000000=165.000000;
#STOPS:256.000000=0.045000,
256.125000=0.045000,
256.250000=0.045000,
256.375000=0.045000
;
#WARPS:;
#DELAYS:;
#SPEEDS:;
#SCROLLS:;
#TICKCOUNTS:;
#TIMESIGNATURES:;
#LABELS:;
#COMBOS:;
#FAKES:;
#BGCHANGES:0=RUSH HOUR.mp4=0.000000=0=0=0=StretchNoLoop====,
99999=-nosongbg-=1.000000=0=0=0=StretchNoLoop====
;
#FGCHANGES:;
#ATTACKS:;
#DISPLAYBPM:165.000000;
#TAGS:DMCA;

//---------------dance-single - bSP - 3---------------
#NOTEDATA:;
#CHARTNAME:;
#CHARTSTYLE:Pad;
#CREDIT:Wrland Simfiles;
#STEPSTYPE:dance-single;
#DESCRIPTION:bSP - 3;
#DIFFICULTY:Beginner;
#METER:3;
#METERF:3;
#RADARVALUES:0,0,0,0,0;
#NOTES:
// measure 0
0000
0000
0000
0000
,  // measure 1
0000
0000
0000
0000
,  // measure 2
0000
0000
0000
0000
,  // measure 3
0000
0000
0000
0000
,  // measure 4
0000
0000
0000
0000
,  // measure 5
0000
0000
0000
0000
,  // measure 6
0000
0000
0000
0000
,  // measure 7
0000
0000
0000
0000
,  // measure 8
2000
0000
0000
0000
,  // measure 9
3000
0000
0000
0000
,  // measure 10
0002
0000
0000
0000
,  // measure 11
0003
0000
0000
0000
,  // measure 12
0200
0000
0000
0000
,  // measure 13
0300
0000
0000
0000
,  // measure 14
0020
0000
0000
0000
,  // measure 15
0030
0000
0000
0000
,  // measure 16
1001
0000
0000
0000
,  // measure 17
0000
0000
0000
0000
,  // measure 18
0110
0000
0000
0000
,  // measure 19
0000
0000
0000
0000
,  // measure 20
1001
0000
0000
0000
,  // measure 21
0000
0000
0000
0000
,  // measure 22
0110
0000
0000
0000
,  // measure 23
0000
0000
0000
0000
,  // measure 24
1000
0000
0000
0000
,  // measure 25
0001
0000
0000
0000
,  // measure 26
1000
0000
0000
0000
,  // measure 27
0001
0000
0000
0000
,  // measure 28
0100
0000
0000
0000
,  // measure 29
0010
0000
0000
0000
,  // measure 30
1000
0000
0000
0000
,  // measure 31
0002
0000
0000
1003
,  // measure 32
0000
0000
0000
0000
,  // measure 33
0000
0000
0000
0000
,  // measure 34
0000
0000
0000
0000
,  // measure 35
0000
0000
0000
0000
,  // measure 36
0000
0000
0000
0000
,  // measure 37
0000
0000
0000
0000
,  // measure 38
0000
0000
0000
0000
,  // measure 39
0000
0000
0000
0000
,  // measure 40
0001
0000
0000
0000
,  // measure 41
0000
0000
0000
0000
,  // measure 42
1000
0000
0000
0000
,  // measure 43
0000
0000
0000
0000
,  // measure 44
0010
0000
0000
0000
,  // measure 45
0000
0000
0000
0000
,  // measure 46
1000
0000
0000
0000
,  // measure 47
0000
0000
0000
0000
,  // measure 48
0002
0000
0000
0000
,  // measure 49
0003
0000
0000
0000
,  // measure 50
2000
0000
0000
0000
,  // measure 51
3000
0000
0000
0000
,  // measure 52
0002
0000
0000
0000
,  // measure 53
0003
0000
0000
0000
,  // measure 54
2000
0000
0000
3000
,  // measure 55
2000
0000
0000
3000
,  // measure 56
0001
0000
0000
0000
,  // measure 57
1000
0000
0000
0000
,  // measure 58
0001
0000
0000
0000
,  // measure 59
0010
0000
0000
0000
,  // measure 60
0100
0000
0000
0000
,  // measure 61
1000
0000
0000
0000
,  // measure 62
0001
0000
0000
0000
,  // measure 63
1000
0000
0000
0000
,  // measure 64
2002
0000
0000
0000
,  // measure 65
3003
0000
0000
0000
0000
0000
0000
2002
,  // measure 66
0000
0000
0000
0000
0000
0000
0000
3003
,  // measure 67
0000
0000
0000
0000
0000
0000
0000
0220
,  // measure 68
0000
0000
0000
0000
0000
0000
0000
0330
,  // measure 69
0000
0000
0000
0000
0000
0000
0000
0220
,  // measure 70
0000
0000
0000
0000
0000
0000
0000
0330
,  // measure 71
0000
0000
0000
0000
0000
0000
0000
1001
,  // measure 72
0000
0000
0000
0000
,  // measure 73
0000
0000
0000
0000
0000
0000
0000
0110
,  // measure 74
0000
0000
0000
0000
,  // measure 75
0000
0000
0000
0000
0000
0000
0000
1001
,  // measure 76
0000
0000
0000
0000
,  // measure 77
0000
0000
0000
0000
0000
0000
0000
0110
,  // measure 78
0000
0000
0000
0000
,  // measure 79
0000
0000
0000
0000
0000
0000
0000
0001
,  // measure 80
0000
0000
0000
0000
0000
0000
0000
1000
,  // measure 81
0000
0000
0000
0000
0000
0000
0000
0001
,  // measure 82
0000
0000
0000
0000
0000
0000
0000
1000
,  // measure 83
0000
0000
0000
0000
0000
0000
0000
0010
,  // measure 84
0000
0000
0000
0000
0000
0000
0000
0100
,  // measure 85
0000
0000
0000
0000
0000
0000
0000
0001
,  // measure 86
0000
0000
0000
0000
0000
0000
0000
2000
,  // measure 87
0000
0000
0000
0000
0000
3001
0000
0000
;

//---------------dance-single - BSP - 6---------------
#NOTEDATA:;
#CHARTNAME:;
#CHARTSTYLE:Pad;
#CREDIT:Wrland Simfiles;
#STEPSTYPE:dance-single;
#DESCRIPTION:BSP - 6;
#DIFFICULTY:Easy;
#METER:6;
#METERF:6;
#RADARVALUES:0,0,0,0,0;
#NOTES:
// measure 0
0000
0000
0000
0000
,  // measure 1
0000
0000
0000
0000
,  // measure 2
0000
0000
0000
0000
,  // measure 3
0000
0000
0000
0000
,  // measure 4
0000
0000
0000
0000
,  // measure 5
0000
0000
0000
0000
,  // measure 6
0000
0000
0000
0000
,  // measure 7
0000
0000
0000
0000
,  // measure 8
2000
0000
0000
0000
,  // measure 9
3000
0000
0000
0000
,  // measure 10
0002
0000
0000
0000
,  // measure 11
0003
0000
0000
0000
,  // measure 12
0200
0000
0000
0000
,  // measure 13
0300
0000
0000
0000
,  // measure 14
0020
0000
0000
0000
,  // measure 15
0030
0000
0000
0000
,  // measure 16
1000
0000
0001
0000
,  // measure 17
1000
0000
0001
0000
,  // measure 18
0100
0000
0010
0000
,  // measure 19
0100
0000
0001
0000
,  // measure 20
0010
0000
0100
0000
,  // measure 21
1000
0000
0001
0000
,  // measure 22
0100
0000
0010
0000
,  // measure 23
1001
0000
0000
0000
,  // measure 24
1000
0000
0001
0000
,  // measure 25
1000
0000
0010
0000
,  // measure 26
0100
0000
0010
0000
,  // measure 27
2000
0000
0000
3000
,  // measure 28
0001
0000
1000
0000
,  // measure 29
0010
0000
0100
0000
,  // measure 30
0001
0000
1000
0000
,  // measure 31
2000
0000
0000
0000
,  // measure 32
3001
0000
0000
0000
,  // measure 33
0000
0000
0000
0000
,  // measure 34
0000
0000
0000
0000
,  // measure 35
0000
0000
0000
0000
,  // measure 36
0000
0000
0000
0000
,  // measure 37
0000
0000
0000
0000
,  // measure 38
0000
0000
0000
0000
,  // measure 39
0000
0000
0000
0000
,  // measure 40
0001
0000
0000
0000
,  // measure 41
1000
0000
0000
0000
,  // measure 42
0100
0000
0000
0000
,  // measure 43
0010
0000
0000
0000
,  // measure 44
0001
0000
0000
0000
,  // measure 45
1000
0000
0000
0000
,  // measure 46
0010
0000
0000
0000
,  // measure 47
1000
0000
0000
0000
,  // measure 48
0001
0000
0010
0000
,  // measure 49
0100
0000
1000
0000
,  // measure 50
1000
0000
0100
0000
,  // measure 51
0010
0000
0001
0000
,  // measure 52
0001
0000
1001
0000
,  // measure 53
1000
0000
1001
0000
,  // measure 54
0001
0000
1001
0000
,  // measure 55
0000
0000
0000
0000
,  // measure 56
0001
0000
1000
0000
,  // measure 57
0010
0000
0100
0000
,  // measure 58
0001
0000
0010
0000
,  // measure 59
0001
0000
0100
0000
,  // measure 60
0001
0000
0100
0000
,  // measure 61
0010
0000
1000
0000
,  // measure 62
0100
0000
1000
0000
,  // measure 63
0010
0000
1000
0000
,  // measure 64
0000
1001
0000
0000
0000
1000
0000
1000
,  // measure 65
0000
0000
0000
0000
0000
0000
0000
1001
,  // measure 66
0000
0000
0000
0000
0000
0001
0000
0001
,  // measure 67
0000
0000
0000
0000
0000
0000
0000
0110
,  // measure 68
0000
0000
0000
0000
0000
0100
0000
0100
,  // measure 69
0000
0000
0000
0000
0000
0000
0000
0110
,  // measure 70
0000
0000
0000
0000
0000
0010
0000
0010
,  // measure 71
0000
0000
0000
0000
0000
0000
0000
1000
,  // measure 72
0000
0000
0000
0001
0000
0000
0000
1000
,  // measure 73
0000
0000
0000
0001
0000
0000
0000
0100
,  // measure 74
0000
0000
0000
0010
0000
0000
0000
0100
,  // measure 75
0000
0000
0000
0001
0000
0000
0000
0010
,  // measure 76
0000
0000
0000
0100
0000
0000
0000
1000
,  // measure 77
0000
0000
0000
0001
0000
0000
0000
0100
,  // measure 78
0000
0000
0000
0010
0000
0000
0000
1001
,  // measure 79
0000
0000
0000
0000
0000
0000
0000
1000
,  // measure 80
0000
0000
0000
0001
0000
0000
0000
1000
,  // measure 81
0000
0000
0000
0010
0000
0000
0000
0100
,  // measure 82
0000
0000
0000
0010
0000
0000
0000
2000
,  // measure 83
0000
0000
0000
0000
0000
3000
0000
0001
,  // measure 84
0000
0000
0000
1000
0000
0000
0000
0010
,  // measure 85
0000
0000
0000
0100
0000
0000
0000
0001
,  // measure 86
0000
0000
0000
1000
0000
0000
0000
2000
,  // measure 87
0000
0000
0000
0000
0000
0000
0000
3001
;

//---------------dance-single - DSP - 10---------------
#NOTEDATA:;
#CHARTNAME:;
#CHARTSTYLE:Pad;
#CREDIT:Wrland Simfiles;
#STEPSTYPE:dance-single;
#DESCRIPTION:DSP - 10;
#DIFFICULTY:Medium;
#METER:10;
#METERF:10;
#RADARVALUES:0,0,0,0,0;
#NOTES:
// measure 0
0000
0000
0000
0000
,  // measure 1
0000
0000
0000
0000
,  // measure 2
0000
0000
0000
0000
,  // measure 3
0000
0000
0000
0000
,  // measure 4
1000
1000
1000
0010
,  // measure 5
0001
0001
0001
0100
,  // measure 6
1000
1000
1000
0001
,  // measure 7
1000
1001
0001
1001
,  // measure 8
1000
0000
0001
0000
1000
0000
0001
1000
,  // measure 9
0001
0000
0100
0000
0010
0000
0100
0010
,  // measure 10
0100
0000
0001
0000
1000
0000
0001
1000
,  // measure 11
0001
0000
1000
0000
0001
0000
1000
0001
,  // measure 12
1001
0000
1000
0000
0001
1000
0001
0000
,  // measure 13
0110
0000
0010
0000
0100
0010
0100
0000
,  // measure 14
1001
0000
1000
0000
0001
1000
0001
0000
,  // measure 15
2002
0000
0000
3003
,  // measure 16
1001
0000
1000
0000
0001
1000
0001
0000
,  // measure 17
1000
0000
0001
0000
1000
0001
1000
0000
,  // measure 18
0100
0000
0010
0000
0100
0010
0100
0000
,  // measure 19
0010
0000
0100
0000
0010
0100
0010
0000
,  // measure 20
0001
0000
0100
0000
0001
0100
0001
0000
,  // measure 21
1000
0000
0010
0000
1000
0010
1000
0000
,  // measure 22
0001
1000
0010
0000
0100
0001
1000
0000
,  // measure 23
2002
0000
0000
3003
,  // measure 24
1001
0000
0001
0000
1000
0001
1000
0000
,  // measure 25
0001
0000
1000
0000
0001
1000
0001
0000
,  // measure 26
0010
0000
0100
0000
0010
0100
0010
0000
,  // measure 27
0220
0000
0000
0330
,  // measure 28
1000
0000
0010
0000
1000
0010
1000
0000
,  // measure 29
0001
0000
0100
0000
0001
0100
0001
0000
,  // measure 30
1000
0001
0100
0000
0010
1000
0001
0000
,  // measure 31
2002
0000
0000
3003
,  // measure 32
2000
0000
0000
0000
0000
3000
0001
0000
,  // measure 33
2000
0000
0000
0000
0000
3000
0001
0000
,  // measure 34
2000
0000
0000
0000
0000
3000
0001
0000
,  // measure 35
2000
0000
0000
0000
0000
0000
0000
3000
,  // measure 36
0002
0000
0000
0000
0000
0003
1000
0000
,  // measure 37
0002
0000
0000
0000
0000
0003
1000
0000
,  // measure 38
0002
0000
0000
0000
0000
0003
1000
0000
,  // measure 39
0002
0000
0000
0000
0000
0000
0000
0003
,  // measure 40
0001
0000
1000
0000
0001
1000
0001
0000
,  // measure 41
1000
0000
0001
0000
1000
0001
1000
0000
,  // measure 42
0001
0000
1000
0000
0001
1000
0001
0000
,  // measure 43
1000
0000
0001
0000
1000
0001
1000
0000
,  // measure 44
0100
0000
0010
0000
0100
0010
0100
0000
,  // measure 45
0010
0000
0100
0000
0010
0100
0010
0000
,  // measure 46
0100
0000
0010
0000
0100
0010
0100
0000
,  // measure 47
0010
0000
0100
0000
0010
0100
0010
0000
,  // measure 48
0001
0000
1000
0000
0001
1000
0001
0000
,  // measure 49
0100
0000
0010
0000
1000
0001
0100
0000
,  // measure 50
0010
0000
0100
0000
0001
1000
0001
0000
,  // measure 51
0010
0000
0100
0000
1000
0001
1000
0000
,  // measure 52
1001
0000
0001
0000
1000
0001
1000
0000
,  // measure 53
0110
0000
0010
0000
0100
0001
1000
0000
,  // measure 54
1001
0000
1000
0000
0001
1000
0001
0000
,  // measure 55
2000
0000
0000
0000
,  // measure 56
3001
0000
1000
0000
0001
0000
0100
0001
,  // measure 57
0100
0000
0010
1000
0001
0100
0010
1000
,  // measure 58
0100
0000
0010
0001
1000
0100
0010
0001
,  // measure 59
0010
0000
0100
1000
0001
0010
0100
1000
,  // measure 60
1001
0000
0001
0000
1000
0000
0010
1000
,  // measure 61
0010
0000
0100
0001
1000
0010
0100
0001
,  // measure 62
0000
1000
1000
1000
0001
0001
0100
0010
,  // measure 63
0000
1000
0010
0100
0001
1000
0010
0100
,  // measure 64
0002
1003
0000
0001
0000
0100
0001
0100
,  // measure 65
0000
0010
1000
0001
0100
0010
1000
0100
,  // measure 66
0000
0010
0001
1000
0100
0010
0001
0010
,  // measure 67
0000
0100
1000
0001
0010
0100
1000
1001
,  // measure 68
0000
0001
0000
1000
0000
0010
1000
0010
,  // measure 69
0000
0000
0100
0000
0001
0000
1000
0010
0000
0100
0001
0000
1000
0010
0000
0000
,  // measure 70
0001
0001
0001
1000
1000
0010
0100
0000
,  // measure 71
0002
2000
0000
0000
0000
0000
3003
1001
,  // measure 72
0000
1000
0000
0001
1000
0001
0000
1000
,  // measure 73
0000
0001
0000
1000
0001
1000
0000
0100
,  // measure 74
0000
0010
0000
0100
0010
0100
0000
0010
,  // measure 75
0000
0100
0000
0010
0100
0010
0000
0001
,  // measure 76
0000
0100
0000
0001
0100
0001
0000
1000
,  // measure 77
0000
0010
0000
1000
0010
1000
0000
0001
,  // measure 78
1000
0010
0000
0100
0001
1000
0000
2002
,  // measure 79
0000
0000
0000
0000
0000
3003
0000
1001
,  // measure 80
0000
0001
0000
1000
0001
1000
0000
0001
,  // measure 81
0000
1000
0000
0001
1000
0001
0000
0010
,  // measure 82
0000
0100
0000
0010
0100
0010
0000
0220
,  // measure 83
0000
0000
0000
0000
0000
0330
0000
1000
,  // measure 84
0000
0010
0000
1000
0010
1000
0000
0001
,  // measure 85
0000
0100
0000
0001
0100
0001
0000
1000
,  // measure 86
0001
0100
0000
0010
1000
0001
0000
2000
,  // measure 87
0000
0000
0000
0000
0000
0000
0000
3001
;

//---------------dance-single - ESP - 13---------------
#NOTEDATA:;
#CHARTNAME:;
#CHARTSTYLE:Pad;
#CREDIT:Wrland Simfiles;
#STEPSTYPE:dance-single;
#DESCRIPTION:ESP - 13;
#DIFFICULTY:Hard;
#METER:13;
#METERF:13;
#RADARVALUES:0,0,0,0,0;
#NOTES:
// measure 0
0000
0000
0000
0000
,  // measure 1
0000
0000
0000
0000
,  // measure 2
0000
0000
0000
0000
,  // measure 3
0000
0000
0000
0000
,  // measure 4
1000
0001
1000
0000
0001
1000
0001
0000
,  // measure 5
0100
0001
0100
0000
0010
1000
0010
0000
,  // measure 6
1000
0001
0100
0000
0001
1000
0010
0000
,  // measure 7
1000
0000
0010
0100
0001
0000
1000
0000
0010
0000
0100
0001
1000
0000
0001
0000
,  // measure 8
1000
0000
0001
0000
1000
0000
0001
0000
1000
0001
1000
0000
1001
0000
0000
0000
,  // measure 9
0010
0000
0100
0000
0010
0000
0100
0000
0010
0100
0010
0000
0110
0000
0000
0000
,  // measure 10
1000
0000
0001
0000
1000
0000
0010
0000
0100
0001
0100
0000
1001
0000
0000
0000
,  // measure 11
0001
0000
1000
0000
0001
0000
0100
0000
0010
1000
0010
0000
1001
0000
0000
0000
,  // measure 12
1000
0000
0010
1000
0010
0000
0000
0000
0100
0000
0001
0100
0001
0000
0000
0000
,  // measure 13
1000
0000
0001
1000
0001
0000
0000
0000
0100
0000
0010
0100
0010
0000
0000
0000
,  // measure 14
1000
0000
0000
0001
0100
0000
0000
0000
0001
0000
0000
1000
0010
0000
0000
0000
,  // measure 15
2000
0000
0000
0000
,  // measure 16
3001
0000
0000
0000
1000
0000
0010
0000
0100
0001
1000
0000
1001
0000
0000
0000
,  // measure 17
0001
0000
0000
0000
1000
0000
0010
0000
0100
0001
1000
0000
1001
0000
0000
0000
,  // measure 18
1000
0000
0000
0000
0001
0000
0100
0000
0010
1000
0001
0000
1001
0000
0000
0000
,  // measure 19
1000
0000
0000
0000
0001
0000
0100
0000
0010
1000
0001
0000
1001
0000
0000
0000
,  // measure 20
0001
0000
0000
0000
1000
0000
0001
0000
0100
0010
0100
0000
1001
0000
0000
0000
,  // measure 21
0001
0000
0000
0000
1000
0000
0001
0000
0100
0010
0100
0000
1001
0000
0000
0000
,  // measure 22
1000
0000
0000
0000
0001
0000
1000
0000
0001
0100
0010
0000
1000
0001
1000
0001
,  // measure 23
2000
0000
3000
0020
0000
0030
0100
0000
0001
0000
1000
0000
2000
0000
0000
0000
,  // measure 24
3001
0000
0000
0000
1000
0000
0010
0000
0100
0001
1000
0000
1001
0000
0000
0000
,  // measure 25
0001
0000
0000
0000
1000
0000
0010
0000
0100
0001
1000
0000
1001
0000
0000
0000
,  // measure 26
1000
0000
0000
0000
0001
0000
0100
0000
0010
1000
0001
0000
1001
0000
0000
0000
,  // measure 27
0002
MMM0
0000
MMM0
,  // measure 28
1003
0000
0000
0000
1000
0000
0001
0000
0100
0010
0100
0000
1001
0000
0000
0000
,  // measure 29
0001
0000
0000
0000
1000
0000
0001
0000
0100
0010
0100
0000
1001
0000
0000
0000
,  // measure 30
1000
0000
0000
0000
0001
0000
1000
0000
0001
0100
0010
0000
1000
0000
0001
0000
,  // measure 31
2000
0000
3000
0002
0000
0003
1000
0000
0010
0000
0100
0000
0002
0000
0000
0000
,  // measure 32
1003
0000
0000
0000
0000
0000
0000
0000
0001
1000
0001
0000
1000
0000
0000
0000
,  // measure 33
0000
0000
0000
0000
0000
0000
0000
0000
0001
1000
0001
0000
1000
0000
0000
0000
,  // measure 34
0000
0000
0000
0000
0000
0000
0000
0000
0001
1000
0001
0000
1000
0000
0000
0000
,  // measure 35
0000
0000
0000
0000
0000
0000
0000
0000
0001
1000
0001
0000
1000
0000
0000
0000
,  // measure 36
0000
0000
0000
0000
0000
0000
0000
0000
1000
0001
1000
0000
0001
0000
0000
0000
,  // measure 37
0000
0000
0000
0000
0000
0000
0000
0000
1000
0001
1000
0000
0001
0000
0000
0000
,  // measure 38
0000
0000
0000
0000
0000
0000
0000
0000
1000
0001
1000
0000
0001
0000
0000
0000
,  // measure 39
0000
0000
0000
0000
0000
0000
0000
0000
1000
0001
1000
0000
0001
0000
0000
0000
,  // measure 40
1000
0001
0100
0010
1000
0100
0010
0001
,  // measure 41
1000
0001
0100
0010
1000
0100
0010
0001
,  // measure 42
1000
0001
0100
0010
1000
0100
0010
0001
,  // measure 43
1000
0000
0010
0000
0100
0000
0001
0000
1000
0000
0010
0000
1000
0000
0001
1000
,  // measure 44
0001
1000
0010
0100
0001
0010
0100
1000
,  // measure 45
0001
1000
0010
0100
0001
0010
0100
1000
,  // measure 46
0000
1001
1001
1000
0001
1000
0001
1000
,  // measure 47
0001
0000
0000
0100
0010
0000
0000
0000
0100
0000
0000
0010
1000
0000
0000
0000
,  // measure 48
1000
0000
0001
0000
1000
0000
0001
0000
1000
0001
1000
0000
1001
0000
0000
0000
,  // measure 49
0010
0000
0100
0000
0010
0000
0100
0000
0010
0100
0010
0000
0110
0000
0000
0000
,  // measure 50
1000
0000
0001
0000
1000
0000
0010
0000
0100
0001
0100
0000
1001
0000
0000
0000
,  // measure 51
0001
0000
1000
0000
0001
0000
0100
0000
0010
1000
0010
0000
1001
0000
0000
0000
,  // measure 52
1000
0000
0010
1000
0010
0000
0000
0000
0100
0000
0001
0100
0001
0000
0000
0000
,  // measure 53
1000
0000
0001
1000
0001
0000
0000
0000
0100
0000
0010
0100
0010
0000
0000
0000
,  // measure 54
1000
0000
0000
0001
0100
0000
0000
0000
0001
0000
0000
1000
0010
0000
0000
0000
,  // measure 55
2000
0000
0000
0000
,  // measure 56
3002
0003
2000
3000
0002
0003
1000
0001
,  // measure 57
0200
0300
0020
0030
1000
0000
0001
1000
,  // measure 58
0020
0030
0100
0001
1000
0001
1000
0010
,  // measure 59
1010
0000
0010
1000
0001
1000
0001
0100
,  // measure 60
0101
0000
2000
3000
0002
0003
1000
0001
,  // measure 61
2000
3000
0001
1000
0010
1000
0010
0100
,  // measure 62
0000
0001
1000
0001
0010
0100
1000
0001
,  // measure 63
0000
0000
1000
0000
0001
0000
1000
0000
0001
0100
0010
0000
1000
0000
0001
0000
,  // measure 64
1000
0001
1000
0001
2000
0000
0000
0000
3000
0000
0000
0000
0002
0000
0000
0000
0003
0000
0000
0000
1000
0000
0000
0000
0001
0000
0000
0000
0200
0000
0000
0000
,  // measure 65
0300
0020
0030
1000
0000
0001
1000
0020
,  // measure 66
0030
0100
0001
1000
0001
1000
0010
1010
,  // measure 67
0000
0010
1000
0001
1000
0001
0100
0101
,  // measure 68
0000
2000
3000
0002
0003
1000
0001
2000
,  // measure 69
3000
0000
0001
0000
1000
0000
1000
0000
1000
0010
0000
0100
0001
0000
0000
0000
,  // measure 70
0001
0000
1000
0000
0001
0000
0100
0010
0100
0001
1000
0000
0002
0000
0003
0000
,  // measure 71
1000
0000
0001
0000
1000
0000
0001
0100
0010
0000
1000
0000
0001
0000
2000
0000
,  // measure 72
3001
0000
1000
0000
0010
0000
0100
0001
1000
0000
1001
0000
0000
0000
0002
0000
,  // measure 73
1003
0000
1000
0000
0010
0000
0100
0001
1000
0000
1001
0000
0000
0000
2000
0000
,  // measure 74
3001
0000
0001
0000
0100
0000
0010
1000
0001
0000
1001
0000
0000
0000
2000
0000
,  // measure 75
3001
0000
0001
0000
0100
0000
0010
1000
0001
0000
1001
0000
0000
0000
0002
0000
,  // measure 76
1003
0000
1000
0000
0001
0000
0100
0010
0100
0000
1001
0000
0000
0000
0002
0000
,  // measure 77
1003
0000
1000
0000
0001
0000
0100
0010
0100
0000
1001
0000
0000
0000
2000
0000
,  // measure 78
3001
0000
0001
0000
1000
0000
0001
0100
0010
0000
1000
0001
1000
0001
2000
0000
,  // measure 79
3000
0020
0000
0030
0100
0000
0001
0000
1000
0000
2000
0000
0000
0000
3001
0000
,  // measure 80
0000
0000
1000
0000
0010
0000
0100
0001
1000
0000
1001
0000
0000
0000
0001
0000
,  // measure 81
0000
0000
1000
0000
0010
0000
0100
0001
1000
0000
1001
0000
0000
0000
1000
0000
,  // measure 82
0000
0000
0001
0000
0100
0000
0010
1000
0001
0000
1001
0000
0000
0000
2000
0000
,  // measure 83
0000
0000
0MMM
0000
0000
0000
0MMM
3001
,  // measure 84
0000
0000
0001
0000
1000
0000
0010
0100
0010
0000
1001
0000
0000
0000
1000
0000
,  // measure 85
0000
0000
0001
0000
1000
0000
0010
0100
0010
0000
1001
0000
0000
0000
0001
0000
,  // measure 86
0000
0000
1000
0000
0001
0000
1000
0010
0100
0000
0001
0000
1000
0000
0002
0000
,  // measure 87
0003
2000
0000
3000
0001
0000
0100
0000
0010
0000
2000
0000
0000
0000
3001
0000
;
