#VERSION:0.83;
#TITLE:PHYSALIS;
#SUBTITLE:;
#ARTIST:TAG;
#TITLETRANSLIT:;
#SUBTITLETRANSLIT:;
#ARTISTTRANSLIT:;
#GENRE:J-Core;
#CREDIT:BIG UP!;
#MUSIC:PHYSALIS.ogg;
#BANNER:PHYSALIS.png;
#BACKGROUND:PHYSALIS-bg.png;
#JACKET:PHYSALIS-jacket.png;
#DISCIMAGE:;
#SELECTABLE:YES;
#LYRICSPATH:;
#CDTITLE:BMS OF FIGHTERS.png;
#SAMPLESTART:132.065854;
#SAMPLELENGTH:15;
#BPMS:0.000000=164.000000,
1.000000=200.000000,
132.000000=100.000000,
168.000000=200.000000,
400.000000=100.000000,
402.000000=200.000000
;
#STOPS:;
#WARPS:;
#DELAYS:;
#SPEEDS:;
#SCROLLS:;
#TICKCOUNTS:;
#TIMESIGNATURES:;
#LABELS:;
#COMBOS:;
#FAKES:;
#BGCHANGES:0=PHYSALIS.mp4=0.000000=0=0=0=StretchNoLoop====,
99999=-nosongbg-=1.000000=0=0=0=StretchNoLoop====
;
#FGCHANGES:;
#ATTACKS:;
#DISPLAYBPM:100.000000:200.000000;
#TAGS:DMCA;

//---------------dance-single - bSP - 4---------------
#NOTEDATA:;
#CHARTNAME:;
#CHARTSTYLE:Pad;
#CREDIT:Wrland Simfiles;
#STEPSTYPE:dance-single;
#DESCRIPTION:bSP - 4;
#DIFFICULTY:Beginner;
#METER:4;
#METERF:4;
#RADARVALUES:0,0,0,0,0;
#NOTES:
// measure 0
0000
0000
0000
0000
,  // measure 1
0000
0000
0000
0000
,  // measure 2
0000
0000
0000
0000
,  // measure 3
0000
0000
0000
0000
,  // measure 4
0000
0000
0000
0000
,  // measure 5
0000
0000
0000
0000
,  // measure 6
0000
0000
0000
0000
,  // measure 7
0000
0000
0000
0000
,  // measure 8
0000
0000
0000
0000
,  // measure 9
2000
0000
0000
0000
,  // measure 10
0000
0000
0000
0000
,  // measure 11
3000
0000
0000
0000
,  // measure 12
0000
0000
0000
0000
,  // measure 13
0002
0000
0000
0000
,  // measure 14
0000
0000
0000
0000
,  // measure 15
0003
0000
0000
0000
,  // measure 16
0000
0000
0000
0000
,  // measure 17
1001
0000
0000
0000
,  // measure 18
0000
0000
0000
0000
,  // measure 19
0000
0000
0000
0000
,  // measure 20
0000
0000
0000
0000
,  // measure 21
1001
0000
0000
0000
,  // measure 22
0000
0000
0000
0000
,  // measure 23
0000
0000
0000
0000
,  // measure 24
0000
0000
0000
0000
,  // measure 25
1000
0000
0000
0000
,  // measure 26
0001
0000
0000
0000
,  // measure 27
0001
0000
0000
0000
,  // measure 28
1000
0000
0000
0000
,  // measure 29
0010
0000
0000
0000
,  // measure 30
0100
0000
0000
0000
,  // measure 31
0100
0000
0000
0000
,  // measure 32
0010
0000
0000
0000
,  // measure 33
0000
0000
0000
0000
,  // measure 34
0000
0000
0000
0000
,  // measure 35
0000
0000
0000
0000
,  // measure 36
0000
0000
0000
0000
,  // measure 37
0000
0000
0000
0000
,  // measure 38
0000
0000
0000
0000
,  // measure 39
0000
0000
0000
0000
,  // measure 40
0000
0000
0000
0000
,  // measure 41
0000
0000
0000
0000
,  // measure 42
0000
0000
0000
0000
,  // measure 43
0000
0000
0000
0000
,  // measure 44
0000
0000
0000
0000
,  // measure 45
0000
1001
0000
0000
,  // measure 46
1000
0000
0001
0000
,  // measure 47
1000
0000
0000
0000
,  // measure 48
0001
0000
1000
0000
,  // measure 49
0001
0000
0000
0000
,  // measure 50
1000
0000
0010
0000
,  // measure 51
1000
0000
0000
0000
,  // measure 52
0000
0000
0000
0000
0000
0000
0000
2002
,  // measure 53
0000
0000
0000
3003
,  // measure 54
1000
0000
1000
0000
,  // measure 55
1000
0000
2002
3003
,  // measure 56
0001
0000
0001
0000
,  // measure 57
0001
0000
2002
3003
,  // measure 58
1000
0000
1000
0000
,  // measure 59
0010
0000
0010
0000
,  // measure 60
0100
0000
0100
0000
,  // measure 61
0000
0000
0000
0000
,  // measure 62
0000
0000
0000
0000
,  // measure 63
0000
0000
0000
1001
,  // measure 64
0000
0000
0000
0000
,  // measure 65
0000
0000
0000
0000
,  // measure 66
0000
0000
0000
0000
,  // measure 67
0000
0000
0000
0000
,  // measure 68
0000
0000
0000
0000
,  // measure 69
0000
0000
0000
0000
,  // measure 70
0000
0000
0000
0000
,  // measure 71
0000
0000
0000
0000
,  // measure 72
1000
0000
1000
0000
,  // measure 73
0001
0000
0001
0000
,  // measure 74
1000
0000
1000
0000
,  // measure 75
0001
0000
0001
0000
,  // measure 76
0100
0000
0100
0000
,  // measure 77
0010
0000
0010
0000
,  // measure 78
0000
0000
0000
0000
,  // measure 79
0000
0000
0000
0000
,  // measure 80
0000
0000
0000
0000
,  // measure 81
0000
0000
0000
1001
,  // measure 82
0001
0000
1000
0000
,  // measure 83
0001
0000
0000
0000
,  // measure 84
1000
0000
0010
0000
,  // measure 85
1000
0000
0000
0000
,  // measure 86
0000
0000
0000
0000
0000
0000
0000
2002
,  // measure 87
0000
0000
0000
3003
,  // measure 88
1000
0000
1000
0000
,  // measure 89
1000
0000
2002
3003
,  // measure 90
0001
0000
0001
0000
,  // measure 91
0001
0000
2002
3003
,  // measure 92
1000
0000
1000
0000
,  // measure 93
0010
0000
0010
0000
,  // measure 94
0100
0000
0100
0000
,  // measure 95
0000
0000
0000
0000
,  // measure 96
0002
0000
0000
0000
,  // measure 97
0000
0000
0000
0000
,  // measure 98
2000
0000
0000
0000
,  // measure 99
3003
0000
0000
0000
,  // measure 100
0000
0000
2000
0000
,  // measure 101
0000
0000
0000
0000
,  // measure 102
0000
0000
3000
0000
,  // measure 103
0000
0000
0000
0000
,  // measure 104
0000
0000
0002
0000
,  // measure 105
0000
0000
0000
0000
,  // measure 106
0000
0000
0000
0000
,  // measure 107
0000
0000
0003
0000
,  // measure 108
0000
0000
0000
1001
,  // measure 109
0000
0000
1000
0000
,  // measure 110
2002
3003
0001
0000
,  // measure 111
0001
0000
0001
0000
,  // measure 112
2002
3003
1000
0000
,  // measure 113
1000
0000
0010
0000
,  // measure 114
0010
0000
0100
0000
,  // measure 115
0100
0000
0000
0000
,  // measure 116
0000
0000
1001
0000
,  // measure 117
0000
0000
0000
0000
,  // measure 118
0000
0000
0000
0000
,  // measure 119
0000
0000
0000
0000
,  // measure 120
0000
0000
1001
0000
,  // measure 121
0000
0000
0000
0000
,  // measure 122
0000
0000
0000
0000
,  // measure 123
0000
0000
0000
0000
,  // measure 124
0000
0000
0000
2002
,  // measure 125
0000
0000
0000
0000
,  // measure 126
0000
0000
3003
0000
;

//---------------dance-single - BSP - 6---------------
#NOTEDATA:;
#CHARTNAME:;
#CHARTSTYLE:Pad;
#CREDIT:Wrland Simfiles;
#STEPSTYPE:dance-single;
#DESCRIPTION:BSP - 6;
#DIFFICULTY:Easy;
#METER:6;
#METERF:6;
#RADARVALUES:0,0,0,0,0;
#NOTES:
// measure 0
0000
0000
0000
0000
,  // measure 1
0000
0000
0000
0000
,  // measure 2
0000
0000
0000
0000
,  // measure 3
0000
0000
0000
0000
,  // measure 4
0000
0000
0000
0000
,  // measure 5
0000
0000
0000
0000
,  // measure 6
0000
0000
0000
0000
,  // measure 7
0000
0000
0000
0000
,  // measure 8
0000
0000
0000
0000
,  // measure 9
1000
0000
0000
0000
,  // measure 10
0001
1000
0001
0000
,  // measure 11
0100
0000
0000
0000
,  // measure 12
0001
0100
0001
0000
,  // measure 13
1000
0000
0000
0000
,  // measure 14
0010
1000
0010
0000
,  // measure 15
0100
0000
0000
0000
,  // measure 16
0100
0001
0100
0000
,  // measure 17
1001
0000
0000
0000
,  // measure 18
0000
0000
0000
0000
,  // measure 19
0110
0000
0000
0000
,  // measure 20
0000
0000
0000
0000
,  // measure 21
1001
0000
0000
0000
,  // measure 22
0000
0000
0000
0000
,  // measure 23
0110
0000
0000
0000
,  // measure 24
0000
0000
0000
0000
,  // measure 25
1000
0001
0100
0000
,  // measure 26
0000
0000
1001
0000
,  // measure 27
0001
1000
0010
0000
,  // measure 28
0000
0000
0110
0000
,  // measure 29
0100
0010
1000
0000
,  // measure 30
0000
0000
1001
0000
,  // measure 31
0001
1000
0100
0000
,  // measure 32
0000
0000
0110
0000
,  // measure 33
0000
0000
0000
0000
,  // measure 34
0000
0000
0000
0000
,  // measure 35
0000
0000
0000
0000
,  // measure 36
0000
0000
0000
0000
,  // measure 37
0000
0000
0000
0000
,  // measure 38
2000
0000
0000
0000
,  // measure 39
0000
0000
0000
3000
,  // measure 40
0000
0000
0000
0000
,  // measure 41
0000
0000
0000
0000
,  // measure 42
0002
0000
0000
0000
,  // measure 43
0000
0000
0000
0003
,  // measure 44
0000
0000
0000
0000
,  // measure 45
0000
1001
0000
0000
,  // measure 46
1000
0001
0100
0000
,  // measure 47
0001
0100
0010
0000
,  // measure 48
1000
0001
0100
0000
,  // measure 49
0001
0100
0001
0000
,  // measure 50
1000
0010
0100
0000
,  // measure 51
0001
1000
0100
0000
,  // measure 52
0100
0000
0010
0000
0001
0000
0000
2002
,  // measure 53
0000
0000
0000
3003
,  // measure 54
1000
1000
1000
0000
,  // measure 55
0000
0000
2002
3003
,  // measure 56
0001
0001
0001
0000
,  // measure 57
0000
0000
2002
3003
,  // measure 58
1000
1000
1000
0000
,  // measure 59
0010
0010
0010
0000
,  // measure 60
0100
0100
0100
0000
,  // measure 61
0000
0000
0000
0000
,  // measure 62
0020
0000
0000
0000
,  // measure 63
0200
0000
0000
0000
,  // measure 64
0330
0000
0000
0000
,  // measure 65
0000
0000
0000
0000
,  // measure 66
0000
0000
0000
0000
,  // measure 67
0000
0000
0000
0000
,  // measure 68
0000
0000
0000
0000
,  // measure 69
0000
0000
0000
0000
,  // measure 70
0000
0000
0000
0000
,  // measure 71
0000
0000
0000
0000
,  // measure 72
0100
0100
0100
0000
,  // measure 73
0010
0010
0010
0000
,  // measure 74
0001
0001
0001
0000
,  // measure 75
1000
1000
1000
0000
,  // measure 76
0010
0010
0010
0000
,  // measure 77
0100
0100
0100
0000
,  // measure 78
0001
0001
0001
0000
,  // measure 79
2002
0000
3003
0000
,  // measure 80
0000
0000
0000
0000
,  // measure 81
0000
0000
0000
0000
,  // measure 82
1000
0001
0100
0000
,  // measure 83
0001
0100
0001
0000
,  // measure 84
1000
0010
0100
0000
,  // measure 85
0001
1000
0100
0000
,  // measure 86
0100
0000
0010
0000
0001
0000
0000
1001
,  // measure 87
0000
0000
0000
0000
,  // measure 88
1000
1000
1000
0000
,  // measure 89
0000
0000
2002
3003
,  // measure 90
0001
0001
0001
0000
,  // measure 91
0000
0000
2002
3003
,  // measure 92
1000
1000
1000
0000
,  // measure 93
0010
0010
0010
0000
,  // measure 94
0100
0100
0100
0000
,  // measure 95
0000
0000
0000
0000
,  // measure 96
0020
0000
0000
0000
,  // measure 97
0000
0000
0000
0000
,  // measure 98
0200
0000
0000
0000
,  // measure 99
0330
0000
0000
0000
,  // measure 100
0000
0000
1000
0001
,  // measure 101
1000
0000
0000
0000
,  // measure 102
1001
0000
0001
1000
,  // measure 103
0001
0000
0000
0000
,  // measure 104
1001
0000
1000
0010
,  // measure 105
0100
0000
0000
0000
,  // measure 106
0110
0000
0001
0010
,  // measure 107
0100
0000
0000
0000
,  // measure 108
0000
0000
0000
1001
,  // measure 109
1000
0000
0001
0000
,  // measure 110
2002
3003
1000
0010
,  // measure 111
0100
0000
0000
0000
,  // measure 112
2002
3003
0001
0100
,  // measure 113
0001
0000
1000
0010
,  // measure 114
0100
0000
0001
1000
,  // measure 115
0010
0000
1001
0000
,  // measure 116
0000
0000
0110
0000
,  // measure 117
0000
0000
0000
0000
,  // measure 118
0000
0000
1001
0000
,  // measure 119
0000
0000
0000
0000
,  // measure 120
0000
0000
0110
0000
,  // measure 121
0000
0000
0000
0000
,  // measure 122
0000
0000
1001
0000
,  // measure 123
0000
0000
0000
0000
,  // measure 124
0000
0000
0000
2002
,  // measure 125
0000
0000
0000
0000
,  // measure 126
0000
0000
3003
0000
;

//---------------dance-single - DSP - 9---------------
#NOTEDATA:;
#CHARTNAME:;
#CHARTSTYLE:Pad;
#CREDIT:Wrland Simfiles;
#STEPSTYPE:dance-single;
#DESCRIPTION:DSP - 9;
#DIFFICULTY:Medium;
#METER:9;
#METERF:9;
#RADARVALUES:0,0,0,0,0;
#NOTES:
// measure 0
0000
0000
0000
0000
,  // measure 1
0000
0000
0000
0000
,  // measure 2
0000
0000
0000
0000
,  // measure 3
0000
0000
0000
0000
,  // measure 4
0000
0000
0000
0000
,  // measure 5
0000
0000
0000
0000
,  // measure 6
0000
0000
0000
0000
,  // measure 7
0000
0000
0000
0000
,  // measure 8
0000
0000
0000
0000
,  // measure 9
1000
0000
0001
0000
,  // measure 10
0001
1000
0001
0000
,  // measure 11
0100
0000
0100
0000
,  // measure 12
0001
0100
0001
0000
,  // measure 13
1000
0000
1000
0000
,  // measure 14
0010
1000
0010
0000
,  // measure 15
0100
0000
0100
0000
,  // measure 16
0100
0001
0100
0000
,  // measure 17
1001
0000
0000
0000
,  // measure 18
1001
0000
0000
0000
,  // measure 19
0110
0000
0000
0000
,  // measure 20
0110
0000
0000
0000
,  // measure 21
1001
0000
0000
0000
,  // measure 22
1001
0000
0000
0000
,  // measure 23
0110
0000
0000
0000
,  // measure 24
0110
0000
0000
0000
,  // measure 25
1000
0001
0100
0000
,  // measure 26
0000
0000
1001
0000
,  // measure 27
0001
1000
0010
0000
,  // measure 28
0000
0000
0110
0000
,  // measure 29
0100
0010
1000
0000
,  // measure 30
0000
0000
1001
0000
,  // measure 31
0001
1000
0100
0000
,  // measure 32
0000
0000
0110
0000
,  // measure 33
0000
0000
0000
0000
,  // measure 34
0000
0000
0000
0000
,  // measure 35
0000
0000
0000
0000
,  // measure 36
0000
0000
0000
0000
,  // measure 37
0000
0000
0000
0000
,  // measure 38
2000
0000
0000
0000
,  // measure 39
3000
0000
0000
0000
,  // measure 40
0002
0000
0000
0000
,  // measure 41
0003
0000
0000
0000
,  // measure 42
2000
0000
0000
0000
,  // measure 43
3002
0000
0000
0000
,  // measure 44
2003
0000
0000
0000
0000
0000
0000
3001
,  // measure 45
0000
1001
0000
0000
,  // measure 46
1000
0001
0100
0010
,  // measure 47
1000
0001
0010
0100
,  // measure 48
1000
0001
0100
0000
,  // measure 49
0001
0100
0001
0000
,  // measure 50
1000
0010
0100
0001
,  // measure 51
1000
0010
0100
0001
,  // measure 52
0100
0000
0010
0000
1000
0000
0000
2002
,  // measure 53
0000
0000
0000
3003
,  // measure 54
1000
1000
1000
0000
,  // measure 55
1001
0000
2002
3003
,  // measure 56
0001
0001
0001
0000
,  // measure 57
1001
0000
2002
3003
,  // measure 58
1000
1000
1000
0000
,  // measure 59
0010
0010
0010
0000
,  // measure 60
0100
0100
0100
0000
,  // measure 61
0000
0000
0000
0000
,  // measure 62
0020
0000
0000
0000
,  // measure 63
0200
0000
0000
0000
,  // measure 64
0330
0000
0000
0000
,  // measure 65
0000
0000
0000
0000
,  // measure 66
0000
0000
0000
0000
,  // measure 67
0000
0000
0000
0000
,  // measure 68
0000
0000
0000
0000
,  // measure 69
0000
0000
0000
0000
,  // measure 70
0000
0000
0000
0000
,  // measure 71
0000
0000
0000
0000
,  // measure 72
0100
0100
0100
0000
,  // measure 73
0010
0010
0010
0000
,  // measure 74
0001
0001
0001
0000
,  // measure 75
1000
1000
1000
0000
,  // measure 76
0010
0010
0010
0000
,  // measure 77
0100
0100
0100
0000
,  // measure 78
0001
0001
0001
0000
,  // measure 79
2002
0000
3003
0000
,  // measure 80
0000
0000
0000
0000
,  // measure 81
0000
0000
0000
1001
,  // measure 82
1000
0001
0100
0000
,  // measure 83
0001
0100
0001
0000
,  // measure 84
1000
0010
0100
0001
,  // measure 85
1000
0010
0100
0001
,  // measure 86
0100
0000
0010
0000
1000
0000
0000
2002
,  // measure 87
0000
0000
0000
3003
,  // measure 88
1000
1000
1000
0000
,  // measure 89
1001
0000
2002
3003
,  // measure 90
0001
0001
0001
0000
,  // measure 91
1001
0000
2002
3003
,  // measure 92
1000
1000
1000
0000
,  // measure 93
0010
0010
0010
0000
,  // measure 94
0100
0100
0100
0000
,  // measure 95
0000
0000
2000
0000
,  // measure 96
3001
1000
0001
0000
,  // measure 97
1000
0010
1000
0000
,  // measure 98
0100
0001
0100
0000
,  // measure 99
2002
0000
0000
0000
,  // measure 100
3003
0000
1000
0001
,  // measure 101
1000
0001
1000
0000
,  // measure 102
1001
0000
0001
1000
,  // measure 103
0001
1000
0001
0000
,  // measure 104
1001
0000
1000
0010
,  // measure 105
0100
0010
1000
0000
,  // measure 106
0110
0000
0001
0010
,  // measure 107
0100
0000
0010
2002
0000
0000
0000
0000
,  // measure 108
0000
3003
1000
1001
,  // measure 109
1000
0001
2000
3000
,  // measure 110
2002
3003
1000
0010
,  // measure 111
0100
0010
2000
3000
,  // measure 112
2002
3003
0001
0100
,  // measure 113
0001
0000
1000
0010
,  // measure 114
0100
0000
0001
1000
,  // measure 115
0010
0000
2002
0000
,  // measure 116
3003
0000
1001
0000
,  // measure 117
0000
0000
1001
0000
,  // measure 118
0000
0000
0110
0000
,  // measure 119
0000
0000
0110
0000
,  // measure 120
0000
0000
1001
0000
,  // measure 121
0000
0000
1001
0000
,  // measure 122
0000
0000
0110
0000
,  // measure 123
0000
0000
2000
0000
,  // measure 124
0000
0000
0000
0002
,  // measure 125
0000
0000
0000
0000
,  // measure 126
0000
0000
3003
0000
;

//---------------dance-single - ESP - 12---------------
#NOTEDATA:;
#CHARTNAME:;
#CHARTSTYLE:Pad;
#CREDIT:Wrland Simfiles;
#STEPSTYPE:dance-single;
#DESCRIPTION:ESP - 12;
#DIFFICULTY:Hard;
#METER:12;
#METERF:12;
#RADARVALUES:0,0,0,0,0;
#NOTES:
// measure 0
0000
0000
0000
0000
,  // measure 1
0000
0000
0000
0000
,  // measure 2
0000
0000
0000
0000
,  // measure 3
0000
0000
0000
0000
,  // measure 4
0000
0000
0000
0000
,  // measure 5
0000
0000
0000
0000
,  // measure 6
0000
0000
0000
0000
,  // measure 7
0000
0000
0000
0000
,  // measure 8
0000
0000
0000
0000
,  // measure 9
1000
0010
1000
0000
,  // measure 10
0001
0100
0001
0000
,  // measure 11
1000
0001
1000
0000
,  // measure 12
0001
1000
0001
0000
,  // measure 13
1000
0000
0001
1000
0001
0000
0000
0000
,  // measure 14
0001
0000
1000
0001
1000
0000
0000
0000
,  // measure 15
1000
0010
1000
0100
,  // measure 16
0010
0000
0001
1000
0001
0000
0000
0000
,  // measure 17
1000
0001
1000
0001
0000
0001
1000
0001
,  // measure 18
2000
0000
0002
3003
,  // measure 19
0001
1000
0001
1000
0000
1000
0001
1000
,  // measure 20
0002
0000
2000
3003
,  // measure 21
0001
1000
0010
0100
0000
0010
0100
0010
,  // measure 22
0200
0000
0020
0330
,  // measure 23
0100
0010
0100
0010
0000
1000
0001
1000
,  // measure 24
0002
0000
2000
3003
,  // measure 25
1000
0001
1000
0001
0000
0001
1000
0001
,  // measure 26
1000
0000
1001
0000
,  // measure 27
0001
1000
0001
1000
0000
1000
0001
1000
,  // measure 28
0001
0000
1001
0000
,  // measure 29
1000
1000
0001
0001
0000
0100
0100
0010
,  // measure 30
0010
0000
0110
0000
,  // measure 31
0001
0001
1000
1000
0000
0010
0010
0100
,  // measure 32
0100
0000
0200
0000
,  // measure 33
0020
0000
0000
0000
,  // measure 34
0330
0000
0000
0000
,  // measure 35
0000
0000
0000
0000
,  // measure 36
0000
0000
0000
0000
,  // measure 37
0000
0000
0000
0000
0000
0000
0000
0000
0000
0000
0000
0000
0000
0000
0000
1000
,  // measure 38
1000
0000
0001
0001
0000
1000
0010
0100
0000
0001
1000
0000
0000
0000
0000
0001
,  // measure 39
0001
0000
1000
1000
0000
0001
0100
0010
0000
1000
0001
0000
0000
0000
0000
0000
,  // measure 40
2000
0000
0000
0000
3000
0000
0000
0000
0001
0000
0000
1000
0000
0000
0001
0000
2000
0000
0000
0000
3000
0000
0000
0000
0010
0000
0000
0100
0000
0000
0010
0000
,  // measure 41
2000
0000
3000
0001
2000
0000
0000
0000
0000
0000
0000
0000
3000
0000
0000
0000
,  // measure 42
0002
0000
0000
0000
,  // measure 43
1003
0000
0000
0000
,  // measure 44
2000
0000
0000
0000
0000
0000
0000
3001
,  // measure 45
0000
0000
0000
0000
,  // measure 46
1000
0000
0001
0000
1000
0001
1000
0000
,  // measure 47
0001
0000
1000
0000
0001
1000
0001
0000
,  // measure 48
1000
0000
0010
2000
0000
0000
3000
0000
,  // measure 49
0001
0000
0010
0002
0000
0000
0003
0000
,  // measure 50
1000
0000
0100
0000
0010
0001
1000
0000
,  // measure 51
0001
0000
0010
0000
0100
1000
0001
0000
,  // measure 52
1000
0000
0010
0000
0100
0001
2000
0002
,  // measure 53
0000
0000
0000
3003
,  // measure 54
0001
0001
1000
1000
0010
0010
0100
0100
,  // measure 55
0001
1000
0002
0000
2000
0000
0000
3003
,  // measure 56
1000
1000
0001
0001
0100
0100
0010
0010
,  // measure 57
1000
0001
2000
0000
0002
0000
0000
3003
,  // measure 58
1000
1000
1000
0000
0001
0001
0001
0000
,  // measure 59
1000
1000
1000
0000
0010
0010
0010
0000
,  // measure 60
0100
1000
0100
0010
0002
0000
0000
0000
,  // measure 61
2000
0000
0000
3003
,  // measure 62
2000
0000
3000
0001
2000
0000
0000
3000
,  // measure 63
0002
0000
0003
1000
0002
0000
0000
0003
,  // measure 64
1000
0001
1000
0000
0000
1001
0000
0000
,  // measure 65
0001
0000
0000
1001
0000
1000
0000
0001
,  // measure 66
0100
0010
1000
0000
0000
1010
0000
0000
,  // measure 67
0010
0000
0000
1010
0000
1000
0000
0010
,  // measure 68
0100
0001
1000
0000
0000
1001
0000
0000
,  // measure 69
0001
0000
0000
1001
0000
1000
0000
0001
,  // measure 70
0100
0010
1000
0000
0000
1001
0000
0000
,  // measure 71
0001
0000
0000
1001
0000
1000
1001
0000
,  // measure 72
1000
0001
1000
0010
0100
0001
1000
0000
,  // measure 73
0001
1000
0001
0100
0010
1000
0001
0000
,  // measure 74
1000
0001
1000
0010
0100
0001
1000
0000
,  // measure 75
0001
1000
0001
0100
0010
1000
0001
0000
,  // measure 76
0010
0100
1000
0001
1000
0001
0100
0000
,  // measure 77
0001
1000
0010
0100
0001
1000
0010
0000
,  // measure 78
1000
1001
0000
0001
1001
0000
1000
1001
,  // measure 79
0000
1000
0002
0000
2000
0000
0000
0000
,  // measure 80
3003
0000
0000
0000
,  // measure 81
0000
0000
0000
1001
,  // measure 82
1000
0000
0010
2000
0000
0000
3000
0000
,  // measure 83
0100
0000
0010
0002
0000
0000
0003
0000
,  // measure 84
1000
0000
0100
0000
0010
0001
1000
0000
,  // measure 85
0001
0000
0010
0000
0100
1000
0001
0000
,  // measure 86
1000
0000
0010
0000
0100
0001
2000
0002
,  // measure 87
0000
0000
0000
3003
,  // measure 88
1000
1000
0001
0001
0100
0100
0010
0010
,  // measure 89
1000
0001
2000
0000
0002
0000
0000
3003
,  // measure 90
0001
0001
1000
1000
0010
0010
0100
0100
,  // measure 91
0001
1000
0002
0000
2000
0000
0000
3003
,  // measure 92
1000
1000
1000
0000
0001
0001
0001
0000
,  // measure 93
1000
1000
1000
0000
0010
0010
0010
0000
,  // measure 94
1000
0001
0010
0100
1000
0001
1000
0001
,  // measure 95
2000
0000
0000
0000
0000
0000
0000
0000
0001
0000
0000
0001
0000
0000
3001
0000
,  // measure 96
0002
0000
0000
0000
0003
1000
0010
0200
,  // measure 97
0000
0000
0000
0300
,  // measure 98
0002
0000
0000
0003
,  // measure 99
2000
0000
0002
0000
,  // measure 100
3003
0000
1000
0001
,  // measure 101
0100
0001
0010
0000
0001
0000
1000
0000
,  // measure 102
0010
1000
0100
0000
0010
0000
0100
0000
,  // measure 103
1000
0100
0010
0000
0100
0000
0010
0000
,  // measure 104
0001
0010
0100
0000
1000
0001
1000
0000
,  // measure 105
0001
1000
0001
0000
0010
0100
0010
0000
,  // measure 106
0100
0010
0100
0000
1000
0001
0100
0000
,  // measure 107
0100
0001
1000
1001
0000
1010
0000
0110
,  // measure 108
0000
2000
0002
3003
1000
1000
0001
0001
,  // measure 109
0100
0100
0010
0010
1000
0001
2000
0000
,  // measure 110
0002
0000
0000
3003
0001
0001
1000
1000
,  // measure 111
0010
0010
0100
0100
0001
1000
0002
0000
,  // measure 112
2000
0000
0000
3003
0001
1000
0001
0000
,  // measure 113
1000
0001
1000
0000
0010
0100
0001
0000
,  // measure 114
1000
0010
0100
0000
0001
1000
0010
0000
,  // measure 115
0010
0100
0001
0000
2000
0000
0000
0000
,  // measure 116
0000
0000
3001
0000
1000
0001
1000
0001
,  // measure 117
0000
0001
1000
0001
2000
0000
0000
0000
,  // measure 118
0002
0000
3003
0000
0001
1000
0001
1000
,  // measure 119
0000
1000
0001
1000
0002
0000
0000
0000
,  // measure 120
2000
0000
3003
0000
0001
1000
0010
0100
,  // measure 121
0000
0010
0100
0010
0200
0000
0000
0000
,  // measure 122
0020
0000
0330
0000
0100
0010
0100
0010
,  // measure 123
0000
1000
0001
1000
0002
0000
0003
1000
,  // measure 124
0001
1000
0001
2000
0000
0000
0002
0000
,  // measure 125
0000
0000
0000
0000
,  // measure 126
0000
0000
3003
0000
;

//---------------dance-single - CSP - 14---------------
#NOTEDATA:;
#CHARTNAME:;
#CHARTSTYLE:Pad;
#CREDIT:Wrland Simfiles;
#STEPSTYPE:dance-single;
#DESCRIPTION:CSP - 14;
#DIFFICULTY:Challenge;
#METER:14;
#METERF:14;
#RADARVALUES:0,0,0,0,0;
#NOTES:
// measure 0
0000
0000
0000
0000
,  // measure 1
0000
0000
0000
0000
,  // measure 2
0000
0000
0000
0000
,  // measure 3
0000
0000
0000
0000
,  // measure 4
0000
0000
0000
0000
,  // measure 5
0000
0000
0000
0000
,  // measure 6
0000
0000
0000
0000
,  // measure 7
0000
0000
0000
0000
,  // measure 8
0000
0000
0000
0000
,  // measure 9
2000
0000
0000
3000
,  // measure 10
0002
0000
0000
0003
0020
0000
0000
0030
,  // measure 11
0200
0000
0000
0000
0000
0000
0000
0300
,  // measure 12
2000
0000
0000
0000
0000
0000
0000
3000
,  // measure 13
0002
0000
0000
0000
0000
0000
0000
0003
,  // measure 14
0200
0000
0000
0300
0020
0000
0000
0030
,  // measure 15
2000
0000
0000
0000
,  // measure 16
0002
0000
0000
3003
,  // measure 17
1000
0001
1000
0001
0000
1000
0010
0100
,  // measure 18
0002
0000
0003
1000
0001
1000
0001
0000
,  // measure 19
1000
0010
0100
0010
0000
0100
0001
1000
,  // measure 20
0020
0000
0030
0100
0010
0100
0010
0000
,  // measure 21
1000
0001
1000
0001
0000
0100
0010
1000
,  // measure 22
0002
0000
0003
1000
0001
1000
0001
0000
,  // measure 23
1000
0010
1000
0010
0000
0100
0001
0100
,  // measure 24
0002
0000
0003
0100
0001
1000
1001
0000
,  // measure 25
1000
0010
1000
0010
1000
0001
0100
0001
,  // measure 26
2000
0000
3000
0001
1000
0001
1000
0000
,  // measure 27
0001
0100
0001
0100
0001
1000
0010
1000
,  // measure 28
0002
0000
0003
1000
0001
1000
0001
0000
,  // measure 29
1000
0010
0100
0001
1000
0010
0100
0001
,  // measure 30
2000
0000
3000
0001
1000
0010
0100
0000
,  // measure 31
0001
1000
0010
0100
0001
1000
0100
0010
,  // measure 32
0002
0000
0003
1000
0001
1000
0002
0000
,  // measure 33
2000
0000
0000
0000
,  // measure 34
3003
0000
0000
0000
,  // measure 35
0000
0000
0000
0000
,  // measure 36
0000
0000
0000
0000
,  // measure 37
0000
0000
0000
0000
0000
0000
0000
0000
0000
0000
0000
0000
0000
0000
0000
1000
,  // measure 38
0010
0000
1000
0001
0000
0100
0010
1000
0000
0001
2000
0000
3001
0000
0000
0001
,  // measure 39
0100
0000
0001
1000
0000
0010
0100
0001
0000
1000
0002
0000
1003
0000
0000
0000
,  // measure 40
2000
3001
0002
1003
,  // measure 41
2000
3010
0200
0301
,  // measure 42
1000
0010
1000
0010
1010
0000
0000
0000
,  // measure 43
0001
0100
0001
0100
0101
0000
0000
0000
,  // measure 44
1000
0010
0100
0001
0010
0100
1000
0010
0100
0001
0010
0100
1000
0001
1001
0000
,  // measure 45
0000
0001
1001
0000
1000
0010
0100
0001
,  // measure 46
0010
0000
0100
1000
0000
0010
1000
1010
,  // measure 47
0000
1001
0000
0101
0000
1010
0000
1000
,  // measure 48
0001
0000
1000
0002
0000
0000
0003
0000
,  // measure 49
1000
0000
0001
1000
0001
0010
0100
1000
,  // measure 50
0002
1003
2000
3001
,  // measure 51
0020
0130
2000
3010
,  // measure 52
0200
0000
0301
2000
0000
3001
1000
1001
,  // measure 53
0000
1010
0000
0110
0000
0011
1001
0001
,  // measure 54
1000
0001
1000
0010
0000
0100
0001
1000
,  // measure 55
0000
0000
0010
0000
2000
0000
0000
0000
0001
0000
0000
0001
0000
0000
3001
0000
,  // measure 56
0001
1000
0001
0100
0000
0010
1000
0001
,  // measure 57
0000
0000
0100
0000
0002
0000
0000
0000
1000
0000
0000
1000
0000
0000
1003
0000
,  // measure 58
1000
0010
0100
0001
1000
0000
1001
0000
,  // measure 59
1000
0001
1000
0010
0100
0000
1001
0000
,  // measure 60
1000
0010
0100
0000
0001
0100
0010
0000
,  // measure 61
1010
0000
0000
0000
0101
0000
0000
0000
2000
0000
0000
0010
0000
0000
0010
0000
,  // measure 62
3020
0000
0030
0100
1002
0000
0003
0000
,  // measure 63
2000
0000
3000
0010
2000
0000
3001
0000
,  // measure 64
1000
0001
1000
0000
0000
1001
0000
0000
,  // measure 65
0001
0000
0000
1001
0000
1000
0000
0010
,  // measure 66
0100
0001
1000
0000
0000
1010
0000
0000
,  // measure 67
0010
0000
0000
1010
0000
1000
0000
0001
,  // measure 68
0100
0010
1000
0000
0000
1001
0000
0000
,  // measure 69
0001
0000
0000
1001
0000
1000
0000
0010
,  // measure 70
0100
0001
0100
0000
0000
0101
0000
0000
,  // measure 71
0001
0000
0000
0101
0000
0100
0010
1000
,  // measure 72
0001
1000
0001
0000
1000
0010
1000
0000
,  // measure 73
0100
0001
0100
0000
1000
0100
1000
0000
,  // measure 74
0010
0100
0010
0000
1000
0010
1000
0000
,  // measure 75
0001
0100
0001
0000
0010
0100
1000
0000
,  // measure 76
1000
0100
0010
0000
0001
0010
0100
0000
,  // measure 77
1000
0001
1000
0000
0100
0010
0100
0000
,  // measure 78
1000
1001
0000
0001
1001
0000
1000
0110
,  // measure 79
0000
0001
0110
0000
2000
0000
3001
0000
,  // measure 80
0000
0000
0000
0000
,  // measure 81
0000
0000
0000
0000
0000
1000
1001
0000
,  // measure 82
0001
0000
1000
0002
0000
0000
0003
0000
,  // measure 83
1000
0000
0001
1000
0001
0010
0100
1000
,  // measure 84
0002
1003
2000
3001
,  // measure 85
0020
0130
2000
3010
,  // measure 86
0200
0000
0301
2000
0000
3001
1000
1001
,  // measure 87
0000
1010
0000
0110
0000
0011
1001
0001
,  // measure 88
1000
0001
1000
0010
0000
0100
0001
1000
,  // measure 89
0000
0000
0010
0000
2000
0000
0000
0000
0001
0000
0000
0001
0000
0000
3001
0000
,  // measure 90
0001
1000
0001
0100
0000
0010
1000
0001
,  // measure 91
0000
0000
0100
0000
0002
0000
0000
0000
1000
0000
0000
1000
0000
0000
1003
0000
,  // measure 92
1000
0010
0100
0001
1000
0000
1001
0000
,  // measure 93
1000
0001
1000
0010
0100
0000
1001
0000
,  // measure 94
0002
0000
0003
1000
0002
0000
0000
0000
,  // measure 95
1003
0000
0000
0000
0000
0000
0000
0000
1100
0000
0000
0011
0000
0000
1100
0000
,  // measure 96
2000
0000
0000
0000
3000
0001
1000
0002
,  // measure 97
0000
0000
0000
0003
,  // measure 98
0200
0000
0000
0000
0000
0300
0010
0100
,  // measure 99
0110
0000
0000
0101
0000
0000
1010
0000
0110
0000
0000
0101
0000
0000
2002
0000
,  // measure 100
0000
0000
0000
0000
0000
0000
0000
3003
1000
0000
0010
0000
0100
0000
0001
0000
,  // measure 101
1000
0001
1000
0010
0200
0000
0000
0000
,  // measure 102
0020
0000
0330
0000
1000
0001
0100
0001
,  // measure 103
1000
0100
0010
0001
2000
0000
0000
0000
,  // measure 104
0002
0000
3003
0000
1000
0010
0100
0001
,  // measure 105
2000
0000
3100
0000
0010
0001
1000
0100
,  // measure 106
0020
0000
0031
0000
0001
1000
0100
0010
,  // measure 107
0001
1000
0001
2000
0000
3001
0000
0002
,  // measure 108
0000
1003
0001
1000
0001
0001
1000
0010
,  // measure 109
0000
0100
0001
1000
0000
0010
2000
0000
,  // measure 110
0001
0000
0000
0001
0000
0000
3001
0000
0001
0000
1000
0000
0001
0000
0100
0000
,  // measure 111
0000
0010
1000
0001
0000
0100
0002
0000
,  // measure 112
1000
0000
0000
1000
0000
0000
1003
0000
1000
0000
0010
0000
0100
0000
0001
0000
,  // measure 113
1000
0000
1001
0000
1000
0001
1000
0010
,  // measure 114
0100
0000
1001
0000
1000
0010
0100
0000
,  // measure 115
0001
0100
0010
0000
2000
0000
0000
0000
,  // measure 116
0000
0000
3001
0000
1000
0010
1000
0010
,  // measure 117
1000
0001
0100
0001
2000
0000
3000
0001
,  // measure 118
1000
0001
1000
0000
0001
0100
0001
0100
,  // measure 119
0001
1000
0010
1000
0002
0000
0003
1000
,  // measure 120
0001
1000
0001
0000
0001
0100
0010
1000
,  // measure 121
0001
0100
0010
1000
0002
0000
0003
1000
,  // measure 122
0001
0100
0010
0000
1000
0001
0100
0010
,  // measure 123
1000
0001
0010
0100
2000
0000
3000
0001
,  // measure 124
1000
0001
2000
0000
0000
0000
0002
0000
,  // measure 125
0000
0000
0000
0000
,  // measure 126
0000
0000
3003
0000
;
