#TITLE:Grande Valse Brillante;
#SUBTITLE:;
#ARTIST:Z.AL & Cashew;
#TITLETRANSLIT:;
#SUBTITLETRANSLIT:;
#ARTISTTRANSLIT:;
#GENRE:Classical;
#CREDIT:Wrland;
#MUSIC:Grande Valse Brillante.ogg;
#BANNER:Grande Valse Brillante.png;
#BACKGROUND:Grande Valse Brillante-bg.png;
#CDTITLE:Wrland Season 4 bergtour.png;
#SAMPLESTART:97.532074;
#SAMPLELENGTH:15.000000;
#SELECTABLE:YES;
#OFFSET:0.000000;
#BPMS:0.000000=242.997000;
#STOPS:;
#DISPLAYBPM:242.000000;
#JACKET:Grande Valse Brillante-jacket.png;
#DISCIMAGE:;
#CDIMAGE:;
#TAGS:DMCA;
#BGCHANGES:;
#FGCHANGES:;

//--------------- dance-single - bSP - 1 ----------------
#NOTES:
     dance-single:
     bSP - 1:
     Beginner:
     1:
     0,0,0,0,0:
0000
0000
0000
0000
,
0000
0000
0000
0000
,
0000
0000
0000
0000
,
1000
0000
0000
0000
,
0000
0000
0000
0000
,
0000
0000
0000
0000
,
1000
0000
0000
0000
,
0000
0000
0000
0000
,
0000
0000
0000
0000
,
0001
0000
0000
0000
,
0000
0000
0000
0000
,
0000
0000
0000
0000
,
0001
0000
0000
0000
,
0000
0000
0000
0000
,
0000
0000
0000
0000
,
1000
0000
0000
0000
,
0000
0000
0000
0000
,
0000
0000
0000
0000
,
0001
0000
0000
0000
,
0000
0000
0000
0000
,
0000
0000
0000
0000
,
1000
0000
0000
0000
,
0000
0000
0000
0000
,
0000
0000
0000
0000
,
0001
0000
0000
0000
,
0000
0000
0000
0000
,
0000
0000
0000
0000
,
0100
0000
0000
0000
,
0000
0000
0000
0000
,
0000
0000
0000
0000
,
0010
0000
0000
0000
,
0000
0000
0000
0000
,
0000
0000
0000
0000
,
0100
0000
0000
0000
,
0000
0000
0000
0000
,
0000
0000
0000
0000
,
0001
0000
0000
0000
,
0000
0000
0000
0000
,
0000
0000
0000
0000
,
1000
0000
0000
0000
,
0000
0000
0000
0000
,
0000
0000
0000
0000
,
1000
0000
0000
0000
,
0000
0000
0000
0000
,
0000
0000
0000
0000
,
0001
0000
0000
0000
,
0000
0000
0000
0000
,
0000
0000
0000
0000
,
0001
0000
0000
0000
,
0000
0000
0000
0000
,
0000
0000
0000
0000
,
0010
0000
0000
0000
,
0000
0000
0000
0000
,
0000
0000
0000
0000
,
0100
0000
0000
0000
,
0000
0000
0000
0000
,
0000
0000
0000
0000
,
0010
0000
0000
0000
,
0000
0000
0000
0000
,
0000
0000
0000
0000
,
1000
0000
0000
0000
,
0000
0000
0000
0000
,
0000
0000
0000
0000
,
0002
0000
0000
0000
,
0000
0000
0000
0000
,
0000
0000
0000
0000
,
0003
0000
0000
0000
,
0000
0000
0000
0000
,
0000
0000
0000
0000
,
2000
0000
0000
0000
,
0000
0000
0000
0000
,
0000
0000
0000
0000
,
3000
0000
0000
0000
,
0000
0000
0000
0000
,
0000
0000
0000
0000
,
0002
0000
0000
0000
,
0000
0000
0000
0000
,
0000
0000
0000
0000
,
0003
0000
0000
0000
,
0000
0000
0000
0000
,
0000
0000
0000
0000
,
2002
0000
0000
0000
,
0000
0000
0000
0000
,
0000
0000
0000
0000
,
3003
0000
0000
0000
,
0000
0000
0000
0000
,
0000
0000
0000
0000
,
1000
0000
1000
0000
,
1000
0000
0000
0000
,
0000
0000
0000
0000
,
0001
0000
0001
0000
,
0001
0000
0000
0000
,
0000
0000
0000
0000
,
1000
0000
1000
0000
,
1000
0000
0000
0000
,
0000
0000
0000
0000
,
0001
0000
0001
0000
,
0001
0000
0000
0000
,
0000
0000
0000
0000
,
1000
0000
0000
0000
,
0000
0000
0000
0000
,
0000
0000
0000
0000
,
1000
0000
0000
0000
,
0000
0000
0000
0000
,
0000
0000
0000
0000
,
0001
0000
0000
0000
,
0000
0000
0000
0000
,
0000
0000
0000
0000
,
0001
0000
0000
0000
,
0000
0000
0000
0000
,
0000
0000
0000
0000
,
1000
0000
0000
0000
,
0000
0000
0000
0000
,
0000
0000
0000
0000
,
0001
0000
0000
0000
,
0000
0000
0000
0000
,
0000
0000
0000
0000
,
1000
0000
0000
0000
,
0000
0000
0000
0000
,
0000
0000
0000
0000
,
0001
0000
0000
0000
;

//--------------- dance-single - BSP - 5 ----------------
#NOTES:
     dance-single:
     BSP - 5:
     Easy:
     5:
     0,0,0,0,0:
0000
0000
0000
0000
,
0000
0000
0000
0000
,
0000
0000
0000
0000
,
1000
0000
0000
0000
,
0000
0000
1000
0000
,
0000
2000
0000
3000
,
0001
0000
0000
0000
,
0000
0000
0001
0000
,
0000
0002
0000
0003
,
1000
0000
0000
0000
,
0000
0000
1000
0000
,
0000
2000
0000
3000
,
0001
0000
0000
0000
,
0000
0000
0001
0000
,
0000
0002
0000
0003
,
0100
0000
0000
0000
,
0000
0000
0100
0000
,
0000
0200
0000
0300
,
0010
0000
0000
0000
,
0000
0000
0010
0000
,
0000
0020
0000
0030
,
1000
0000
0000
0000
,
0000
0000
0001
0000
,
0000
2000
0000
3000
,
0001
0000
0000
0000
,
0000
0000
1000
0000
,
0000
0002
0000
0003
,
1000
0000
0000
0000
,
0000
0000
0001
0000
,
0000
0000
0000
0000
,
1000
0000
0000
0000
,
0000
0000
0100
0000
,
0000
0000
0000
0000
,
0010
0000
0000
0000
,
0000
0000
0001
0000
,
0000
0000
0000
0000
,
1000
0000
0000
0000
,
0000
0000
0001
0000
,
0000
0000
0000
0000
,
1000
0000
0000
0000
,
0000
0000
1000
0000
,
0000
2000
0000
3000
,
0001
0000
0000
0000
,
0000
0000
0001
0000
,
0000
0002
0000
0003
,
1000
0000
0000
0000
,
0000
0000
0001
0000
,
0000
2000
0000
3000
,
0001
0000
0000
0000
,
0000
0000
1000
0000
,
0000
0002
0000
0003
,
1000
0000
0000
0000
,
0000
0000
0001
0000
,
0000
0000
0000
0000
,
1000
0000
0000
0000
,
0000
0000
0010
0000
,
0000
0000
0000
0000
,
0100
0000
0000
0000
,
0000
0000
0001
0000
,
0000
0000
0000
0000
,
1000
0000
0000
0000
,
0000
0000
0001
0000
,
0000
0000
0000
0000
,
0002
0000
0000
0000
,
0000
0000
0000
0000
,
0000
0000
0000
0000
,
0003
0000
0000
0000
,
0000
0000
0000
0000
,
0000
0000
0000
0000
,
2000
0000
0000
0000
,
0000
0000
0000
0000
,
0000
0000
0000
0000
,
3000
0000
0000
0000
,
0000
0000
0000
0000
,
0000
0000
0000
0000
,
0002
0000
0000
0000
,
0000
0000
0000
0000
,
0000
0000
0000
0000
,
0003
0000
0000
0000
,
0000
0000
0000
0000
,
0000
0000
0000
0000
,
2002
0000
0000
0000
,
0000
0000
0000
0000
,
0000
0000
0000
0000
,
3003
0000
0000
0000
,
0000
0000
0000
0000
,
0000
0000
0000
0000
,
1000
0000
1000
0000
,
1000
0000
0000
0000
,
0000
0000
0000
0000
,
0001
0000
0001
0000
,
0001
0000
0000
0000
,
0000
0000
0000
0000
,
1000
0000
1000
0000
,
1000
0000
0000
0000
,
0000
0000
0000
0000
,
0001
0000
0001
0000
,
0001
0000
0000
0000
,
0000
0000
0000
0000
,
1000
0000
0000
0000
,
0000
0000
1000
0000
,
0000
2000
0000
3000
,
0001
0000
0000
0000
,
0000
0000
0001
0000
,
0000
0002
0000
0003
,
1000
0000
0000
0000
,
0000
0000
1000
0000
,
0000
2000
0000
3000
,
0001
0000
0000
0000
,
0000
0000
0001
0000
,
0000
0002
0000
0003
,
0100
0000
0000
0000
,
0000
0000
0100
0000
,
0000
0200
0000
0300
,
0010
0000
0000
0000
,
0000
0000
0010
0000
,
0000
0020
0000
0030
,
1000
0000
0000
0000
,
0000
0000
0001
0000
,
0000
2000
0000
3000
,
0001
0000
0000
0000
,
0000
0000
1000
0000
,
0000
0000
1001
0000
;

//--------------- dance-single - DSP - 9 ----------------
#NOTES:
     dance-single:
     DSP - 9:
     Medium:
     9:
     0,0,0,0,0:
0000
0000
0000
0000
,
0000
0000
0000
0000
,
0000
0000
0000
0000
,
1000
0000
1000
0100
,
0000
0100
0010
0000
,
0001
0200
0000
0300
,
0010
0000
0010
1000
,
0000
1000
0100
0000
,
0010
0002
0000
0003
,
1000
0000
1000
0100
,
0000
0100
0010
0000
,
0001
0000
1000
0000
0001
0000
0001
1000
,
0001
0000
0001
1000
,
0000
1000
0010
0000
,
0100
0001
0000
0000
,
1000
0000
1000
0100
,
0000
0100
0010
0000
,
0001
0200
0000
0300
,
0010
0000
0010
1000
,
0000
1000
0100
0000
,
0010
0002
0000
0003
,
1000
0000
1000
0100
,
0000
0100
0010
0000
,
0001
0000
1000
0000
0001
0000
0001
1000
,
0001
0000
0001
1000
,
0000
1000
0010
0000
,
0100
1001
0000
0000
,
1000
0001
1000
0001
1000
0000
1001
0000
,
0000
0000
0000
0000
0001
1000
0001
1000
,
0001
1001
0000
0000
,
1000
0001
1000
0001
1000
0000
1001
0000
,
0000
0000
0000
0000
0001
1000
0001
1000
,
0001
1001
0000
0000
,
0010
0100
0010
0100
0010
0000
0110
0000
,
0000
0000
0000
0000
0100
0010
0100
0010
,
0100
0110
0000
0000
,
0010
0100
0010
0100
0010
0000
0110
0000
,
0000
0000
0000
0000
0100
0010
0100
0010
,
0100
0110
0000
0000
,
1000
0000
1000
0100
,
0000
0100
0010
0000
,
0001
0200
0000
0300
,
0010
0000
0010
1000
,
0000
1000
0100
0000
,
0010
0002
0000
0003
,
1000
1000
0001
1000
0001
0000
0001
0001
,
1000
0001
1000
0000
1000
1000
0001
1000
,
0001
0000
1000
0000
0001
0000
0001
1000
,
0001
0000
0001
1000
,
0000
1000
0010
0000
,
0100
1001
0000
0000
,
1000
0010
1000
0010
1000
0000
1010
0000
,
0000
0000
0000
0000
0100
0001
0100
0001
,
0100
0101
0000
0000
,
0001
0010
0001
0010
0001
0000
0011
0000
,
0000
0000
0000
0000
1000
0100
1000
0100
,
1000
1100
0000
0000
,
1000
1000
0001
0001
1000
0000
1001
0000
,
0000
0000
0000
0000
0001
0001
1000
1000
,
0001
1001
0000
0000
,
1000
1000
0010
0010
1000
0000
1010
0000
,
0000
0000
0000
0000
0100
0100
0001
0001
,
0100
0101
0000
1000
,
0020
0000
1030
0010
,
0000
0000
0200
0000
,
0301
0100
0000
0000
,
0002
0000
0013
0001
,
0000
0000
1000
0001
,
0100
1001
0000
0000
,
2000
0000
0000
3000
0010
0000
1000
0000
,
0000
0000
0000
0000
2000
0000
0000
3000
,
0001
1000
0000
0000
,
0001
0000
0000
1000
0002
0000
0000
0000
,
0003
1000
0200
0000
0300
0000
0010
0100
,
1000
1001
0000
1000
,
0020
0000
1030
0010
,
0000
0000
0200
0000
,
0301
0100
0000
0000
,
0002
0000
0013
0001
,
0000
0000
1000
0001
,
0100
1001
0000
0000
,
2000
0000
0000
3000
0010
0000
1000
0000
,
0000
0000
0000
0000
2000
0000
0000
3000
,
0001
1000
0000
0000
,
0001
0000
0000
1000
0002
0000
0000
0000
,
0003
1000
0200
0000
0300
0000
0010
0100
,
1000
1001
0000
0000
,
1001
0000
1001
0000
,
1001
0000
1000
0001
,
1000
0000
0001
0010
0100
0000
1000
0000
,
1010
0000
1010
0000
,
1010
0000
1000
0010
,
0100
0000
0001
0100
0001
0000
0100
0000
,
0101
0000
0101
0000
,
0101
0000
0100
0001
,
0010
0000
0001
0010
0001
0000
1000
0000
,
1001
0000
0110
0000
,
1001
0000
0000
0000
1000
0010
0100
0001
,
1000
0000
0001
0100
0010
1000
0001
0000
,
1000
0000
1000
0100
,
0000
0100
0010
0000
,
0001
0200
0000
0300
,
0010
0000
0010
1000
,
0000
1000
0100
0000
,
0010
0002
0000
0003
,
1000
0000
1000
0100
,
0000
0100
0010
0000
,
0001
0000
1000
0000
0001
0000
0001
1000
,
0001
0000
0001
1000
,
0000
1000
0010
0000
,
0100
0001
0000
0000
,
1000
0001
1000
0000
,
0010
0100
0000
0001
,
1000
0200
0000
0300
,
0010
0000
0010
1000
,
0000
1000
0100
0000
,
0010
0002
0000
0003
,
1000
0001
1000
0000
,
0010
0100
0000
0001
,
1000
0000
1000
0000
0001
0000
0001
1000
,
0001
1000
0001
0000
,
0001
1000
0000
1000
,
0001
1000
2002
0000
,
0000
0000
0000
0000
,
3003
0000
0000
0000
;

//--------------- dance-single - ESP - 13 ----------------
#NOTES:
     dance-single:
     ESP - 13:
     Hard:
     13:
     0,0,0,0,0:
0000
0000
0000
0000
,
0000
0000
0000
0000
,
0000
0000
0000
0000
,
1000
0000
0001
1000
0001
0000
1000
0000
,
0010
1000
0010
0000
0100
0000
0001
0100
,
0001
2000
0000
3001
,
1000
0010
0100
0001
1000
0000
0000
0010
,
0100
0001
1000
0000
0000
0010
0100
0001
,
1000
0000
0000
0010
0100
0001
1000
0000
,
0001
0000
1000
0001
1000
0000
0001
0000
,
0100
0001
0100
0000
0010
0000
1000
0010
,
1000
0002
0000
1003
,
0001
0100
0010
1000
0001
0000
0000
0100
,
0010
1000
0001
0000
0000
0100
0010
1000
,
0001
0000
1001
0000
0001
0001
1000
1000
,
1000
0000
0001
1000
0001
0000
1000
0000
,
0010
1000
0010
0000
0100
0000
0001
0100
,
0001
2000
0000
3001
,
1000
0010
0100
0001
1000
0000
0000
0010
,
0100
0001
1000
0000
0000
0010
0100
0001
,
1000
0000
0000
0010
0100
0001
1000
0000
,
0001
0000
1000
0001
1000
0000
0001
0000
,
0100
0001
0100
0000
0010
0000
1000
0010
,
1000
0002
0000
1003
,
0001
0100
0010
1000
0001
0000
0000
0100
,
0010
1000
0001
0000
0000
0100
0010
1000
,
0001
0000
1001
0000
1000
1000
0001
0001
,
1000
0010
0100
0010
0100
0000
0110
0000
,
0010
1000
0100
0010
0001
1000
0001
1000
,
0001
0000
1001
0000
1000
0100
0010
0100
,
0010
0001
0010
0001
0010
0000
0011
0000
,
0001
1000
0001
0000
1000
0000
0010
0100
,
0010
1000
0001
0100
,
0010
0100
0010
0100
0010
0000
0110
0000
,
0010
1000
0001
1000
0001
1000
0001
1000
,
0001
0000
1001
0000
1000
0010
0100
0001
,
1000
0010
0100
0001
1000
0000
1001
0000
,
0001
0010
0100
0000
1000
0000
0001
1000
,
0001
2000
0000
3001
,
1000
0000
0001
1000
0001
0000
1000
0000
,
0010
1000
0010
0000
0100
0000
0001
0100
,
0001
2000
0000
3001
,
1000
0010
0100
0001
1000
0000
0000
0010
,
0100
0001
1000
0000
0000
0010
0100
0001
,
1000
0000
0000
0010
0100
0001
1000
0000
,
0000
0001
1000
0001
1000
0000
0000
1000
,
0001
1000
0001
0000
0000
0001
1000
0001
,
1000
0002
0000
1003
,
0001
0100
0010
1000
0001
0000
0000
0100
,
0010
1000
0001
0000
0000
0100
0010
1000
,
0001
0000
1001
0000
0001
1000
0001
0100
,
0010
0100
0010
0100
0010
0000
0110
0000
,
0010
1000
0001
1000
0001
1000
0001
1000
,
0001
0000
1001
0000
1000
0010
0100
0001
,
1000
0010
0100
0001
1000
0000
1001
0000
,
0001
0010
0100
0000
1000
0000
0001
1000
,
0001
1000
0001
1000
,
0001
0100
0010
0100
0010
0000
0110
0000
,
1000
0001
0010
0100
1000
0001
1000
0001
,
1000
0000
1001
0000
0001
0010
0100
0010
,
0100
1000
0100
1000
0100
0000
1100
0000
,
1000
0001
1000
0000
0001
0000
0100
0010
,
0100
0020
0000
1030
,
2000
0000
0000
3000
0001
0000
1000
0000
,
0001
1000
0001
0000
0002
0000
0000
0003
,
1000
0000
0001
0000
1000
0001
0010
0000
,
0200
0000
0000
0300
0010
0000
0100
0000
,
0010
0100
0010
0000
0001
0000
1000
0000
,
0001
1001
0000
0001
,
0002
0000
0000
0003
1000
0000
0001
0000
,
1000
0001
1000
0000
2000
0000
0000
3000
,
0001
0000
1000
0000
0001
1000
0100
0000
,
0010
0000
0000
0001
1000
0000
0000
0000
,
0000
0001
1000
0000
0000
0000
1000
0001
,
1000
0000
0001
0000
0001
0001
1000
0000
,
2000
0000
0000
3000
0001
0000
1000
0000
,
0001
1000
0001
0000
0002
0000
0000
0003
,
1000
0000
0001
0000
1000
0001
0010
0000
,
0200
0000
0000
0300
0010
0000
0100
0000
,
0010
0100
0010
0000
0001
0000
1000
0000
,
0001
0000
1001
0000
0001
1000
0001
0000
,
0002
0000
0000
0003
1000
0000
0001
0000
,
1000
0001
1000
0000
2000
0000
0000
3000
,
0001
0000
1000
0000
0001
1000
0100
0000
,
0010
0000
0000
0001
1000
0000
0000
0000
,
0000
0001
1000
0000
0000
0000
1000
0001
,
1000
0001
0000
0000
,
1001
1001
1010
1010
,
1001
0000
1001
0000
1000
0001
1000
0001
,
1000
0000
0010
0000
0100
0001
0100
0000
,
1001
1001
0101
0101
,
1001
0000
1001
0000
0001
1000
0001
1000
,
0001
1000
0010
0100
0001
1000
0010
1000
,
1001
1001
1010
1010
,
1001
0000
1001
0000
1000
0001
1000
0001
,
1000
0000
0010
0000
0100
0001
0100
0000
,
1001
1001
0101
0101
,
1001
0000
1001
0000
0001
1000
0001
1000
,
0001
0000
1000
0010
0100
0001
0010
0100
,
1000
0000
0001
1000
0001
0000
1000
0000
,
0010
1000
0010
0000
0100
0000
0001
0100
,
0001
2000
0000
3001
,
1000
0010
0100
0001
1000
0000
0000
0010
,
0100
0001
1000
0000
0000
0010
0100
0001
,
1000
0000
0000
0010
0100
0001
1000
0000
,
0001
0000
1000
0001
1000
0000
0001
0000
,
0100
0001
0100
0000
0010
0000
1000
0010
,
1000
0002
0000
1003
,
0001
0100
0010
1000
0001
0000
0000
0100
,
0010
1000
0001
0000
0000
0100
0010
1000
,
0001
0000
1001
0000
0001
0001
1000
1000
,
1000
0000
0001
1000
0001
0000
1000
0000
,
0010
1000
0010
0000
0100
0000
0001
0100
,
0001
2000
0000
3001
,
1000
0010
0100
0001
1000
0000
0000
0010
,
0100
0001
1000
0000
0000
0010
0100
0001
,
1000
0000
0000
0010
0100
0001
1000
0000
,
0000
1000
0001
1000
0001
0000
0000
0100
,
0001
0100
0001
0000
0000
1000
0010
1000
,
0010
2000
0000
3001
,
0001
0100
0010
1000
0001
0000
0000
0100
,
0010
1000
0001
0000
0000
0100
0010
1000
,
0001
1001
2002
0000
,
0000
0000
0000
0000
,
3003
0000
0000
0000
;
