#VERSION:0.83;
#TITLE:法界の火 ~ Flame For Puja;
#SUBTITLE:;
#ARTIST:Demetori;
#TITLETRANSLIT:Fires of Hokkai ~ Flame for Puja;
#SUBTITLETRANSLIT:;
#ARTISTTRANSLIT:;
#GENRE:Touhou;
#CREDIT:Wrland Simfiles;
#MUSIC:Fires of Hokkai ~ Flame for Puja.ogg;
#BANNER:Fires of Hokkai ~ Flame for Puja.png;
#BACKGROUND:Fires of Hokkai ~ Flame for Puja-bg.png;
#CDTITLE:Wrland Season 4 bergtour.png;
#SAMPLESTART:34.970000;
#SAMPLELENGTH:15.000000;
#SELECTABLE:YES;
#OFFSET:-19.610000;
#BPMS:0.000000=125.000000;
#STOPS:;
#DISPLAYBPM:125.000000;
#JACKET:Fires of Hokkai ~ Flame for Puja-jacket.png;
#DISCIMAGE:;
#CDIMAGE:;
#TAGS:DMCA;
#BGCHANGES:;
#FGCHANGES:;

//--------------- dance-single - bSP - 1 ----------------
#NOTEDATA:;
#STEPSTYPE:dance-single;
#DESCRIPTION:bSP - 1;
#DIFFICULTY:Beginner;
#METER:1;
#RADARVALUES:0,0,0,0,0;
#CHARTNAME:;
#CHARTSTYLE:Pad;
#CREDIT:Wrland Simfiles;
#METERF:1;
#NOTES:
0000
0000
0000
0000
,
0000
0000
0000
0000
,
0000
0000
0000
0000
,
0000
0000
0000
0000
,
0000
0000
0000
0000
,
0000
0000
0000
0000
,
0000
0000
0000
0000
,
0000
0000
0000
0000
,
2000
0000
0000
0000
,
0000
0000
0000
0000
,
0000
0000
0000
0000
,
3000
0000
0000
0000
,
0002
0000
0000
0000
,
0000
0000
0000
0000
,
0000
0000
0000
0000
,
0003
0000
0000
0000
,
1000
0000
0000
0000
,
0000
0000
0000
0000
,
0010
0000
0000
0000
,
0000
0000
0000
0000
,
1000
0000
0000
0000
,
0000
0000
0000
0000
,
0100
0000
0000
0000
,
0000
0000
0000
0000
,
0010
0000
0000
0000
,
0000
0000
0000
0000
,
0001
0000
0000
0000
,
0000
0000
0000
0000
,
1000
0000
0000
0000
,
0000
0000
0000
0000
,
0001
0000
0000
0000
,
0000
0000
0000
0000
,
0000
0000
0000
0000
,
0000
0000
0000
0000
,
0000
0000
0000
0000
,
0000
0000
0000
0000
,
0000
0000
0000
0000
,
0000
0000
0000
0000
,
0000
0000
0000
0000
,
0000
0000
0000
0000
,
1001
1001
0000
0000
0000
0000
0000
0000
;

//--------------- dance-single - BSP - 3 ----------------
#NOTEDATA:;
#STEPSTYPE:dance-single;
#DESCRIPTION:BSP - 3;
#DIFFICULTY:Easy;
#METER:3;
#RADARVALUES:0,0,0,0,0;
#CHARTNAME:;
#CHARTSTYLE:Pad;
#CREDIT:Wrland Simfiles;
#METERF:3;
#NOTES:
0000
0000
0000
0000
,
0000
0000
0000
0000
,
0000
0000
0000
0000
,
0000
0000
0000
0000
,
0000
0000
0000
0000
,
0000
0000
0000
0000
,
0000
0000
0000
0000
,
0000
0000
0000
0000
,
2000
0000
0000
0000
,
0000
0000
0000
0000
,
3000
0000
0000
0000
,
0002
0003
2000
3000
,
0002
0000
0000
0000
,
0000
0000
0000
0000
,
0003
0000
0000
0000
,
0000
0000
0002
0003
,
1000
0000
0000
0000
,
0001
0000
0000
0000
,
1000
0000
0000
0000
,
0020
0030
0200
0300
,
0001
0000
0000
0000
,
1000
0000
0000
0000
,
0010
0000
0000
0000
,
0100
0000
0002
0003
,
1000
0000
0000
0000
,
0010
0000
0000
0000
,
0100
0000
0000
0000
,
0002
0003
2000
3000
,
0001
0000
0000
0000
,
0010
0000
0000
0000
,
0001
0000
0000
0000
,
1000
0000
0000
0000
,
0000
0000
0000
0000
,
0000
0000
0000
0000
,
0000
0000
0000
0000
,
0000
0000
0000
0000
,
0000
0000
0000
0000
,
0000
0000
0000
0000
,
0000
0000
0000
0000
,
0000
0000
0000
0000
,
1001
1001
0000
0000
0000
0000
0000
0000
;

//--------------- dance-single - DSP - 6 ----------------
#NOTEDATA:;
#STEPSTYPE:dance-single;
#DESCRIPTION:DSP - 6;
#DIFFICULTY:Medium;
#METER:6;
#RADARVALUES:0,0,0,0,0;
#CHARTNAME:;
#CHARTSTYLE:Pad;
#CREDIT:Wrland Simfiles;
#METERF:6;
#NOTES:
0000
0000
0000
0000
,
0000
0000
0000
0000
,
0000
0000
0000
0000
,
0000
0000
0000
0000
,
0000
0000
0000
0000
,
0000
0000
0000
0000
,
0000
0000
0000
0000
,
0000
0000
0000
0000
,
2000
0000
3000
0001
,
2000
0000
3000
0001
,
2000
0000
3000
0001
,
2000
3000
0020
0030
,
0200
0000
0300
0001
,
0200
0000
0300
0001
,
0200
0000
0300
0001
,
0200
0300
0002
0003
,
1000
1000
1001
0000
,
0001
0001
1001
0000
,
1000
1000
1001
0000
,
0002
0003
2000
3000
,
0010
1000
1010
0000
,
0100
0001
0101
0000
,
0001
1000
1001
0000
,
1000
0001
1001
0000
,
1000
1000
1001
0000
,
0001
0001
1001
0000
,
1000
1000
1001
0000
,
0002
0003
2000
3000
,
0010
1000
1010
0000
,
0100
0001
0101
0000
,
0001
1000
1001
0000
,
1000
0001
1001
0000
,
0000
0000
0000
0000
,
0000
0000
0000
0000
,
0000
0000
0000
0000
,
0000
0000
0000
0000
,
0000
0000
0000
0000
,
0000
0000
0000
0000
,
0000
0000
0000
0000
,
0000
0000
0000
0000
,
1001
1001
0000
0000
0000
0000
0000
0000
;

//--------------- dance-single - ESP - 10 ----------------
#NOTEDATA:;
#STEPSTYPE:dance-single;
#DESCRIPTION:ESP - 10;
#DIFFICULTY:Hard;
#METER:10;
#RADARVALUES:0,0,0,0,0;
#CHARTNAME:;
#CHARTSTYLE:Pad;
#CREDIT:Wrland Simfiles;
#METERF:10;
#NOTES:
0000
0000
0000
0000
,
0000
0000
0000
0000
,
0000
0000
0000
0000
,
0000
0000
0000
0000
,
0000
0000
0000
0000
,
0000
0000
0000
0000
,
0000
0000
0000
0000
,
0000
0000
0000
0000
,
2002
0000
0000
0000
3003
0000
0001
1000
,
0020
0000
0130
0000
0000
0000
0100
0010
,
2000
0000
3001
0000
0000
0000
0001
1000
,
0020
0000
2030
0000
,
0002
0000
0000
0000
3003
0000
0001
1000
,
0020
0000
0130
0000
0000
0000
0100
0010
,
2000
0000
3001
0000
0000
0000
1000
0001
,
0100
0020
0000
0000
,
1030
0000
0001
0000
0100
0000
0010
1000
,
0001
0000
1000
0000
0010
0000
0100
0001
,
1000
0000
0001
0000
0100
0000
0010
1000
,
0002
0000
2003
0000
,
3001
0000
0010
0000
0100
0000
1000
0001
,
1000
0000
0100
0000
0010
0000
0001
1000
,
0001
0000
0010
0000
0100
0000
1000
0001
,
1000
0000
0001
0000
1000
0002
0000
0000
,
1003
0000
0001
0000
0100
0000
0010
1000
,
0001
0000
1000
0000
0010
0000
0100
0001
,
1000
0000
0001
0000
0100
0000
0010
1000
,
0002
0000
2003
0000
,
3001
0000
0010
0000
0100
0000
1000
0001
,
1000
0000
0100
0000
0010
0000
0001
1000
,
0001
0000
0010
0000
0100
0000
1000
0001
,
1000
0000
0001
0000
1000
0002
0000
0000
,
1003
0000
0000
0000
,
0000
0000
0000
0000
,
0000
0000
0000
0000
,
0000
0000
0000
0000
,
0000
0000
0000
0000
,
0000
0000
0000
0000
,
0000
0000
0000
0000
,
0000
0000
0000
0000
,
1001
1001
0000
0000
0000
0000
0000
0000
;
