#VERSION:0.83;
#TITLE:Desaparecer;
#SUBTITLE:;
#ARTIST:Olaya Sound System;
#TITLETRANSLIT:;
#SUBTITLETRANSLIT:;
#ARTISTTRANSLIT:;
#GENRE:Reggae y Cumbia;
#CREDIT:Cósmica!;
#MUSIC:Desaparecer.ogg;
#BANNER:Desaparecer.png;
#BACKGROUND:Desaparecer-bg.png;
#JACKET:Desaparecer-jacket.png;
#DISCIMAGE:;
#CDIMAGE:;
#SELECTABLE:YES;
#LYRICSPATH:Desaparecer.lrc;
#CDTITLE:Cosmica!.png;
#SAMPLESTART:68.199;
#SAMPLELENGTH:15.000;
#BPMS:0.000000=98.013000;
#STOPS:0.000000=0.045000;
#WARPS:;
#DELAYS:;
#SPEEDS:;
#SCROLLS:;
#TICKCOUNTS:;
#TIMESIGNATURES:;
#LABELS:;
#COMBOS:;
#FAKES:;
#BGCHANGES:0=Desaparecer.mp4=0.000000=0=0=0=StretchNoLoop====,
99999=-nosongbg-=1.000000=0=0=0=StretchNoLoop====
;
#FGCHANGES:;
#ATTACKS:;
#DISPLAYBPM:98.000;
#TAGS:DMCA;

//---------------dance-single - bSP - 2---------------
#NOTEDATA:;
#CHARTNAME:;
#CHARTSTYLE:Pad;
#CREDIT:Wrland Simfiles;
#STEPSTYPE:dance-single;
#DESCRIPTION:bSP - 2;
#DIFFICULTY:Beginner;
#METER:2;
#METERF:2;
#RADARVALUES:0,0,0,0,0;
#NOTES:
// measure 0
0000
0000
0000
0000
,  // measure 1
0000
0000
0000
0000
,  // measure 2
0000
0000
0000
0000
,  // measure 3
0000
0000
0000
0000
,  // measure 4
2000
0000
0000
0000
,  // measure 5
3001
0000
0000
0000
,  // measure 6
1000
0000
0000
0000
,  // measure 7
0001
0000
0000
0000
,  // measure 8
2000
0000
0000
0000
,  // measure 9
3001
0000
0000
0000
,  // measure 10
2000
0000
0000
0000
,  // measure 11
3000
0000
0000
0000
,  // measure 12
0010
0000
0000
0000
,  // measure 13
0000
0000
0000
0000
,  // measure 14
0100
0000
0000
0000
,  // measure 15
0000
0000
0000
0000
,  // measure 16
0001
0000
0000
0000
,  // measure 17
0000
0000
0000
0000
,  // measure 18
1000
0000
0000
0000
,  // measure 19
0000
0000
0000
0000
,  // measure 20
0100
0000
0000
0000
,  // measure 21
0000
0000
0000
0000
,  // measure 22
0010
0000
0000
0000
,  // measure 23
0000
0000
0000
0000
,  // measure 24
0001
0000
0000
0000
,  // measure 25
0000
0000
0000
0000
,  // measure 26
1000
0000
0000
0000
,  // measure 27
0000
0000
0000
0000
,  // measure 28
2000
0000
0000
0000
,  // measure 29
3001
0000
0000
0000
,  // measure 30
1000
0000
0000
0000
,  // measure 31
0001
0000
0000
0000
,  // measure 32
0002
0000
0000
0000
,  // measure 33
1003
0000
0000
0000
,  // measure 34
2000
0000
0000
0000
,  // measure 35
3001
0000
0000
0000
,  // measure 36
0200
0000
0000
0000
,  // measure 37
0310
0000
0000
0000
,  // measure 38
0020
0000
0000
0000
,  // measure 39
0130
0000
0000
0000
,  // measure 40
0000
0000
1001
0000
;

//---------------dance-single - BSP - 5---------------
#NOTEDATA:;
#CHARTNAME:;
#CHARTSTYLE:Pad;
#CREDIT:Wrland Simfiles;
#STEPSTYPE:dance-single;
#DESCRIPTION:BSP - 5;
#DIFFICULTY:Easy;
#METER:5;
#METERF:5;
#RADARVALUES:0,0,0,0,0;
#NOTES:
// measure 0
0000
0000
0000
0000
,  // measure 1
0000
0000
0000
0000
,  // measure 2
0000
0000
0000
0000
,  // measure 3
0000
0000
0000
0000
,  // measure 4
2000
0000
0000
0000
,  // measure 5
3001
0000
1000
0000
,  // measure 6
0010
0000
0100
0000
,  // measure 7
0001
0000
1000
0000
,  // measure 8
2000
0000
0000
0000
,  // measure 9
3001
0000
0000
0000
,  // measure 10
0002
0000
0000
0000
,  // measure 11
1003
0000
0000
0000
,  // measure 12
0001
0000
0000
0000
,  // measure 13
1000
1000
1000
0000
,  // measure 14
0001
0000
0000
0000
,  // measure 15
1000
1000
1000
0000
,  // measure 16
1000
0000
0000
0000
,  // measure 17
0001
0001
0001
0000
,  // measure 18
1000
0000
0000
0000
,  // measure 19
0001
0001
0001
0000
,  // measure 20
0100
0000
0000
0000
,  // measure 21
0010
0010
0010
0000
,  // measure 22
0100
0000
0000
0000
,  // measure 23
0010
0010
0010
0000
,  // measure 24
0010
0000
0000
0000
,  // measure 25
0100
0100
0100
0000
,  // measure 26
0010
0000
0000
0000
,  // measure 27
0100
0100
0100
0000
,  // measure 28
2000
0000
0000
0000
,  // measure 29
3001
0000
1000
0000
,  // measure 30
0001
0000
1000
0000
,  // measure 31
0010
0000
0100
0000
,  // measure 32
0002
0000
0000
0000
,  // measure 33
1003
0000
0000
0000
,  // measure 34
2000
0000
0000
0000
,  // measure 35
3001
0000
0000
0000
,  // measure 36
0200
0000
0000
0000
,  // measure 37
0310
0000
0000
0000
,  // measure 38
0020
0000
0000
0000
,  // measure 39
0130
0000
0000
0000
,  // measure 40
0000
0000
1001
0000
;

//---------------dance-single - DSP - 9---------------
#NOTEDATA:;
#CHARTNAME:;
#CHARTSTYLE:Pad;
#CREDIT:Wrland Simfiles;
#STEPSTYPE:dance-single;
#DESCRIPTION:DSP - 9;
#DIFFICULTY:Medium;
#METER:9;
#METERF:9;
#RADARVALUES:0,0,0,0,0;
#NOTES:
// measure 0
0000
0000
0000
0000
,  // measure 1
0000
0000
0000
0000
,  // measure 2
0000
0000
0000
0000
,  // measure 3
0000
0000
0000
0000
,  // measure 4
1001
0000
1001
0000
,  // measure 5
1000
0100
1000
0100
,  // measure 6
0010
0001
0010
0001
,  // measure 7
0020
0000
0000
0000
,  // measure 8
0130
0000
0110
0000
,  // measure 9
1000
0000
0100
0000
1000
0000
0100
0010
,  // measure 10
0001
0000
0010
0000
0001
0000
0001
0010
,  // measure 11
0100
1000
0100
0000
,  // measure 12
0001
0001
0002
0003
,  // measure 13
1000
1000
2000
3000
,  // measure 14
0100
0100
0200
0300
,  // measure 15
0010
0010
0020
0030
,  // measure 16
1000
1000
2000
3000
,  // measure 17
0001
0001
0002
0003
,  // measure 18
0100
0100
0200
0300
,  // measure 19
0010
0010
0020
0030
,  // measure 20
1000
0001
2000
3000
,  // measure 21
0001
1000
0002
0003
,  // measure 22
0100
0010
0200
0300
,  // measure 23
0010
0100
0020
0030
,  // measure 24
1000
0010
0200
0300
,  // measure 25
0001
0100
0002
0003
,  // measure 26
1000
0010
0200
0300
,  // measure 27
0001
0010
0002
0003
,  // measure 28
1001
0000
1001
0000
,  // measure 29
1000
0001
0010
0100
,  // measure 30
1000
0001
0100
0001
,  // measure 31
2000
0000
0000
0000
,  // measure 32
3001
0001
1000
1000
,  // measure 33
0100
0100
1000
1000
,  // measure 34
0100
0100
0010
0010
,  // measure 35
0100
0100
0010
0001
,  // measure 36
0100
0100
1000
1000
,  // measure 37
0100
0100
0010
0010
,  // measure 38
1000
1000
0100
0100
,  // measure 39
0001
0001
0100
0100
,  // measure 40
1001
0000
1001
0000
;

//---------------dance-single - ESP - 11---------------
#NOTEDATA:;
#CHARTNAME:;
#CHARTSTYLE:Pad;
#CREDIT:Wrland Simfiles;
#STEPSTYPE:dance-single;
#DESCRIPTION:ESP - 11;
#DIFFICULTY:Hard;
#METER:11;
#METERF:11;
#RADARVALUES:0,0,0,0,0;
#NOTES:
// measure 0
0000
0000
0000
0000
,  // measure 1
0000
0000
0000
0000
,  // measure 2
0000
0000
0000
0000
,  // measure 3
0000
0000
0000
0000
,  // measure 4
1001
0000
1010
0000
,  // measure 5
1000
0000
0000
0000
1000
0000
0000
0000
0001
0000
1000
0001
1000
0000
0000
0000
,  // measure 6
0001
0000
1000
0000
0010
0100
0100
0000
,  // measure 7
0001
0000
1000
0000
0010
0010
0100
0000
,  // measure 8
1001
0000
0101
0000
,  // measure 9
0001
0000
1000
0000
0001
1000
0001
0000
,  // measure 10
1000
0000
0001
0000
1000
0001
1000
0000
,  // measure 11
0010
0000
0100
0000
0010
0100
0010
0000
,  // measure 12
1001
0000
0000
0000
1000
0000
0000
0002
0000
0000
0003
0000
1000
0000
0000
0002
,  // measure 13
0000
0000
0003
0000
,  // measure 14
1000
0000
0010
0100
0010
0000
1000
0000
,  // measure 15
0001
0000
0100
0010
0100
0000
0001
0000
,  // measure 16
0000
0000
0000
0000
1000
0000
0001
1000
0000
0002
0000
0000
0000
0000
0003
0000
,  // measure 17
2000
0000
0001
3001
,  // measure 18
0000
0000
0000
1000
0001
0000
0000
0100
0001
0000
0000
0010
0100
0000
0000
1000
,  // measure 19
0002
0000
0000
0003
,  // measure 20
0000
0000
0000
0000
1000
0000
0000
0001
0000
2000
0000
0000
3000
0000
0000
0001
,  // measure 21
0000
0200
0000
0000
0000
0000
0000
0000
0000
0000
0000
0000
0310
0000
0000
0000
,  // measure 22
1000
0000
0001
0000
1000
0001
1000
0000
,  // measure 23
0001
0000
1000
0000
0001
1000
0001
0000
,  // measure 24
0000
0000
0000
1000
0001
0000
0001
1000
0000
0000
0000
0010
0100
0000
0100
0020
,  // measure 25
0000
0000
0130
0000
,  // measure 26
0000
0000
0000
0000
1000
0000
0001
1000
0000
0001
1000
0010
0100
0000
0001
0000
,  // measure 27
2000
0000
3000
0000
0001
0000
0100
0000
0010
0000
1000
0001
0100
0010
1000
0010
,  // measure 28
1001
0000
1010
0000
,  // measure 29
1000
0000
0000
0000
1000
0000
0000
0000
0001
0000
1000
0001
1000
0000
0000
0000
,  // measure 30
0001
0000
1000
0000
0010
0100
0100
0000
,  // measure 31
0001
0000
1000
0000
0010
0010
0100
0000
,  // measure 32
0001
0000
0000
1000
0001
0000
0000
0100
0000
0010
0000
1000
0010
0000
0000
0000
,  // measure 33
1000
0000
0000
1000
0001
0000
0001
0000
0000
0000
0000
0100
0010
0000
1000
0000
,  // measure 34
0001
0000
0000
1000
0001
0000
0000
0100
0000
0010
0000
1000
0010
0000
1000
0000
,  // measure 35
0001
1000
0001
1000
0001
0000
0000
0000
1000
0010
1000
0010
1000
0000
0000
0000
,  // measure 36
0001
0000
0000
1000
0001
0000
0000
0100
0000
0010
0000
1000
0010
0000
0000
0000
,  // measure 37
1000
0000
0000
1000
0001
0000
0001
0000
1000
0001
0000
0100
0010
0000
1000
0000
,  // measure 38
0001
0000
0000
1000
0001
0000
0000
0100
0000
0010
0000
1000
0010
0000
1000
0000
,  // measure 39
1000
0001
1000
0001
1000
0000
0000
0000
0001
0100
0001
0100
0001
0000
0000
0000
,  // measure 40
1001
0000
1001
0000
;
