#VERSION:0.83;
#TITLE:Chemical;
#SUBTITLE:;
#ARTIST:아뽀키;
#TITLETRANSLIT:;
#SUBTITLETRANSLIT:;
#ARTISTTRANSLIT:APOKI;
#GENRE:K-Pop;
#CREDIT:VV Entertainment;
#MUSIC:Chemical.ogg;
#BANNER:Chemical-vb.mp4;
#BACKGROUND:Chemical-bg.png;
#JACKET:Chemical-jacket.png;
#DISCIMAGE:;
#CDIMAGE:;
#SELECTABLE:YES;
#LYRICSPATH:Chemical.lrc;
#CDTITLE:Wrland Season 4 bergtour.png;
#SAMPLESTART:32.813500;
#SAMPLELENGTH:15.000000;
#OFFSET:-0.001;
#BPMS:0.000000=128.000000;
#STOPS:;
#WARPS:;
#DELAYS:;
#SPEEDS:;
#SCROLLS:;
#TICKCOUNTS:;
#TIMESIGNATURES:;
#LABELS:;
#COMBOS:;
#FAKES:;
#BGCHANGES:0=Chemical.mp4=0.000000=0=0=0=StretchNoLoop====,
99999=-nosongbg-=1.000000=0=0=0=StretchNoLoop====
;
#FGCHANGES:;
#ATTACKS:;
#DISPLAYBPM:128.000000;
#TAGS:DMCA;

//---------------dance-single - bSP - 3---------------
#NOTEDATA:;
#CHARTNAME:;
#CHARTSTYLE:Pad;
#CREDIT:Wrland Simfiles;
#STEPSTYPE:dance-single;
#DESCRIPTION:bSP - 3;
#DIFFICULTY:Beginner;
#METER:3;
#METERF:3;
#RADARVALUES:0,0,0,0,0;
#NOTES:
// measure 0
0000
0000
0000
0000
,  // measure 1
0000
0000
0000
0000
,  // measure 2
0000
0000
0000
0000
,  // measure 3
0000
0000
0000
0000
,  // measure 4
0000
0000
0000
0000
,  // measure 5
0000
0000
2000
0000
,  // measure 6
0000
0000
3000
0000
,  // measure 7
0000
0000
0002
0000
,  // measure 8
0000
0000
0003
0000
,  // measure 9
0000
0000
1000
0000
,  // measure 10
0000
0000
0000
0000
,  // measure 11
0000
0000
1000
0000
,  // measure 12
0000
0000
0000
0000
,  // measure 13
0000
0000
0001
0000
,  // measure 14
0000
0000
0000
0000
,  // measure 15
0000
0000
0001
0000
,  // measure 16
0000
0000
1001
0000
,  // measure 17
0000
0000
1000
0000
,  // measure 18
1000
0000
0001
0000
,  // measure 19
0001
0000
0100
0000
,  // measure 20
0100
0000
0001
0000
,  // measure 21
0001
0000
0010
0000
,  // measure 22
0100
0000
1000
0000
,  // measure 23
0100
0000
0010
0000
,  // measure 24
0001
0000
2000
0000
,  // measure 25
0000
0000
3000
0000
,  // measure 26
0000
0000
1000
1000
,  // measure 27
1000
0000
0000
0000
,  // measure 28
0000
0000
0001
0001
,  // measure 29
0001
0000
0000
0000
,  // measure 30
0000
0000
1000
1000
,  // measure 31
1000
0000
0002
0000
,  // measure 32
0000
0000
0000
0000
,  // measure 33
0000
0003
0000
0000
,  // measure 34
0000
0000
1000
0000
,  // measure 35
0000
0000
0010
0000
,  // measure 36
0000
0000
1000
0000
,  // measure 37
0000
0000
0010
0000
,  // measure 38
0000
0000
0100
0000
,  // measure 39
0000
0000
0001
0000
,  // measure 40
0000
0000
0010
0000
,  // measure 41
0000
0000
0100
0000
,  // measure 42
0000
0000
1000
0000
,  // measure 43
0000
0000
0000
0000
,  // measure 44
0000
0000
1000
0000
,  // measure 45
0000
0000
0000
0000
,  // measure 46
0000
0000
0001
0000
,  // measure 47
0000
0000
0000
0000
,  // measure 48
0000
0000
0001
0000
,  // measure 49
0000
0000
1001
0000
,  // measure 50
0000
0000
0000
0000
,  // measure 51
0000
0000
0000
0000
,  // measure 52
0000
0000
1000
0000
,  // measure 53
1000
0000
0001
0000
,  // measure 54
0001
0000
0010
0000
,  // measure 55
0100
0000
1000
0000
,  // measure 56
0100
0000
0010
0000
,  // measure 57
0001
0000
2000
0000
,  // measure 58
0000
0000
3000
0000
,  // measure 59
0000
0000
1000
1000
,  // measure 60
1000
0000
0000
0000
,  // measure 61
0000
0000
0001
0001
,  // measure 62
0001
0000
0000
0000
,  // measure 63
0000
0000
1000
1000
,  // measure 64
1000
0000
0002
0000
,  // measure 65
0000
0000
0000
0000
,  // measure 66
0000
0003
0000
0000
;

//---------------dance-single - BSP - 5---------------
#NOTEDATA:;
#CHARTNAME:;
#CHARTSTYLE:Pad;
#CREDIT:Wrland Simfiles;
#STEPSTYPE:dance-single;
#DESCRIPTION:BSP - 5;
#DIFFICULTY:Easy;
#METER:5;
#METERF:5;
#RADARVALUES:0,0,0,0,0;
#NOTES:
// measure 0
0000
0000
0000
0000
,  // measure 1
0000
0000
0000
0000
,  // measure 2
0000
0000
0000
0000
,  // measure 3
0000
0000
0000
0000
,  // measure 4
0000
0000
0000
0000
,  // measure 5
0000
0000
2000
0000
,  // measure 6
0000
0000
3000
0000
,  // measure 7
0000
0000
0002
0000
,  // measure 8
0000
0000
0003
0000
,  // measure 9
0000
0000
1000
0000
,  // measure 10
1000
0000
1000
0000
,  // measure 11
0000
0000
0001
0000
,  // measure 12
0001
0000
0001
0000
,  // measure 13
0000
0000
1000
0000
,  // measure 14
1000
0000
1000
0000
,  // measure 15
0000
0000
0001
0000
,  // measure 16
1000
0000
1001
0000
,  // measure 17
0000
0000
1000
0000
,  // measure 18
0000
1000
0001
0000
,  // measure 19
0000
0001
0100
0000
,  // measure 20
0000
0100
0001
0000
,  // measure 21
0000
0001
0010
0000
,  // measure 22
0000
0100
1000
0000
,  // measure 23
0000
0100
0010
0000
,  // measure 24
0000
0001
2000
0000
,  // measure 25
0000
0000
3000
0000
,  // measure 26
0000
0000
1000
1000
,  // measure 27
1000
1000
1001
0000
,  // measure 28
0000
0000
0001
0001
,  // measure 29
0001
0001
1001
0000
,  // measure 30
0000
0000
1000
1000
,  // measure 31
1000
1000
0002
0000
,  // measure 32
0000
0003
2000
0000
,  // measure 33
0000
3000
0000
0000
,  // measure 34
0000
0000
1000
0000
,  // measure 35
0010
0000
0010
0010
,  // measure 36
0010
0000
1000
0000
,  // measure 37
0100
0000
0100
0100
,  // measure 38
0100
0000
0010
0000
,  // measure 39
0001
0000
0001
0000
,  // measure 40
0010
0000
0100
0000
,  // measure 41
0100
0000
1000
0000
,  // measure 42
1001
0000
1000
0000
,  // measure 43
1000
0000
1000
0000
,  // measure 44
0000
0000
0001
0000
,  // measure 45
0001
0000
0001
0000
,  // measure 46
0000
0000
1000
0000
,  // measure 47
1000
0000
1000
0000
,  // measure 48
0000
0000
0001
0000
,  // measure 49
1000
0000
1001
0000
,  // measure 50
0000
0000
0000
0000
,  // measure 51
0000
0000
0000
0000
,  // measure 52
0000
0000
0100
0000
,  // measure 53
0000
0100
0001
0000
,  // measure 54
0000
0001
0010
0000
,  // measure 55
0000
0100
1000
0000
,  // measure 56
0000
0100
0010
0000
,  // measure 57
0000
0001
2000
0000
,  // measure 58
0000
0000
3000
0000
,  // measure 59
0000
0000
0001
0001
,  // measure 60
0001
0001
1001
0000
,  // measure 61
0000
0000
1000
1000
,  // measure 62
1000
1000
1001
0000
,  // measure 63
0000
0000
0001
0001
,  // measure 64
0001
0001
2000
0000
,  // measure 65
0000
3000
0002
0000
,  // measure 66
0000
0003
0000
0000
;

//---------------dance-single - DSP - 10---------------
#NOTEDATA:;
#CHARTNAME:;
#CHARTSTYLE:Pad;
#CREDIT:Wrland Simfiles;
#STEPSTYPE:dance-single;
#DESCRIPTION:DSP - 10;
#DIFFICULTY:Medium;
#METER:10;
#METERF:10;
#RADARVALUES:0,0,0,0,0;
#NOTES:
// measure 0
0000
0000
0000
0000
,  // measure 1
0000
0000
0000
0000
,  // measure 2
0000
0000
0000
0000
,  // measure 3
0000
0000
0000
0000
,  // measure 4
0000
0000
0000
0000
,  // measure 5
0000
0000
2000
0000
,  // measure 6
3001
0000
0002
0000
,  // measure 7
1003
0000
0200
0000
,  // measure 8
0310
0000
0020
0000
,  // measure 9
0130
0000
1000
1000
,  // measure 10
0001
0000
1000
0000
1000
0001
2000
0000
,  // measure 11
3000
0000
0001
0001
,  // measure 12
1000
0000
0001
0000
1000
0001
2000
0000
,  // measure 13
3000
0000
0010
0100
,  // measure 14
0010
0100
0010
0000
1000
0000
0001
0000
,  // measure 15
1000
0001
1000
0000
1000
0000
0001
0000
,  // measure 16
1000
0001
2000
3000
1001
0000
0000
0000
,  // measure 17
0000
0000
1001
0000
,  // measure 18
0000
1000
0000
0000
0001
0000
0100
0000
1001
0000
0000
0000
0000
0000
0000
0000
,  // measure 19
0000
0001
0000
0000
1000
0000
0100
0000
1001
0000
0000
0000
0000
0000
0000
0000
,  // measure 20
0000
1000
0000
0000
0001
0000
0100
0000
1001
0000
0000
0000
0000
0000
0000
0000
,  // measure 21
0000
0001
0000
0000
1000
0000
0100
0000
0110
0000
0000
0000
0000
0000
0000
0000
,  // measure 22
0000
0100
0000
0000
0010
0000
0100
0000
0110
0000
0000
0000
0000
0000
0000
0000
,  // measure 23
0000
0010
0000
0000
0100
0000
0010
0000
1001
0000
0000
0000
0000
0000
0000
0000
,  // measure 24
0000
0001
0000
0000
1000
0000
0001
0000
1001
0000
0000
0000
0000
0000
1000
0000
,  // measure 25
0000
0001
0000
0000
1000
0000
0001
0000
0000
0000
0000
0000
1000
0000
0000
0000
,  // measure 26
1000
0000
0000
0000
0001
0000
0000
0000
2000
0000
0000
0001
0000
0000
0001
0000
,  // measure 27
0000
0001
0000
0000
3001
0000
0000
0000
0000
0000
0000
0000
0000
0000
0000
0000
,  // measure 28
1000
0000
0000
0000
0001
0000
0000
0000
2000
0000
0000
0001
0000
0000
0001
0000
,  // measure 29
0000
0001
0000
0000
3001
0000
0000
0000
0000
0000
0000
0000
0001
0000
0000
0000
,  // measure 30
0001
0000
0000
0000
1000
0000
0000
0000
0002
0000
0000
1000
0000
0000
1000
0000
,  // measure 31
0000
1000
0000
0000
1003
0000
0000
0000
1001
0000
0000
0000
0000
0000
0000
0000
,  // measure 32
0000
1000
0000
0000
0001
0000
0100
0000
1001
0000
0000
0000
0000
0000
0000
0000
,  // measure 33
0000
0001
0000
0000
1000
0000
0100
0000
1001
0000
0000
0000
0000
0000
0000
0000
,  // measure 34
0000
0000
1000
0001
,  // measure 35
1000
0001
1000
0000
0100
0000
0010
0000
,  // measure 36
0100
0010
0100
0000
1000
0000
0010
0000
,  // measure 37
1000
0010
1000
0000
0001
0000
0010
0000
,  // measure 38
0001
0000
0010
0000
0001
0000
0000
0000
1000
0000
0000
1000
0000
0000
1000
0000
,  // measure 39
0000
0000
0000
0000
1001
0000
0000
0000
0001
0000
0000
0001
0000
0000
0001
0000
,  // measure 40
0000
0000
0000
0000
1001
0000
0000
0000
1000
0000
0000
0010
0000
0000
0100
0000
,  // measure 41
0000
0000
0000
0000
1001
0000
0000
0000
0001
0000
0000
0100
0000
0000
0010
0000
,  // measure 42
0000
1001
1000
1000
,  // measure 43
0001
0000
1000
0000
1000
0001
2000
0000
,  // measure 44
3000
0000
0001
0001
,  // measure 45
1000
0000
0001
0000
1000
0001
2000
0000
,  // measure 46
3000
0000
0010
0100
,  // measure 47
0010
0100
0010
0000
1000
0000
0001
0000
,  // measure 48
1000
0001
1000
0000
1000
0000
0001
0000
,  // measure 49
1000
0001
2000
3000
1001
0000
0000
0000
,  // measure 50
0000
0000
1001
0000
,  // measure 51
0000
0000
1000
0001
1001
0000
0000
0000
,  // measure 52
0000
0001
0000
0000
1000
0000
0100
0000
1001
0000
0000
0000
0000
0000
0000
0000
,  // measure 53
0000
1000
0000
0000
0001
0000
0100
0000
1001
0000
0000
0000
0000
0000
0000
0000
,  // measure 54
0000
0001
0000
0000
1000
0000
0100
0000
0110
0000
0000
0000
0000
0000
0000
0000
,  // measure 55
0000
0100
0000
0000
0010
0000
0100
0000
0110
0000
0000
0000
0000
0000
0000
0000
,  // measure 56
0000
0010
0000
0000
0100
0000
0010
0000
1001
0000
0000
0000
0000
0000
0000
0000
,  // measure 57
0000
0001
0000
0000
1000
0000
0001
0000
1001
0000
0000
0000
0000
0000
1000
0000
,  // measure 58
0000
0001
0000
0000
1000
0000
0001
0000
0000
0000
0000
0000
1000
0000
0000
0000
,  // measure 59
1000
0000
0000
0000
0001
0000
0000
0000
2000
0000
0000
0001
0000
0000
0001
0000
,  // measure 60
0000
0001
0000
0000
3001
0000
0000
0000
0000
0000
0000
0000
0000
0000
0000
0000
,  // measure 61
1000
0000
0000
0000
0001
0000
0000
0000
2000
0000
0000
0001
0000
0000
0001
0000
,  // measure 62
0000
0001
0000
0000
3001
0000
0000
0000
0000
0000
0000
0000
0001
0000
0000
0000
,  // measure 63
0001
0000
0000
0000
1000
0000
0000
0000
0002
0000
0000
1000
0000
0000
1000
0000
,  // measure 64
0000
1000
0000
0000
1003
0000
0000
0000
1001
0000
0000
0000
0000
0000
0000
0000
,  // measure 65
0000
1000
0000
0000
0001
0000
0100
0000
1001
0000
0000
0000
0000
0000
0000
0000
,  // measure 66
0000
0001
0000
0000
1000
0000
0100
0000
1001
0000
0000
0000
0000
0000
0000
0000
;

//---------------dance-single - ESP - 13---------------
#NOTEDATA:;
#CHARTNAME:;
#CHARTSTYLE:Pad;
#CREDIT:Wrland Simfiles;
#STEPSTYPE:dance-single;
#DESCRIPTION:ESP - 13;
#DIFFICULTY:Hard;
#METER:13;
#METERF:13;
#RADARVALUES:0,0,0,0,0;
#NOTES:
// measure 0
0000
0000
0000
0000
,  // measure 1
0000
0000
0000
0000
,  // measure 2
0000
0000
0000
0000
,  // measure 3
0000
0000
0000
0000
,  // measure 4
0000
0000
0000
0000
,  // measure 5
0000
0000
0000
0000
0000
0000
1000
0000
0001
0000
0000
0100
0000
0000
0010
0000
,  // measure 6
2000
0000
3000
0010
1000
0100
0010
0001
,  // measure 7
0100
0000
0010
0000
1000
0000
0001
0000
2000
0000
0000
3001
0000
0000
0000
0000
,  // measure 8
0000
0000
0000
0000
0000
0000
1000
0000
0001
0000
0000
0001
0000
0000
1000
0000
,  // measure 9
0001
0000
0000
1000
0000
0000
0010
0000
1000
0000
0010
1000
0000
1000
0001
0000
,  // measure 10
0001
0100
0000
0010
1000
0000
0001
0000
1000
0000
0001
0000
2000
0000
0000
0000
,  // measure 11
0000
0000
0000
0000
3000
0000
0000
0000
0001
0000
0100
0010
0000
1000
0001
0000
,  // measure 12
0100
0001
0000
1000
0010
0000
1000
0000
0001
0000
1000
0000
0002
0000
0000
0000
,  // measure 13
0000
0000
0000
0000
0003
0000
0001
0000
1000
0000
0010
0100
0000
0010
2000
0000
,  // measure 14
0000
0000
3001
0000
0000
0000
1000
0000
0001
0000
0100
0010
0000
0100
0002
0000
,  // measure 15
0000
0000
1003
0000
0000
0000
0001
0000
1000
0000
0010
0100
0000
0010
2000
0000
,  // measure 16
0000
0002
0000
0000
3003
0000
0000
0000
,  // measure 17
0000
0000
0000
0000
0000
0000
0000
0000
1000
0000
0000
1010
0000
0000
0001
0000
,  // measure 18
0000
0101
0000
0000
1000
0001
1000
0000
1000
0000
0000
1010
0000
0000
0001
0000
,  // measure 19
0000
0011
0000
0000
0001
1000
0001
0000
1000
0000
0000
1010
0000
0000
0010
0000
,  // measure 20
0000
0110
0000
0000
0100
0001
1000
0000
0010
0000
0000
0110
0000
0000
1000
0000
,  // measure 21
0000
1010
0000
0000
1000
0001
1000
0000
1000
1000
0000
0001
0001
0000
1000
1000
,  // measure 22
0000
0001
0001
0000
1000
0010
0100
0001
1000
1000
0000
0001
0001
0000
1000
1000
,  // measure 23
0000
0001
0001
0000
1000
0000
0001
0000
1000
0010
0000
0100
0001
0000
1000
0010
,  // measure 24
0000
1000
0001
0000
1000
0001
0100
0010
1000
0100
0000
0010
0001
0000
1000
0001
,  // measure 25
0000
1000
0000
0000
0001
0000
1000
0000
1001
0000
0000
0000
0000
0000
1000
0000
,  // measure 26
0001
0000
1000
0000
0010
0000
0100
0000
0002
0000
0000
1000
0000
0000
1000
0000
,  // measure 27
0000
1003
0000
0000
1000
0000
0001
0000
1001
0000
0000
0000
0000
0000
0001
0000
,  // measure 28
1000
0000
0001
0000
0010
0000
0100
0000
2000
0000
0000
0001
0000
0000
0001
0000
,  // measure 29
0000
3001
0000
0000
0001
0000
1000
0000
0110
0000
0000
0000
0000
0000
0100
0000
,  // measure 30
0010
0000
0001
0000
1000
0000
0010
0000
2000
0000
0000
0001
0000
0000
0100
0000
,  // measure 31
3000
0001
0000
0000
0001
0000
0000
0000
1000
0010
0000
0100
0001
0000
1000
0010
,  // measure 32
0000
0100
0001
0000
1000
0001
0100
0010
1000
0001
0000
1000
0001
0000
0100
0010
,  // measure 33
0000
0010
1000
0000
0001
0000
1000
0000
2002
0000
0000
0000
0000
0000
0000
0000
,  // measure 34
3003
0000
0000
0000
0000
0000
0000
0000
1000
0000
0000
1000
0001
0000
0000
0000
,  // measure 35
0001
0000
0000
0001
1000
0000
0000
0000
0010
0000
0000
0010
0100
0000
0000
0000
,  // measure 36
0100
0000
0000
0100
0010
0000
0000
0000
0010
0000
0000
0001
1000
0000
0000
0000
,  // measure 37
0100
0000
0000
1000
0001
0000
0000
0000
1000
0000
0000
0001
0010
0000
0000
0000
,  // measure 38
1001
0000
0000
0000
1001
0000
0000
0000
1000
0000
0000
1000
0000
0000
1000
0000
,  // measure 39
0000
0001
0000
0000
1000
0001
1000
0000
0100
0000
0000
0100
0000
0000
0100
0000
,  // measure 40
0000
0100
0000
0000
0010
0100
0010
0000
0001
0000
0000
1000
0000
0000
0001
0000
,  // measure 41
0000
1000
0000
0000
0010
0100
0001
0000
1000
0000
0000
0010
0000
0000
0100
0000
,  // measure 42
0000
0001
0000
0000
1000
0000
0000
0000
1000
0000
0010
1000
0000
1000
0001
0000
,  // measure 43
0001
0100
0000
0010
1000
0000
0001
0000
1000
0000
0001
0000
2000
0000
0000
0000
,  // measure 44
0000
0000
0000
0000
3000
0000
0000
0000
0001
0000
0100
0010
0000
1000
0001
0000
,  // measure 45
0100
0001
0000
1000
0010
0000
1000
0000
0001
0000
1000
0000
0002
0000
0000
0000
,  // measure 46
0000
0000
0000
0000
0003
0000
0001
0000
1000
0000
0010
0100
0000
0010
2000
0000
,  // measure 47
0000
0000
3001
0000
0000
0000
1000
0000
0001
0000
0100
0010
0000
0100
0002
0000
,  // measure 48
0000
0000
1003
0000
0000
0000
0001
0000
1000
0000
0010
0100
0000
0010
2000
0000
,  // measure 49
0000
0002
0000
0000
3003
0000
0000
0000
,  // measure 50
0000
0000
1001
0000
,  // measure 51
0000
0000
0000
0000
1000
0001
1000
0000
1001
0000
0000
0000
0000
0000
0000
0000
,  // measure 52
0000
0000
0000
0000
0001
1000
0001
0000
1000
0000
0000
1010
0000
0000
0010
0000
,  // measure 53
0000
0110
0000
0000
0100
0001
1000
0000
0010
0000
0000
0110
0000
0000
1000
0000
,  // measure 54
0000
1010
0000
0000
1000
0001
1000
0000
1000
1000
0000
0001
0001
0000
1000
1000
,  // measure 55
0000
0001
0001
0000
1000
0010
0100
0001
1000
1000
0000
0001
0001
0000
1000
1000
,  // measure 56
0000
0001
0001
0000
1000
0000
0001
0000
1000
0010
0000
0100
0001
0000
1000
0010
,  // measure 57
0000
1000
0001
0000
1000
0001
0100
0010
1000
0100
0000
0010
0001
0000
1000
0001
,  // measure 58
0000
1000
0000
0000
0001
0000
1000
0000
1001
0000
0000
0000
0000
0000
1000
0000
,  // measure 59
0001
0000
1000
0000
0010
0000
0100
0000
0002
0000
0000
1000
0000
0000
1000
0000
,  // measure 60
0000
1003
0000
0000
1000
0000
0001
0000
1001
0000
0000
0000
0000
0000
0001
0000
,  // measure 61
1000
0000
0001
0000
0010
0000
0100
0000
2000
0000
0000
0001
0000
0000
0001
0000
,  // measure 62
0000
3001
0000
0000
0001
0000
1000
0000
0110
0000
0000
0000
0000
0000
0100
0000
,  // measure 63
0010
0000
0001
0000
1000
0000
0010
0000
2000
0000
0000
0001
0000
0000
0100
0000
,  // measure 64
3000
0001
0000
0000
0001
0000
0000
0000
1000
0010
0000
0100
0001
0000
1000
0010
,  // measure 65
0000
0100
0001
0000
1000
0001
0100
0010
1000
0001
0000
1000
0001
0000
0100
0010
,  // measure 66
0000
0010
1000
0000
0001
0000
1000
0000
2002
0000
0000
0000
0000
0000
0000
0000
,  // measure 67
3003
0000
0000
0000
;
