#TITLE:1&Only;
#SUBTITLE:;
#ARTIST:엑스러브;
#TITLETRANSLIT:;
#SUBTITLETRANSLIT:;
#ARTISTTRANSLIT:XLOV;
#GENRE:K-Pop;
#CREDIT:257 Entertainment;
#MUSIC:1&Only.ogg;
#BANNER:1&Only.png;
#BACKGROUND:1&Only-bg.png;
#LYRICSPATH:1&Only.lrc;
#CDTITLE:Wrland Season 4 bergtour.png;
#SAMPLESTART:27.056321;
#SAMPLELENGTH:15;
#SELECTABLE:YES;
#OFFSET:0.000000;
#BPMS:0.000000=112.000000;
#STOPS:0.000000=0.270607;
#DISPLAYBPM:112.000000;
#JACKET:1&Only-jacket.png;
#DISCIMAGE:;
#CDIMAGE:;
#TAGS:DMCA;
#BGCHANGES:0.000000=1&Only.mp4=0.000000=0=0=0=StretchNoLoop====,
99999.000000=-nosongbg-=1.000000=0=0=0=StretchNoLoop====
;
#FGCHANGES:;

//--------------- dance-single - bSP - 1 ----------------
#NOTES:
     dance-single:
     bSP - 1:
     Beginner:
     1:
     0,0,0,0,0:
0000
0000
0000
0000
,
0000
0000
0000
0000
,
0000
0000
0000
0000
,
0000
0000
0000
0000
,
0000
0000
2000
0000
,
0000
0000
3000
0000
,
0000
0000
0002
0000
,
0000
0000
0003
0000
,
0000
0000
1000
0000
,
0000
0000
1001
0000
,
0000
0000
0001
0000
,
0000
0000
1001
0000
,
0000
0000
0000
0000
,
0010
0010
0010
0000
,
0000
0000
0000
0000
,
0100
0100
0100
0000
,
0000
0000
0000
0000
,
1000
0000
0000
0000
,
0001
0000
0000
0000
,
1000
0000
0000
0000
,
0001
0000
0000
0000
,
1000
1000
0000
0000
,
0001
0001
0000
0000
,
0010
0010
0000
0000
,
0100
0100
0000
0000
,
0010
0010
0000
0000
,
0001
0001
2000
0000
,
0000
3000
0002
0000
,
0000
0003
0000
0000
,
0000
0000
0000
0000
,
0000
0000
0000
0000
,
0000
0000
0000
0000
,
0000
0000
0000
0000
,
0010
0010
0010
0000
,
0000
0000
0000
0000
,
0100
0100
0100
0000
,
0000
0000
0000
0000
,
1000
0000
0000
0000
,
0001
0000
0000
0000
,
1000
0000
0000
0000
,
0001
0000
0000
0000
,
1000
1000
0000
0000
,
0001
0001
0000
0000
,
0010
0010
0000
0000
,
0100
0100
0000
0000
,
0010
0010
0000
0000
,
0001
0001
2000
0000
,
0000
3000
0002
0000
,
0000
0003
0000
0000
;

//--------------- dance-single - BSP - 4 ----------------
#NOTES:
     dance-single:
     BSP - 4:
     Easy:
     4:
     0,0,0,0,0:
0000
0000
0000
0000
,
0000
0000
0000
0000
,
0000
0000
0000
0000
,
0000
0000
0000
0000
,
0000
0000
0000
1000
,
0000
0001
0000
1000
,
1000
1000
0000
0001
,
0000
1000
0000
0001
,
0010
0100
0000
0000
,
0020
0000
0000
0000
,
0030
0000
0200
0000
,
0000
0000
0300
0000
,
0000
0000
1000
0000
,
0001
0001
0001
0000
,
0000
0000
1000
0000
,
1000
1000
1000
0000
,
0000
0000
0001
0000
,
1000
0001
1000
0000
,
0000
0000
0010
0000
,
1000
0010
1000
0000
,
0000
0000
0001
0000
,
0100
0001
0100
0000
,
0010
0100
0001
0000
,
1000
0100
1000
0000
,
0001
0100
0001
0000
,
1000
0010
1000
0000
,
1000
0001
1000
0100
,
0010
0000
0001
0010
,
0100
0000
2002
0000
,
3003
0000
0000
0000
,
0000
0000
0000
0000
,
0000
0000
0000
0000
,
0000
0000
0001
0000
,
1000
1000
1000
0000
,
0000
0000
0001
0000
,
0001
0001
0001
0000
,
0000
0000
1000
0000
,
0001
1000
0001
0000
,
0000
0000
0100
0000
,
0001
0100
0001
0000
,
0000
0000
1000
0000
,
0010
1000
0010
0000
,
0100
0010
1000
0000
,
0001
0010
0001
0000
,
1000
0010
1000
0000
,
0001
0100
0001
0000
,
0001
1000
0001
0010
,
0001
0000
1000
0100
,
1000
0000
2000
0000
,
3001
0000
0000
0000
;

//--------------- dance-single - DSP - 8 ----------------
#NOTES:
     dance-single:
     DSP - 8:
     Medium:
     8:
     0,0,0,0,0:
0000
0000
0000
0000
,
0000
0000
0000
0000
,
0000
0000
0000
0000
,
0000
0000
0000
0000
,
0000
0000
0000
0000
0000
0000
0000
0000
1000
0000
0000
1000
0001
0000
1000
0000
,
0000
0000
0001
0000
1000
0000
0000
0000
0001
0000
0000
0001
1000
0000
0001
0000
,
0000
0000
1000
0000
0001
0000
0000
0000
1000
0000
0000
0010
1000
0000
0001
0000
,
0000
0000
1000
0000
0001
0000
0000
0000
0001
0000
0000
0100
0001
0000
0100
0000
,
0000
0001
0100
0000
0001
0000
0001
0000
,
2000
3000
1000
1000
,
0002
0000
0000
0003
0000
0000
0000
0000
0001
0000
0000
0000
0001
0000
0000
0000
,
2000
3000
1000
1000
,
1001
0000
2000
3000
,
1000
0000
0000
0000
0001
0000
1000
0000
0000
0000
0001
1000
0001
0000
0000
0000
,
2000
0000
0000
3000
0002
0000
0003
0000
,
0001
0000
0000
0000
1000
0000
0001
0000
0000
0000
1000
0001
1000
0000
0000
0000
,
0002
0000
0000
0003
1000
0000
0001
0000
,
0100
0000
0000
0010
0000
0000
1000
0000
0000
0000
0010
0000
0100
0000
0000
0000
,
0001
0000
0000
1000
0000
0000
0001
0000
0002
0000
0000
0000
1003
0000
0000
0000
,
0001
0000
1000
0001
1000
0000
0001
0000
2000
0000
0000
0000
3001
0000
0000
0000
,
1000
0000
0001
1000
0001
0000
1000
0000
0001
0000
0000
0100
0010
0000
0000
0000
,
0000
0010
0100
0000
0000
0001
1000
0000
,
0000
0000
1000
0000
0001
0000
0000
0000
1000
0010
0100
0001
1000
0000
0000
0000
,
0001
0100
0010
1000
0001
0000
0000
0000
1000
0000
0010
0000
0100
0000
0000
0000
,
0010
0000
1000
0000
0100
0000
0000
0000
1000
0000
0000
0010
0100
0000
0000
0000
,
0000
0100
0010
0000
0000
1000
0001
0000
,
0000
0001
1000
0000
1000
0010
0100
0001
,
1000
0010
0100
0001
1000
0000
2000
0000
0000
3000
0001
0000
1000
0000
0000
0000
,
0010
0100
0001
2000
0000
0000
0000
0000
,
0000
3000
0002
0000
,
0000
0003
2000
0000
,
0000
3000
0002
0000
,
0000
0003
0002
0003
,
0001
0000
0000
0000
1000
0000
0001
0000
0000
0000
1000
0001
1000
0000
0000
0000
,
0002
0000
0000
0003
2000
0000
3000
0000
,
1000
0000
0000
0000
0001
0000
1000
0000
0000
0000
0001
1000
0001
0000
0000
0000
,
2000
0000
0000
3000
0001
0000
1000
0000
,
0010
0000
0000
0100
0000
0000
0001
0000
0000
0000
0100
0000
0010
0000
0000
0000
,
1000
0000
0000
0001
0000
0000
1000
0000
2000
0000
0000
0000
3001
0000
0000
0000
,
1000
0000
0001
1000
0001
0000
1000
0000
0002
0000
0000
0000
1003
0000
0000
0000
,
0001
0000
1000
0001
1000
0000
0001
0000
1000
0000
0000
0010
0100
0000
0000
0000
,
0000
0100
0010
0000
0000
1000
0001
0000
,
0000
0000
0001
0000
1000
0000
0000
0000
0001
0100
0010
1000
0001
0000
0000
0000
,
1000
0010
0100
0001
1000
0000
0000
0000
0001
0000
0100
0000
0010
0000
0000
0000
,
0100
0000
0001
0000
0010
0000
0000
0000
0001
0000
0000
0100
0010
0000
0000
0000
,
0000
0010
0100
0000
0000
0001
1000
0000
,
0000
1000
0001
0000
0001
0100
0010
1000
,
0001
0100
0010
1000
0001
0000
2000
0000
3000
0000
0001
0000
1000
0000
0000
0000
,
0010
0100
0001
2000
0000
0000
0000
0000
,
3001
0000
0000
0000
;

//--------------- dance-single - ESP - 11 ----------------
#NOTES:
     dance-single:
     ESP - 11:
     Hard:
     11:
     0,0,0,0,0:
0000
0000
0000
0000
,
0000
0000
0000
0000
,
0000
0000
0000
0000
,
0000
0000
0000
0000
,
0000
0000
0000
2000
,
3000
0000
0001
0000
1000
0000
0010
0000
0100
0001
1000
0001
1000
0000
0010
0000
,
0100
0000
0001
0000
1000
0000
0010
0000
2000
0000
0000
0001
0001
0000
3001
0000
,
0000
0000
0001
0000
1000
0000
0001
0000
2000
0000
0000
0001
0001
0000
3001
0000
,
0000
0001
1000
0001
2000
0000
0010
0000
,
3001
0000
0002
0010
,
1003
0000
2000
0010
,
3001
0000
0000
0000
1000
0001
2000
0000
,
0002
0000
0000
0000
3003
1000
0000
0000
,
2000
0000
0010
0000
0100
0000
0001
0000
3000
0000
0001
1000
0001
0000
0000
0000
,
1000
0001
0100
0010
1000
0001
0000
1000
,
0002
0000
0010
0000
1000
0000
0100
0000
0003
0000
1000
0010
1000
0000
0001
0000
,
1000
0100
0010
0001
0000
1000
0001
1000
,
0002
0000
0003
2000
0000
3000
0020
0000
0030
0000
0100
0000
0001
0000
0100
0000
,
0010
0000
1000
0001
0100
0000
0001
0000
2000
0000
0000
0000
3001
0000
0000
0000
,
0001
0000
0100
0010
1000
0000
0001
0000
2000
0000
0000
0000
3001
0000
1000
0000
,
0001
0000
0100
0010
1000
0000
0001
0000
1000
0000
0000
1000
0001
0000
0000
0000
,
0000
0000
0001
1000
0001
0000
0000
0000
0000
0000
1000
0010
0001
0000
0000
0000
,
0001
0000
1000
0010
0100
0000
0000
0000
0010
1000
0100
1000
0001
0000
0000
0000
,
0100
0001
0010
0001
1000
0000
0000
0000
0000
0000
1000
0000
0001
0000
0000
0000
,
0001
1000
0010
0100
0001
0000
0000
0000
0001
0000
0000
0001
1000
0000
0000
0000
,
0000
0000
1000
0001
1000
0000
0000
0000
0000
0000
0001
0100
1000
0000
0000
0000
,
1000
0000
0001
0100
0010
0000
1000
0000
0020
0030
0200
0300
0002
0003
0200
0300
,
0020
0030
2000
3000
0002
0003
2000
0000
0000
3000
0002
0003
2000
3000
0200
0300
,
0020
0030
0002
0003
2000
0000
0002
0000
0000
0000
0000
0000
0000
0000
0000
0000
,
0000
3003
0000
0000
,
0000
0000
0000
0000
0000
0000
0000
0000
1000
0000
0000
1000
0001
0000
1000
0000
,
0001
0000
0000
0000
0100
0000
0000
0000
0010
0000
0000
0100
0001
0000
0100
0000
,
0000
0010
1000
0000
0000
1000
0000
0000
,
2000
0000
0010
0000
0100
0000
0001
0000
3000
0000
0001
1000
0001
0000
0000
0000
,
1000
0001
0100
0010
1000
0001
0000
1000
,
0002
0000
0010
0000
1000
0000
0100
0000
0003
0000
1000
0010
1000
0000
0001
0000
,
1000
0100
0010
0001
0000
1000
0001
1000
,
0002
0000
0003
2000
0000
3000
0020
0000
0030
0000
0100
0000
0001
0000
0100
0000
,
0010
0000
1000
0001
0100
0000
0001
0000
2000
0000
0000
0000
3001
0000
0000
0000
,
0001
0000
0100
0010
1000
0000
0001
0000
2000
0000
0000
0000
3001
0000
1000
0000
,
0001
0000
0100
0010
1000
0000
0001
0000
1000
0000
0000
1000
0001
0000
0000
0000
,
0000
0000
0001
1000
0001
0000
0000
0000
0000
0000
1000
0010
0001
0000
0000
0000
,
0001
0000
1000
0010
0100
0000
0000
0000
0010
1000
0100
1000
0001
0000
0000
0000
,
0100
0001
0010
0001
1000
0000
0000
0000
0000
0000
1000
0000
0001
0000
0000
0000
,
0001
1000
0010
0100
0001
0000
0000
0000
0001
0000
0000
0001
1000
0000
0000
0000
,
0000
0000
1000
0001
1000
0000
0000
0000
0000
0000
0001
0100
1000
0000
0000
0000
,
1000
0000
0001
0100
0010
0000
1000
0000
0020
0030
0200
0300
0002
0003
0200
0300
,
0020
0030
2000
3000
0002
0003
2000
0000
0000
3000
0002
0003
2000
3000
0200
0300
,
0020
0030
0002
0003
2000
0000
0002
0000
0000
0000
0000
0000
0000
0000
0000
0000
,
0000
3003
0000
0000
;
