#VERSION:0.83;
#TITLE:traveling;
#SUBTITLE:;
#ARTIST:宇多田ヒカル;
#TITLETRANSLIT:;
#SUBTITLETRANSLIT:;
#ARTISTTRANSLIT:Utada Hikaru;
#GENRE:J-Pop;
#CREDIT:Wrland;
#MUSIC:traveling.ogg;
#BANNER:traveling.png;
#BACKGROUND:traveling-bg.png;
#LYRICSPATH:traveling.lrc;
#CDTITLE:DanceDanceRevolution Jake 9 Chargin' Powers.png;
#SAMPLESTART:82.057;
#SAMPLELENGTH:12.000;
#SELECTABLE:YES;
#OFFSET:-0.006;
#BPMS:0.000=117.000;
#STOPS:;
#DISPLAYBPM:117.000;
#JACKET:traveling-jacket.png;
#CDIMAGE:traveling-cd.png;
#BGCHANGES:0.000=traveling.avi=1.000=0=0=0=StretchNoLoop====,
99999.000=-nosongbg-=1.000=0=0=0=StretchNoLoop====
;
#FGCHANGES:;

//--------------- dance-single - Wrland ----------------
#NOTEDATA:;
#STEPSTYPE:dance-single;
#DESCRIPTION:Wrland;
#DIFFICULTY:Beginner;
#METER:2;
#RADARVALUES:0,0,0,0,0;
#NOTES:
0000
0000
0000
0000
,
0000
0000
0000
0000
,
0000
0000
0000
0000
,
0000
0000
0000
0000
,
0000
0000
0000
0000
,
0000
0000
0000
0000
,
0000
0000
0000
0000
,
0000
0000
0000
0000
,
0100
0000
0000
0000
,
0000
0000
0000
0000
,
0100
0000
0000
0000
,
0000
0000
0000
0000
,
0010
0000
0000
0000
,
0000
0000
0000
0000
,
0001
0000
0000
0000
,
0000
0000
0000
0000
,
1000
0000
0000
0000
,
0000
0000
0000
0000
,
0010
0000
0000
0000
,
0000
0000
0000
0000
,
0100
0000
0000
0000
,
0000
0000
0000
0000
,
0010
0000
0000
0000
,
0000
0000
0000
0000
,
0001
0000
0000
0000
,
0000
0000
0000
0000
,
0010
0000
0000
0000
,
0000
0000
0000
0000
,
0001
0000
0000
0000
,
0000
0000
0000
0000
,
0100
0000
0000
0000
,
0000
0000
0000
0000
,
0000
1000
1000
1000
0000
0010
0010
0010
,
0000
0100
0100
0100
0000
1000
1000
1000
,
0000
0010
0010
0010
0000
0001
0001
0001
,
0000
0010
0010
0010
0000
0100
0100
0100
,
0000
1000
1000
1000
0000
0100
0100
0100
,
0000
1000
1000
1000
0000
0010
0010
0010
,
0000
0100
0100
0100
0000
0010
0010
0010
,
0000
0100
0100
0100
0000
0001
0001
0001
,
2000
3000
1000
0100
,
2000
3000
0100
0010
,
0200
0300
0100
0100
,
0020
0030
0001
0000
,
0020
0030
0100
0100
,
2000
3000
0100
1000
,
0200
0300
0020
0030
,
0200
0300
0020
0030
,
0002
0003
0010
0001
,
0020
0030
0100
0010
,
0200
0300
2000
3000
,
0200
0300
2000
3000
,
0200
0300
0010
0100
,
0020
0030
0002
0003
,
0200
0300
0020
0030
,
0200
0300
0020
0030
,
0110
0000
0000
0000
;

//--------------- dance-single - Wrland ----------------
#NOTEDATA:;
#STEPSTYPE:dance-single;
#DESCRIPTION:Wrland;
#DIFFICULTY:Easy;
#METER:4;
#RADARVALUES:0,0,0,0,0;
#NOTES:
0000
0000
0000
0000
,
0000
0000
0000
0000
,
0000
0000
0000
0000
,
0000
0000
0000
0000
,
0000
0000
0000
0000
,
0000
0000
0000
0000
,
0000
0000
0000
0000
,
0000
0000
0000
0000
,
1000
0000
1000
0000
,
0100
0000
1000
0000
,
1000
0000
0100
0000
,
0010
0000
0001
0000
,
0010
0000
0100
0000
,
1000
0000
0100
0000
,
1000
0000
0100
0000
,
0010
0000
0100
0100
,
0010
0000
0100
0000
,
1000
0000
0001
0000
,
0100
0000
0010
0000
,
0100
0000
1000
0000
,
0100
0000
1000
0000
,
0100
0000
1000
0000
,
0100
0000
0010
0000
,
0100
0000
0010
0000
,
0001
0000
0001
0000
,
0010
0000
0100
0000
,
1000
0000
1000
0000
,
0100
0000
0010
0000
,
0100
0000
0100
0000
,
1000
0000
1000
0000
,
0100
0000
0010
0000
,
0001
0000
0100
0000
,
0100
0001
0100
0001
0000
0010
1000
0010
,
0000
0100
0010
0100
0000
1000
0100
1000
,
0000
1000
1000
1000
0000
0100
0100
0100
,
0000
0010
0010
0010
0000
0001
0100
0001
,
0001
0100
0001
0100
0000
0010
0010
0010
,
0000
0100
0100
0100
0000
1000
1000
1000
,
0000
0100
0100
0100
0000
1000
1000
1000
,
0000
0100
0010
0100
0110
0110
0110
0110
,
0202
0000
0303
0010
0100
0000
0000
0000
,
2200
0000
3300
0100
0010
0000
0000
0000
,
0100
0010
0100
0010
,
0001
0100
0010
0000
,
2200
0000
3300
0100
0010
0000
0000
0000
,
0202
0000
0303
0010
0100
0000
0000
0000
,
0100
0010
0001
0010
,
0100
1000
0000
0100
1000
0000
0000
0000
,
2200
0000
3300
0100
0010
0000
0000
0000
,
0022
0000
0033
0001
0010
0000
0000
0000
,
0100
0000
0010
0000
0100
0000
0010
0100
,
0010
0000
0000
0100
1000
0000
0000
0000
,
2200
0000
3300
0100
0010
0000
0000
0000
,
0202
0000
0303
0010
0100
0000
0000
0000
,
0010
0000
0100
0000
0010
0000
0001
0100
,
0020
0000
0030
0100
2000
0000
3000
0000
,
1001
0000
0000
0000
;

//--------------- dance-single - Wrland ----------------
#NOTEDATA:;
#STEPSTYPE:dance-single;
#DESCRIPTION:Wrland;
#DIFFICULTY:Medium;
#METER:7;
#RADARVALUES:0,0,0,0,0;
#NOTES:
0000
0000
0000
0000
,
0000
0000
0000
0000
,
0000
0000
0000
0000
,
0000
0000
0000
0000
,
0000
0000
0000
0000
,
0000
0000
0000
0000
,
0000
0000
0000
0000
,
0000
0000
0000
0000
,
1000
0100
1000
0100
,
0010
0100
0010
0001
,
0100
0001
0100
0000
0010
0100
0010
0000
,
0100
1000
0100
0000
1000
0100
0010
0000
,
0100
0010
0001
0010
,
0100
1000
0100
1000
,
0100
0010
0001
0010
,
0100
0000
0010
0000
0100
0010
0100
0000
,
0020
0030
0100
0000
0010
0000
0001
0000
,
0100
1000
0100
0020
0000
0030
0000
0000
,
0200
0300
1000
0000
0100
0000
1000
0000
,
0200
0000
0300
0000
0100
0010
0100
0000
,
0010
0001
0010
0100
,
0010
1000
0001
0200
0000
0300
0000
0000
,
0200
0300
1000
0000
0100
0000
1000
0000
,
0100
0010
0100
0010
,
0001
0001
0002
0003
1000
1000
2000
3000
,
0100
1000
0100
2000
0000
3000
0000
0000
,
0200
0300
0020
0030
0200
0300
0020
0030
,
0002
0003
0200
0300
0002
0003
0200
0300
,
0010
0100
0010
0000
0100
1000
0100
0000
,
0010
0100
0020
0030
0001
0100
0002
0003
,
0010
0100
1000
0100
,
2000
3000
0200
0300
0020
0030
0200
0300
,
0010
0100
0010
0200
0300
0001
0100
0002
,
0003
0010
0100
0020
0030
1000
0100
2000
,
3000
1000
0100
2000
3000
0100
0010
0200
,
0300
0001
0100
0002
0003
0010
0100
0020
,
0030
0100
1000
0200
0300
1000
1000
2000
,
3000
0001
0001
0002
0003
0010
0010
0020
,
0030
0100
0100
0200
0300
1000
1000
1000
,
0100
0010
0001
0100
0101
0101
1010
1010
,
0200
0000
0000
0000
0300
0000
0010
0100
0000
0000
0010
0000
0100
0000
0010
0000
,
0002
0000
0000
0000
0003
0000
0001
0100
0000
0000
0100
0000
0010
0000
0100
0000
,
0020
0030
1000
0100
2000
3000
0100
0010
,
0002
0000
0000
0000
0003
0000
0100
0010
0200
0000
0000
0000
0300
0000
0000
0000
,
0220
0000
0000
0000
0330
0000
1000
0100
0000
0000
0100
0000
0010
0000
0001
0000
,
0202
0000
0000
0000
0303
0000
0010
1000
0000
0000
0100
0000
1000
0000
0100
0000
,
0020
0030
0200
0300
0002
0003
0100
0010
,
0200
0000
0300
0000
1000
0000
0100
1000
0100
0000
0000
0000
0100
0000
0010
0000
,
0002
0000
0000
0000
0003
0000
0100
0001
0000
0000
0010
0000
0100
0000
0010
0000
,
0200
0000
0300
0000
0100
0000
1000
0100
0000
0000
0010
0000
0100
0000
0010
0000
,
0002
0003
0200
0300
0001
0000
0010
0100
,
0010
0000
0000
0000
0100
0000
1000
0100
2000
0000
0000
0000
3000
0000
0000
0000
,
0200
0000
0000
0000
0300
0000
0010
0100
0000
0000
0001
0000
0100
0000
0001
0000
,
0200
0000
0000
0000
0300
0000
0001
0100
0000
0000
0010
0000
0100
0000
0010
0000
,
0002
0003
0020
0030
0200
0300
1000
0100
,
2000
0000
3000
0000
0100
0000
0010
0100
0020
0000
0000
0000
0030
0000
0000
0000
,
0110
0000
0000
0000
;

//--------------- dance-single - Wrland ----------------
#NOTEDATA:;
#STEPSTYPE:dance-single;
#DESCRIPTION:Wrland;
#DIFFICULTY:Hard;
#METER:10;
#RADARVALUES:0,0,0,0,0;
#NOTES:
0000
0000
0000
0000
,
0000
0000
0000
0000
,
0000
0000
0000
0000
,
0000
0000
0000
0000
,
1000
0001
1000
0001
1000
0001
1000
0000
,
0100
1000
0100
1000
0100
1000
0100
0000
,
0100
0010
0100
0010
0100
0010
0100
0000
,
0101
0000
0101
0000
1010
0000
1010
0000
1000
0010
1000
0010
1000
0000
0000
0000
,
0101
0010
0100
1000
0000
1000
0100
1000
,
0000
0000
0100
0000
0010
0000
0001
0000
0000
0000
0100
0000
0010
0100
0010
0000
,
0001
0100
0001
0100
0000
0010
0100
0010
,
0000
0100
1000
0100
0010
0100
0110
0110
,
0000
0001
0100
0001
0000
0010
0100
0010
,
0000
1000
0100
1000
0000
0100
0010
0100
,
0000
0001
0100
0001
0000
0010
0100
0010
,
0110
0000
0110
0000
1001
0000
1001
0000
0100
0000
0010
0000
0100
0000
0010
0100
,
0002
0003
0010
0200
0300
1000
0100
1000
,
0100
0010
0001
0200
0000
0300
0000
0000
,
0200
0000
0300
2000
0000
3000
0200
0300
,
0010
0001
0100
0010
0100
0010
0200
0300
,
2000
3000
0100
2000
3000
0100
0010
0001
,
0100
0001
0100
0001
0100
1000
0100
1000
,
2000
0000
3000
0200
0000
0300
0020
0030
,
0200
0300
0020
0030
0002
0003
0100
0000
,
0100
0000
0100
0002
0003
0100
1000
0100
,
0010
0001
0100
0020
0000
0000
0030
0000
,
0200
0000
0300
2000
0000
3000
0200
0300
,
0020
0030
0002
0003
0200
0300
0020
0030
,
0200
0300
1000
0200
0300
1000
0100
1000
,
0100
0001
0100
0002
0000
0000
0003
0000
,
0020
0000
0030
0200
0000
0300
2000
3000
,
0200
0300
2000
3000
0100
1000
0200
0300
,
1000
1000
1000
1100
0000
0100
0100
0110
,
0000
0001
0001
0011
0000
0001
0001
0011
,
0000
0010
0010
0110
0000
0100
0100
1100
,
0000
1000
1000
1100
0000
1000
1000
1100
,
0000
0100
0100
0110
0000
0001
0001
0101
,
0000
0010
0010
0110
0000
0100
0100
1100
,
0000
1000
1000
1100
0000
0100
0100
0110
,
0000
0001
0001
0101
0101
0101
1010
1010
,
2000
0000
0000
0000
3000
0000
0001
1000
0000
0000
0100
0000
1000
0000
0100
0000
,
2000
0000
0000
0000
3000
0000
0100
1000
0000
0000
0100
0000
0010
0000
0001
0000
,
0200
0000
0300
0000
0010
0000
0100
0010
0000
0000
0001
0000
0100
0000
0010
0000
,
0200
0000
0300
0000
0010
0000
0100
0010
0200
0000
0300
0000
0100
0000
1000
0000
,
0200
0000
0000
0000
0300
0000
1000
0100
0000
0000
0010
0000
0001
0000
0100
0000
,
0002
0000
0000
0000
0003
0000
0100
0010
0000
0000
0100
0000
1000
0000
0100
0000
,
0020
0000
0030
0000
0001
0000
0100
0001
0000
0000
0010
0000
0100
0000
1000
0000
,
0200
0000
0300
0000
1000
0000
0100
1000
0200
0000
0300
0000
0100
0000
0010
0000
,
0002
0000
0000
0000
0003
0000
0100
0001
0000
0000
0010
0000
0100
0000
0010
0000
,
0200
0000
0000
0000
0300
0000
1000
0100
0000
0000
0100
0000
0010
0000
0001
0000
,
0200
0000
0300
0000
0010
0000
0100
0010
0000
0000
0001
0000
0100
0000
0010
0000
,
0200
0000
0300
0000
0010
0000
0100
0010
0200
0000
0300
0000
1000
0000
0100
0000
,
2000
0000
3000
0000
0100
0000
1000
0100
0000
0000
0010
0000
0001
0000
0100
0000
,
0002
0000
0003
0000
0100
0000
0001
0100
0000
0000
0010
0000
0100
0000
0010
0000
,
0200
0000
0300
0000
1000
0000
0100
1000
0000
0000
0100
0000
0010
0000
0001
0000
,
0100
0000
0010
0000
0100
0000
0010
0100
0020
0000
0030
0000
0100
0000
0010
0000
,
1001
0000
0000
0000
;
