#TITLE:tiny days;
#SUBTITLE:;
#ARTIST:川田まみ;
#TITLETRANSLIT:;
#SUBTITLETRANSLIT:;
#ARTISTTRANSLIT:Mami Kawada;
#GENRE:J-Pop;
#CREDIT:Wrland;
#MUSIC:tiny days.ogg;
#BANNER:tiny days.png;
#BACKGROUND:tiny days-bg.png;
#CDTITLE:Wrland Season 3 CITYGHT + last one night.png;
#SAMPLESTART:62.813;
#SAMPLELENGTH:12.000;
#SELECTABLE:YES;
#OFFSET:-11.284;
#BPMS:0.000=85.000;
#STOPS:;
#DISPLAYBPM:85.000;
#METERTYPE:DDR X;
#JACKET:tiny days-jacket.png;
#CDIMAGE:tiny days-cd.png;
#BGCHANGES:;
#FGCHANGES:;

//--------------- dance-single - Wrland ----------------
#NOTES:
     dance-single:
     Wrland:
     Beginner:
     2:
     0,0,0,0,0:
0000
0000
0000
0000
,
0000
0000
0000
0000
,
0100
0000
0000
0000
,
0100
0000
0000
0000
,
0010
0000
0000
0000
,
0001
0000
0000
0000
,
1000
0000
0000
0000
,
0100
0000
0000
0000
,
1000
0000
0000
0000
,
0010
0000
0000
0000
,
0001
0000
0000
0000
,
0100
0000
0000
0000
,
1000
0000
0000
0000
,
0100
0000
0000
0000
,
0010
0000
0000
0000
,
0100
0000
0000
0000
,
0000
1000
0001
2002
,
0000
0000
0000
3003
,
0100
0000
0000
0000
,
0010
0000
0000
0000
0000
0000
0000
1000
,
0000
0000
0000
0000
,
0100
0000
0000
0000
,
0010
0000
0000
0000
,
0100
0000
0000
0000
,
0010
0000
0000
0000
,
0001
0000
0000
0000
,
0100
0000
0000
0000
,
1000
0000
0000
0000
0000
0000
0000
0100
,
0000
0000
0000
0000
,
0010
0000
0000
0000
,
0100
0000
0000
0000
,
0100
0000
0000
0000
,
0010
0000
0000
0000
,
0001
0000
1000
0001
,
2002
0000
0000
3003
,
0100
0000
0000
0000
,
1000
0000
0000
0000
,
0010
0000
0000
0000
,
0100
0000
0000
0000
,
0010
0000
0000
0000
,
0001
0000
0000
0000
,
1000
0000
0000
0000
,
2002
0000
0000
0000
,
3003
0000
0000
0000
;

//--------------- dance-single - Wrland ----------------
#NOTES:
     dance-single:
     Wrland:
     Easy:
     4:
     0,0,0,0,0:
0000
0000
0000
0000
,
0000
0000
0000
0000
,
0100
0000
1000
0000
,
0100
0000
0010
0000
,
0001
0000
0010
0000
,
0100
0000
0000
2002
0000
0000
3003
0000
,
0100
0000
1000
0000
,
0100
0000
0010
0000
,
0101
0000
0010
0000
,
1000
0000
0100
0000
,
1000
0000
0000
1000
0000
0000
0000
0000
,
0100
0010
0100
0010
,
0001
0000
0100
0000
,
0010
0000
0100
0000
,
1000
0000
0100
0000
,
1000
0000
0001
0000
,
0010
0010
0100
0220
,
0000
0000
0000
0330
,
0100
0000
1000
0000
,
0100
0000
0000
0100
0000
0010
0000
1001
,
0000
0000
0000
0100
0000
0000
0000
0010
,
0000
0000
0100
0010
,
0101
0000
1000
0100
,
0110
0000
0010
0001
,
0101
0000
0000
1000
0000
0000
0000
0000
,
0100
1000
0100
0010
,
0001
0000
0000
0100
0000
0000
0000
0000
,
0010
0000
0000
0100
0000
0010
0000
0101
,
0000
0000
0000
0100
0000
1000
0000
1010
,
0000
0000
0000
0000
0000
0000
0000
0000
0100
0000
0000
0000
1000
0000
0100
0010
,
0000
0000
0000
0000
0000
0000
0000
0000
0100
0000
0000
0000
0010
0000
0001
0100
,
0000
0000
0000
0000
0000
0000
0010
0000
0000
0000
0100
0000
0000
0000
0010
0100
,
0000
0010
0002
0000
0000
0000
0000
0000
0000
0000
0000
0000
0000
0000
0000
0000
,
0003
0000
1100
0110
,
0202
0000
0000
0000
,
0000
0000
0000
0303
,
0100
0010
0100
0000
,
0001
1000
0001
0000
,
1000
0100
1000
0000
,
0100
1000
0100
0000
,
0010
0001
0010
0000
,
0100
0010
0100
0000
,
0220
0000
0000
0000
,
0330
0000
0000
0000
;

//--------------- dance-single - Wrland ----------------
#NOTES:
     dance-single:
     Wrland:
     Medium:
     6:
     0,0,0,0,0:
0000
0000
0000
0000
,
0000
0000
0000
0000
,
2000
0000
0000
0000
3000
0000
0100
2000
0000
3000
0100
0000
0010
0000
0100
0000
,
0010
0000
0001
0100
0000
0010
0200
0000
0300
0000
0010
0000
0100
0000
0020
0000
,
0000
0030
0000
0000
0100
0000
1000
0000
0100
0000
0010
0000
0100
0000
0010
0100
,
0000
0010
0002
0000
0003
0000
0202
0000
0000
0000
0000
0000
0303
0000
0000
0000
,
0010
0000
0000
0000
0100
0000
0010
0000
0000
0000
0001
0000
0010
0000
0100
0020
,
0000
0000
0000
0000
0030
0000
1000
0000
0100
0000
0010
0000
0100
0010
0000
0000
,
0200
0000
0000
0000
0300
0000
0100
0010
0000
0000
0001
0000
0100
0000
0010
0100
,
0000
0000
0100
0010
0000
0010
0100
0000
0000
0000
0001
0000
1000
0001
0000
0000
,
0200
0000
0000
0000
0300
0000
2000
0000
3000
0000
0100
0000
1000
0100
0000
0000
,
0200
0000
0300
0000
0020
0000
0000
0030
0002
0000
0003
0020
0000
0030
0200
0000
,
0000
0300
0000
0000
0100
1000
0000
0100
0000
0000
0010
0000
0100
0020
0000
0030
,
0002
0000
0000
0003
2000
0000
0000
3000
0020
0000
0000
0030
0200
0000
0300
0000
,
0220
0000
0330
0000
0010
0002
0003
0020
0000
0030
0100
0000
0020
0000
0000
0030
,
0100
1000
0100
2000
,
3000
0000
2200
3300
0220
0330
0022
0033
,
0100
0000
0010
0000
0100
0000
0010
0000
0001
0000
0100
0000
0010
0000
0100
1000
,
0200
0000
0000
0300
1000
0000
0200
0000
0300
0000
2000
0000
3000
0000
0100
0010
,
0000
0001
0200
0000
0300
0000
0020
0000
0030
0000
0100
0000
0010
0000
0200
0000
,
0300
0000
0010
0000
0001
0000
0200
0000
0300
0000
2000
0000
3000
0000
0100
0010
,
0002
0000
0000
0000
0003
0000
0000
0000
0010
0000
0100
0000
1000
0000
0100
2000
,
0000
0000
0000
0000
3000
0000
0100
0010
0100
0000
0010
0000
0001
0000
0100
0020
,
0000
0000
0000
0000
0030
0000
0100
0000
0010
0000
0001
0000
0100
0000
0010
0200
,
0000
0000
0300
2000
0000
0000
0000
0000
,
0000
0000
0000
0000
3000
0000
0000
0000
0100
0010
0100
0000
0010
0002
0000
0003
,
0200
0000
0000
0000
0300
0000
2000
0000
3000
0000
0200
0000
0300
0000
1000
0100
,
0000
0010
0100
0020
0000
0030
0200
0000
0300
0000
0010
0000
0001
0000
2200
0000
,
3300
0100
0010
0002
0003
2000
3000
0220
,
0000
0000
0000
0000
0330
0000
0000
0000
0100
0000
1000
0000
0100
0000
1000
0200
,
0000
0000
0000
0000
0300
0000
0100
0000
0010
0000
0001
0000
0010
0000
0001
0020
,
0000
0000
0000
0000
0030
0000
0200
0000
0300
0000
0010
0000
0100
0000
0010
0001
,
0000
0100
0020
0000
0000
0000
0000
0000
0000
0000
0000
0000
0000
0000
0000
0000
,
0030
0000
0000
0000
2002
3003
0220
0330
,
2200
0000
0000
0000
,
0000
0000
0000
3300
,
0100
0000
0010
0000
0100
0000
0010
0100
0000
0000
0001
0100
0000
0000
0000
0000
,
1000
0000
0100
0000
1000
0000
0100
1000
0000
0000
0100
0010
0000
0000
0000
0000
,
0100
0000
0010
0000
0001
0000
0100
0001
0000
0000
0010
0100
0000
0000
0000
0000
,
1000
0000
0100
0000
0001
0000
0100
0010
0000
0000
0100
0010
0000
0000
0000
0000
,
1000
0000
0000
0100
0000
0000
0010
0000
0000
0000
0001
0000
0100
0010
0000
0000
,
1000
0000
0000
0100
0000
0000
1000
0000
0000
0100
0000
0000
0010
0100
0000
0000
,
2002
0000
0000
0000
,
3003
0000
0000
0000
;

//--------------- dance-single - Wrland ----------------
#NOTES:
     dance-single:
     Wrland:
     Hard:
     9:
     0,0,0,0,0:
0000
0000
0000
0000
,
0000
0000
0000
0000
,
2000
0000
0000
3000
0100
0000
1000
0200
0000
0300
0100
0000
0010
0000
0100
0020
,
0000
0030
0001
0100
0000
0010
0200
0000
0300
0000
0100
0000
0010
0002
0000
0003
,
0200
0300
0000
0100
2000
3000
0100
0020
0000
0030
0001
0000
0010
0100
1000
0100
,
0000
1000
0200
0000
0300
0000
0220
0000
0000
0000
0000
0000
0330
0000
0001
0000
,
0100
0000
0002
0000
0000
0003
0020
0000
0030
0000
1000
0000
0100
0000
0100
0020
,
0000
0000
0000
0000
0030
0000
0200
0000
0300
0000
0010
0000
0100
0020
0000
0030
,
0002
0000
0000
0000
0003
0000
0010
0200
0000
0300
1000
0000
0100
0000
1000
0200
,
0000
0300
0010
0100
0000
0010
0200
0000
0300
0000
0001
0000
0100
0002
0000
0003
,
0020
0000
0000
0000
0030
0000
0220
0000
0330
0000
1000
0000
0001
2000
0000
0000
,
3000
0000
0000
0000
2200
0000
3300
0000
0220
0000
0330
2002
0000
3003
0220
0000
,
0000
0000
0330
0000
0100
0020
0030
0002
0003
0000
0010
0000
0100
0020
0000
0030
,
1000
0000
0100
2000
0000
3000
0200
0000
0000
0300
0010
0000
0100
0020
0000
0030
,
0002
0000
0003
0000
0010
0200
0300
2000
3000
0000
0100
0000
1000
0200
0300
0000
,
0100
0020
0030
0002
0000
0003
0010
0200
0000
0300
1000
0200
0000
0000
0300
0000
,
1000
0000
0100
0000
1100
0000
0100
0000
0110
0000
0010
0001
0022
0000
0033
0000
,
0110
0000
1001
0000
0100
0000
0010
0100
1000
0100
0010
0001
0100
0010
0100
0010
,
0220
0000
0330
0000
0100
0000
2000
0000
0000
3000
0200
0000
0000
0300
0010
0100
,
0000
0001
0200
0000
0000
0300
0020
0000
0000
0030
0100
0000
1000
0000
2200
0000
,
3300
0000
0100
0000
0010
0000
0002
0000
0000
0003
0220
0000
0330
0000
0022
0000
,
0000
0000
0000
0000
0033
0000
0000
0000
0100
0000
0010
0000
0100
0000
1000
0200
,
0000
0000
0000
0000
0300
0000
0100
0010
0001
0000
0100
0000
0010
0000
0100
2000
,
0000
0000
0000
3000
0100
0000
1000
0000
0100
0000
1000
0000
0100
0000
0010
0200
,
0000
0000
0000
0000
0300
0001
0200
0000
0000
0300
2000
0000
3000
0200
0000
0300
,
0020
0000
0000
0000
0000
0000
0030
0000
0100
0010
0100
0000
0001
2000
0000
3000
,
2200
0000
3300
0000
0100
0000
0020
0000
0000
0030
0200
0000
0000
0300
0010
0200
,
0000
0300
0001
0200
0000
0300
0020
0000
0000
0030
0100
0000
1000
0000
2200
0000
,
3300
0000
0100
0000
0010
0000
0002
0000
0000
0003
0020
0000
0030
0000
0220
0000
,
0000
0000
0000
0000
0330
0000
0000
0000
0100
0000
0010
0000
0001
0000
0100
0020
,
0000
0000
0000
0000
0030
0000
0010
0000
0100
0000
1000
0000
0100
0000
1000
0200
,
0000
0000
0000
0000
0300
0000
2000
0000
3000
0000
0100
0000
0010
0000
0100
0010
,
0000
0001
0200
0000
0300
0000
0220
0000
0000
0330
2002
0000
3003
0200
0000
0300
,
0020
0000
0000
0000
0030
0000
0000
0000
0100
0000
1000
0000
0100
0000
0001
0100
,
0010
0000
0100
0000
1000
0000
0100
1000
0100
0000
0010
0100
0010
0000
0001
0100
,
0010
0000
0100
1000
0100
0000
0010
0100
0010
0000
0001
0000
0100
0000
1000
0100
,
1000
0000
0100
0010
0001
0000
0100
0010
0100
0000
1000
0100
1000
0000
0100
0010
,
0001
0000
0100
0010
0100
0000
0010
0001
1000
0000
1001
0000
0110
0000
0100
1000
,
0100
0000
0010
0100
0010
0000
0001
0010
0001
0000
0100
0010
0100
0000
1000
0100
,
1000
0000
0100
0010
0001
0000
0100
0000
1100
0000
0110
0000
0011
0000
0001
0100
,
0100
0000
0010
0100
1000
0000
0100
0010
0001
0000
0100
0010
1000
0000
0100
0010
,
0001
0000
0100
0010
0100
0000
1000
0000
0100
0000
0110
0000
2002
0000
3003
0000
,
2002
0000
0000
0000
,
3003
0000
0000
0000
;
