#VERSION:0.83;
#TITLE:魔女達の舞踏会;
#SUBTITLE:;
#ARTIST:U2;
#TITLETRANSLIT:the witches' ball;
#SUBTITLETRANSLIT:;
#ARTISTTRANSLIT:;
#GENRE:Touhou;
#CREDIT:Wrland;
#MUSIC:the witches' ball.ogg;
#BANNER:the witches' ball.png;
#BACKGROUND:the witches' ball-bg.png;
#CDTITLE:Wrland Season 3 CITYGHT + last one night.png;
#SAMPLESTART:58.393;
#SAMPLELENGTH:12.000;
#SELECTABLE:YES;
#OFFSET:-6.501;
#BPMS:0.000=148.000;
#STOPS:;
#DISPLAYBPM:148.000;
#METERTYPE:DDR X;
#JACKET:the witches' ball-jacket.png;
#CDIMAGE:the witches' ball-cd.png;
#BGCHANGES:;
#FGCHANGES:;

//--------------- dance-single - Wrland ----------------
#NOTEDATA:;
#STEPSTYPE:dance-single;
#DESCRIPTION:Wrland;
#DIFFICULTY:Beginner;
#METER:1;
#RADARVALUES:0,0,0,0,0;
#NOTES:
0000
0000
0000
0000
,
0000
0000
0000
0000
,
0000
0000
0000
0000
,
0000
0000
0000
0000
,
1000
0000
0000
0000
,
0000
0000
0000
0000
,
0100
0000
0000
0000
,
0000
0000
0000
0000
,
0100
0000
0000
0000
,
0000
0000
0000
0000
,
0010
0000
0000
0000
,
0001
0000
1001
0000
,
0100
0000
0000
0000
,
0000
0000
0000
0000
,
1000
0000
0000
0000
,
0000
0000
0000
0000
,
0100
0000
0000
0000
,
0000
0000
0000
0000
,
0010
0000
0000
0000
,
0010
0000
0011
0000
,
0020
0000
0030
0000
,
0200
0000
0300
0000
,
2000
0000
3000
0000
,
0002
0000
0003
0000
,
0020
0000
0030
0000
,
0002
0000
0003
0000
,
0200
0000
0300
0000
,
2000
0000
3000
0000
,
0100
0000
0000
0000
,
0000
0000
0000
0000
,
1000
0000
0000
0000
,
0000
0000
0000
0000
,
0100
0000
0000
0000
,
0000
0000
0000
0000
,
0010
0000
0000
0000
,
0000
0000
0000
0000
,
0001
0000
0000
0000
,
0000
0000
0000
0000
,
0100
0000
0000
0000
,
0000
0000
0000
0000
,
1000
0000
0000
0000
,
0000
0000
0000
0000
,
0100
0000
0000
0000
,
0000
0000
0000
0000
,
0100
0000
0000
0000
,
0000
0000
0000
0000
,
0100
0000
0000
0000
,
0000
0000
0000
0000
,
0010
0000
0000
0000
,
0000
0000
0000
0000
,
0100
0000
0000
0000
,
1000
0000
1001
0000
,
0010
0000
0000
0000
,
0000
0000
0000
0000
,
0001
0000
0000
0000
,
0000
0000
0000
0000
,
1000
0000
0000
0000
,
0000
0000
0000
0000
,
0100
0000
0000
0000
,
0010
0000
0110
0000
,
0020
0000
0030
0000
,
0000
0000
0000
0000
,
0200
0000
0300
0000
,
0000
0000
0000
0000
,
0020
0000
0030
0000
,
0000
0000
0000
0000
,
0002
0000
0003
0000
,
0000
0000
0000
0000
,
1000
0000
0000
0000
,
0000
0000
0000
0000
,
0100
0000
0000
0000
,
0000
0000
0000
0000
,
1000
0000
0000
0000
,
0000
0000
0000
0000
,
0010
0000
0000
0000
,
0000
0000
0000
0000
,
0001
0000
0000
0000
,
0000
0000
0000
0000
,
1000
0000
0000
0000
,
0000
0000
0000
0000
,
0100
0000
0000
0000
;

//--------------- dance-single - Wrland ----------------
#NOTEDATA:;
#STEPSTYPE:dance-single;
#DESCRIPTION:Wrland;
#DIFFICULTY:Easy;
#METER:3;
#RADARVALUES:0,0,0,0,0;
#NOTES:
0000
0000
0000
0000
,
0000
0000
0000
0000
,
0000
0000
0000
0000
,
0000
0000
0000
0000
,
1000
0000
0000
0000
,
1000
0000
0000
0000
,
0100
0000
0000
0000
,
0100
0000
0000
0000
,
0010
0000
0000
0000
,
0011
0000
0000
0000
,
0001
0000
0000
0000
,
0100
0000
1100
0000
,
0100
0000
0000
0000
,
1000
0000
0000
0000
,
0100
0000
0000
0000
,
0010
0000
0000
0000
,
0001
0000
0000
0000
,
0110
0000
0000
0000
,
0100
0000
0000
0000
,
1000
0000
1100
0000
,
0200
0000
0300
0000
,
0020
0000
0030
0000
,
0200
0000
0000
0000
0300
0000
0000
0020
,
0000
0000
0030
0000
,
0002
0000
0003
0000
,
0200
0000
0300
0000
,
2000
0000
0000
0000
3000
0000
0000
0200
,
0000
0000
0300
0000
,
1000
0000
0000
0000
,
1000
0000
0000
0000
,
0100
0000
0000
0000
,
0010
0000
0000
0000
,
0001
0000
0010
0000
,
0100
0000
0000
0000
,
1000
0000
0100
0000
,
0010
0000
0000
0000
,
0100
0000
0000
0000
,
0100
1000
0100
0000
,
0010
0000
0000
0000
,
0001
0010
0001
0000
,
0100
0000
0000
0000
,
0100
0010
0100
0000
,
0001
0000
0000
0000
,
1001
0000
0000
0000
,
1000
0000
0000
0000
,
0100
0000
0000
0000
,
0010
0000
0000
0000
,
0001
0000
0000
0000
,
0100
0000
0000
0000
,
1100
0000
0000
0000
,
0100
0000
0000
0000
,
0010
0000
0011
0000
,
0010
0000
0000
0000
,
0100
0000
0000
0000
,
1000
0000
0000
0000
,
0100
0000
0000
0000
,
0010
0000
0000
0000
,
1001
0000
0000
0000
,
0100
0000
0000
0000
,
1000
0000
1100
0000
,
0200
0000
0300
0000
,
0020
0000
0030
0000
,
0002
0000
0000
0000
0003
0000
0000
0220
,
0000
0000
0330
0000
,
0200
0000
0300
0000
,
2000
0000
3000
0000
,
0200
0000
0000
0000
0300
0000
0000
0220
,
0000
0000
0330
0000
,
0001
0000
0000
0000
,
0010
0000
0000
0000
,
0100
0000
0000
0000
,
0010
0000
0000
0000
,
0100
0000
0000
0000
,
1000
0000
0000
0000
,
1000
0000
0000
0000
,
0100
0000
0000
0000
,
0100
0000
0010
0000
,
0001
0100
0001
0000
,
0010
0000
0100
0000
,
1000
0100
1000
0000
,
1001
0000
0000
0000
;

//--------------- dance-single - Wrland ----------------
#NOTEDATA:;
#STEPSTYPE:dance-single;
#DESCRIPTION:Wrland;
#DIFFICULTY:Medium;
#METER:7;
#RADARVALUES:0,0,0,0,0;
#NOTES:
0000
0000
0000
0000
,
0000
0000
0000
0000
,
0000
0000
0000
0000
,
2002
0000
3003
0000
1000
0001
1000
0000
,
0100
0000
1000
0100
,
0010
0000
0000
0000
0001
1000
0010
0000
,
0100
0000
0010
0100
,
0010
0000
0000
0100
0000
0000
0010
0000
0100
0000
0000
0000
0000
0000
0000
0000
,
0010
0001
0100
0010
,
1000
0000
0100
0000
0010
0100
0010
0001
,
0100
0000
0000
0000
1000
0000
0000
0000
0010
0000
0000
0000
0100
1000
0010
0001
,
0100
0000
0000
1000
0000
0000
0100
0000
0010
0000
0000
0000
0100
0000
0000
0000
,
0100
1000
0010
0100
,
0001
0000
0100
0000
0001
0100
0001
0000
,
0010
0000
0000
0000
0100
0000
0000
0000
1000
0000
0000
0000
0010
0001
0010
0000
,
1000
0000
0000
0100
0000
0000
0010
0000
0001
0000
0000
0000
0010
0000
0000
0000
,
0100
0100
0010
0010
,
0100
0000
1000
0000
0100
0010
0001
0000
,
0100
0000
0000
0000
1000
0000
0000
0000
0010
0000
0000
0000
0100
0010
0100
0000
,
0010
0000
0000
0001
0000
0000
0100
0000
0010
0000
0000
0000
0000
0000
0000
0000
,
1000
0000
0000
0000
1000
0000
0100
1000
,
0200
0000
0310
0000
,
0010
0000
0100
0000
0010
0000
0010
0022
,
0000
0033
0001
0000
,
0010
0000
0000
0000
0100
0000
0010
0100
,
0020
0000
0130
0000
,
1000
0000
0000
0000
0100
0000
1000
2200
,
0000
3300
0100
0010
,
0001
0000
0100
0010
0100
0000
1000
0100
,
1000
0000
0100
0000
0110
0000
0000
0100
,
0010
0000
0000
0001
0100
0000
0010
0000
,
0100
0000
1000
0000
0100
1000
0100
0010
,
0001
0000
0000
0000
0100
0000
0010
0000
0100
0010
0100
0000
0010
0000
0001
0000
,
0100
0000
0010
0000
0100
1000
0100
0000
,
0010
0000
0100
0000
0001
0000
0100
0000
0001
0100
0001
0100
0001
0100
0001
0100
,
0010
0000
0000
0000
1000
0000
0000
0000
0100
0000
0000
1000
0100
0000
0000
0000
,
0010
0000
0100
0010
0001
0000
0100
0010
,
0100
0000
1000
0100
1000
0000
0100
0000
,
1000
0000
0100
1000
0100
0000
0010
0000
0001
0000
0000
0000
0100
0000
0000
0000
,
0010
0000
0100
0010
0001
0000
0100
0000
,
0010
0000
0100
0000
0010
0000
0100
1000
,
0100
0000
0010
0001
0100
0000
0010
0000
,
0100
0000
0010
0100
0010
0000
0001
0000
0100
0000
0000
0000
0010
0000
0100
0010
,
0200
0000
0300
1001
,
1000
0000
0100
0010
0001
0000
0100
0010
,
0100
0000
1000
0100
0010
0001
0100
0000
,
0010
0000
0100
0010
0001
0000
0100
0000
,
0010
0000
0000
0100
0000
0000
0010
0000
0001
0000
0000
0000
0000
0000
0000
0000
,
0100
0000
0100
1000
0100
0000
0010
0001
,
0100
0000
0010
0100
0010
0001
0100
0000
,
0010
0000
0000
0000
0100
0000
0010
0000
0100
0000
0000
0000
0100
0010
0100
0000
,
0010
0000
0000
0001
0000
0000
0100
0000
0010
0000
0000
0000
0000
0000
0000
0000
,
0100
0010
0100
1000
,
0100
0000
1000
0000
1000
0100
0010
0000
,
0001
0100
0010
0100
,
0010
0000
0000
0100
0000
0000
0010
0000
0001
0000
0000
0000
0000
0000
0000
0000
,
0100
0010
0100
1000
,
0100
0000
1000
0000
0100
1000
0100
0000
,
0100
0000
0000
0000
0010
0000
0000
0000
0001
0000
0000
0000
0010
1000
0001
0010
,
0100
0000
0000
0010
0000
0000
0001
0000
0100
0000
0000
0000
0010
0000
0000
0000
,
1000
0000
0100
1000
0100
0000
0010
0001
,
0010
0000
0100
0010
0100
0000
0000
0000
,
0100
0000
0010
0000
0001
0000
0100
0220
,
0000
0330
0100
0010
0001
0100
0010
1000
,
0100
0000
1000
0000
0100
0000
1000
0100
,
0100
0000
0010
0100
0010
0000
0000
0000
,
0001
0000
0100
0000
0010
0000
0100
0220
,
0000
0330
1000
0001
1000
0001
1000
0000
,
1001
0000
0001
1000
0010
0100
0010
1000
,
0001
0000
0100
0000
1010
0000
0000
0100
,
0001
0000
0000
0000
0100
0000
0000
0000
0010
0100
0010
0000
0001
0000
1000
0000
,
0100
0000
0100
0000
0010
0100
0010
0001
,
0100
0000
0010
0000
0100
0000
0010
0000
0100
0010
0100
0000
0010
0000
0001
0000
,
0100
0000
0010
0000
0100
1000
0100
0010
,
0001
0000
0100
0000
0010
0000
0100
0000
0010
0100
0010
0100
0010
0100
0010
0100
,
0010
0000
0000
0000
0001
0000
0000
0000
1000
0000
0001
1000
0001
0000
0000
0000
,
0100
0000
1000
0100
0001
0000
0010
0000
0100
0000
0010
0000
0001
0000
0010
0000
,
0100
0000
1000
0100
1000
0000
0100
0000
,
0010
0000
0100
0010
0100
0000
0010
0000
0001
0000
0010
0000
0100
0000
1000
0000
,
0100
0000
0100
1000
0100
0000
0110
0000
;

//--------------- dance-single - Wrland ----------------
#NOTEDATA:;
#STEPSTYPE:dance-single;
#DESCRIPTION:Wrland;
#DIFFICULTY:Hard;
#METER:10;
#RADARVALUES:0,0,0,0,0;
#NOTES:
1000
0000
0001
1000
0001
0000
0100
0000
0010
0000
0100
0000
0010
0000
0001
0000
,
0100
0010
0100
1000
0100
1000
0100
1000
,
0100
0000
0100
1000
0100
0000
0010
0000
0100
0000
0010
0000
0001
0000
0100
0000
,
0220
0000
0330
0000
1000
0001
1001
0000
,
0100
0000
0010
0100
0001
0100
0010
1000
,
0010
0000
0100
0000
0010
0100
0010
0100
0001
0000
1000
0000
0020
0000
0030
0000
,
0100
0000
0010
0000
0001
0000
0100
0000
0010
0000
0100
0000
0010
0100
0010
0000
,
0002
0000
0003
0020
0000
0030
0200
0300
2000
3000
0010
0001
0100
0000
0000
0000
,
0010
0000
0100
0000
0010
0000
0001
0000
0100
0000
0001
0100
0010
0000
0010
0000
,
0100
0010
0100
1000
0100
0010
0220
0330
,
0010
0000
0001
0000
0100
0000
0010
0000
0100
0000
0100
0000
0010
0100
0010
0000
,
0220
0000
0330
2002
0000
3003
0110
0000
0022
0000
0033
0000
2002
0000
0003
3000
,
0100
0010
0100
1000
0100
0010
0001
0100
,
0010
0000
0100
0000
1000
0010
0100
0000
0001
0000
0010
0000
0200
0000
0300
0000
,
0100
0000
1000
0000
0100
0000
0010
0000
0100
0000
0010
0000
0001
0100
0001
0000
,
0020
0000
0030
0200
0000
0300
2000
3000
0200
0000
0300
0100
0010
0000
0000
0000
,
0100
0000
0010
0000
0001
0000
0100
0000
0010
0000
0100
0010
0100
0000
0010
0000
,
0100
0010
0001
0100
0010
1000
0220
0330
,
0100
0000
1000
0000
0100
0000
0010
0000
0001
0000
0100
0000
0001
0100
0001
0000
,
1100
0000
0010
0110
1000
0000
0101
0010
0101
0000
0000
0100
0020
0000
0030
0000
,
1000
0100
0010
0001
0010
0100
1000
0100
0010
0001
0010
0100
1000
0100
0010
0001
,
0020
0100
0130
0000
,
0100
0010
0100
0010
0100
0010
0100
0010
0100
0010
0100
0010
0100
0000
0220
0000
,
0000
0000
0330
0000
1000
0001
1000
0100
1000
0100
0010
0100
0010
0001
1000
0100
,
1000
0001
0010
0100
1000
0100
0010
0001
0010
0100
1000
0100
0010
0001
0010
0100
,
0020
0000
0001
0001
0130
0000
0000
0000
,
0100
0010
0100
0010
0001
0100
0010
0100
1000
0100
0010
0001
0010
1000
0220
0000
,
0000
0330
0000
0000
1000
0000
1000
0000
1000
0000
1001
0000
1001
0000
0000
0000
,
0100
0000
0010
0000
0100
0000
0010
0000
0001
0000
0100
0001
0100
0000
0010
0000
,
0200
0300
0220
0330
0001
1000
0001
0100
,
0020
0000
0030
0000
1000
0000
0010
0000
1000
0100
0010
0000
0010
0000
0100
0000
,
0002
0000
0003
0000
0100
0000
0010
0000
0100
0000
0010
0100
0010
0000
0100
0000
,
0010
0000
0100
0000
0010
0000
0100
0000
0010
0100
0010
0000
0001
0000
0100
0000
,
0020
0030
1000
0100
2000
3000
0100
1000
,
0100
0000
0010
0000
0001
0000
0100
0000
0001
0100
0001
0100
0001
0100
0001
0100
,
0202
0000
0303
0000
0110
0000
1100
0000
0110
0000
0000
1000
0001
0000
0000
0000
,
0100
0000
1000
0010
0100
0000
0010
0000
0100
0000
0010
0000
0001
0000
0100
0000
,
0010
0100
1000
0100
0010
0001
0100
0001
,
0100
0000
0001
0100
0001
0000
0100
0000
0010
0000
1000
0000
0100
0000
0010
0000
,
0100
0010
0001
0100
0010
1000
0110
0000
,
0100
0000
0010
0100
0010
0000
0001
0000
0100
0000
0010
0000
0100
0000
1000
0000
,
0100
1000
0100
0010
0001
0100
0010
0100
,
0100
0000
0010
0100
0010
0000
0001
0000
0100
0000
0001
0000
1000
0000
1001
0000
,
2002
0000
3003
0000
1001
1001
1001
0000
,
0100
0010
0001
0100
0010
0100
0010
0001
,
0100
0000
1000
0000
0100
0000
0010
0000
0100
0000
0010
0000
0002
0000
0000
0003
,
0100
0000
0010
0000
0001
0000
0100
0000
0010
0000
0100
0000
0100
0010
0001
0000
,
0220
0000
0330
0022
0000
0033
0220
0330
2200
0000
3300
0000
0100
0010
0100
0010
,
0001
0000
0010
0000
0100
0000
1000
0000
0100
0000
0010
0100
0010
0000
0100
0000
,
0010
0000
0001
0000
0100
0010
0010
0001
0100
0000
0100
0000
2200
0000
3300
0000
,
0100
0000
0010
0000
0001
0000
0100
0000
0010
0000
0100
0000
0010
0100
0010
0000
,
0220
0330
0000
2200
3300
0000
0220
0330
0022
0033
0000
0001
0020
0000
0030
0000
,
0100
0000
1000
0000
0100
0000
0010
0000
0001
0000
0100
0000
0010
0100
0010
0000
,
0001
0000
0100
0000
0010
0001
1000
0000
0100
0000
0100
0000
0220
0000
0330
0000
,
0010
0000
0001
0000
0100
0000
0010
0000
0100
0000
0010
0000
0100
0010
0100
0000
,
0022
0000
0033
2200
0000
3300
0011
0000
0220
0330
0000
0100
0020
0000
0030
0000
,
0100
0000
0010
0000
0001
0000
0100
0000
0010
0000
0100
0010
0100
0000
0010
0000
,
0001
0000
0010
0000
0100
0010
0100
0000
0010
0000
0100
0000
0220
0000
0330
0000
,
1000
0000
0001
0000
1000
0000
0001
0000
1000
0000
0001
0000
1000
0001
1000
0000
,
2200
3300
0000
0220
0330
0000
0011
0000
0220
0000
0330
0000
0220
0000
0330
0000
,
0010
0100
1000
0100
0010
0001
0010
0100
1000
0100
0010
0001
0010
0100
1000
0100
,
0020
0000
0001
0001
0130
0000
0000
0000
,
0010
0100
0010
0001
0010
0100
1000
0100
0010
0010
0001
0010
0100
0000
0220
0000
,
0000
0000
0330
0000
0100
0010
1000
0000
0100
0000
0010
0000
0001
0000
0100
0000
,
0001
0010
0100
1000
0100
0010
0001
0010
0100
1000
0100
0010
0001
0010
0100
1000
,
0200
0000
0010
0010
0310
0000
0000
0000
,
0010
0100
0010
0001
0010
0100
1000
0100
0010
0100
0010
0001
0010
0000
0220
0000
,
0000
0330
2002
3003
1001
1001
2002
3003
,
0100
0000
1000
0000
0100
0000
0010
0000
0001
0000
0100
0001
0100
0000
0010
0000
,
0200
0300
0010
0100
0020
0030
0001
0100
,
0020
0000
0030
0000
0100
0000
1000
0000
0100
0010
0001
0000
0100
0000
0010
0000
,
0200
0300
0010
0001
0200
0300
0010
0100
,
1000
0000
0100
0000
1000
0000
0100
0000
1000
0100
0010
0000
0100
0000
0010
0000
,
0002
0003
0100
0010
0200
0300
1000
0100
,
0010
0000
0001
0000
0100
0000
0001
0000
0100
0001
0100
0001
0010
1000
0010
1000
,
0200
0000
0300
0000
0010
0000
0100
0000
0010
0000
0000
0100
0202
0000
0303
0000
,
0010
0000
0100
0010
0100
0000
0010
0000
0001
0000
0100
0000
0010
0000
0100
0000
,
0010
0001
0100
0010
1000
0100
0010
0001
,
0100
0000
0010
0100
0010
0000
0001
0000
0010
0000
0100
0000
1000
0000
0100
0000
,
0010
0001
0010
0100
0010
0100
0110
0000
;
