#TITLE:startingline;
#SUBTITLE:;
#ARTIST:G.K.;
#TITLETRANSLIT:;
#SUBTITLETRANSLIT:;
#ARTISTTRANSLIT:;
#GENRE:C-Pop;
#CREDIT:Wrland;
#MUSIC:startingline.ogg;
#BANNER:startingline.png;
#BACKGROUND:startingline-bg.png;
#LYRICSPATH:startingline.lrc;
#CDTITLE:Wrland Season 3 CITYGHT + last one night.png;
#SAMPLESTART:87.283;
#SAMPLELENGTH:15.000;
#SELECTABLE:YES;
#OFFSET:-0.001;
#BPMS:0.000=132.000
,128.000=66.000
,159.000=132.000
,207.000=66.000
,215.000=132.000
;
#STOPS:160.000=0.455
,167.000=0.455
;
#DISPLAYBPM:66.000:132.000;
#METERTYPE:DDR X;
#JACKET:startingline-jacket.png;
#CDIMAGE:startingline-cd.png;
#BGCHANGES:;
#FGCHANGES:;

//--------------- dance-single - Wrland ----------------
#NOTES:
     dance-single:
     Wrland:
     Beginner:
     3:
     0,0,0,0,0:
0000
0000
0000
0000
,
0000
0000
0000
0000
,
0000
0000
0000
0000
,
0000
0000
0000
0000
,
0000
0000
0000
0000
,
0000
0000
0000
0000
,
0000
0000
0000
0000
,
0000
0000
0000
0000
,
1000
0000
0000
0000
,
1000
0000
0000
0000
,
0001
0000
0000
0000
,
0001
0000
0000
0000
,
0100
0000
0000
0000
,
0010
0000
0000
0000
,
0100
0000
0000
0000
,
0010
0000
0000
0000
,
0001
0000
0000
0000
,
0100
0000
0000
0000
,
1000
0000
0000
0000
,
0010
0000
0000
0000
,
0100
0000
0000
0000
,
0100
0000
0000
0000
,
0010
0000
0000
0000
,
0001
0000
0000
0000
,
0010
0000
0000
0000
,
0100
0000
0000
0000
,
0100
0000
0000
0000
,
0010
0000
0000
0000
,
0100
0000
0000
0000
,
0010
0000
0000
0000
,
2000
0000
0000
0000
,
3000
0000
0000
0000
,
1001
0000
0000
0000
,
1100
0000
0000
0000
,
0011
0000
0000
0000
,
0110
0000
0000
0000
,
1100
0000
0000
0000
,
0011
0000
0000
0000
,
0110
0000
0000
0000
,
1100
0000
0000
0000
,
0000
0010
0000
0000
0000
0000
0000
0000
0000
0000
0000
0000
0000
0000
0000
0000
0000
0000
0000
0000
0000
0000
0000
0000
0000
0000
0000
0000
0000
0000
0000
0000
0000
0000
0000
0000
0000
0000
0000
0000
0000
0000
0000
0000
0000
0000
0000
0000
0000
0000
0000
0000
0000
0000
0000
0000
0000
0000
0000
0000
0000
0000
0000
0000
0000
0000
0000
0000
0000
0000
0000
0000
0000
0000
0000
0000
0000
0000
0000
0000
0000
0000
0000
0000
0000
0000
0000
0000
0000
0000
0000
0000
0000
0000
0000
0000
0000
0000
0000
0000
0000
0000
0000
0000
0000
0000
0000
0000
0000
0000
0000
0000
0000
0000
0000
0000
0000
0000
0000
0000
0000
0000
0000
0000
0000
0000
0000
0000
0000
0000
0000
0000
0000
0000
0000
0000
0000
0000
0000
0000
0000
0000
0000
0000
0000
0000
0000
0000
0000
0000
0000
0000
0000
0000
0000
0000
0000
0000
0000
0000
0000
0000
0000
0000
0000
0000
0000
0000
0000
0000
0000
0000
0000
0000
0000
0000
0000
0000
0000
0000
0000
0000
0000
0000
0000
0000
0000
0000
0000
0000
0000
0000
,
0100
0000
0000
0000
0000
0000
0000
0000
0000
0000
0000
0000
0000
0000
0000
0000
0000
0000
0000
0000
0000
0000
0000
0000
0000
0000
0000
0000
0000
0000
0000
0000
0000
0000
0000
0000
0000
0000
0000
0000
0000
0000
0000
0000
0000
0000
0000
0000
0000
0000
0000
0000
0000
0000
0000
0000
0000
0000
0000
0000
0000
0000
0000
0000
0000
0000
0000
0000
0000
0000
0000
0000
0000
0000
0000
0000
0000
0000
0000
0000
0000
0000
0000
0000
0000
0000
0000
0000
0000
0000
0000
0000
0000
0000
0000
0000
0000
0000
0000
0000
0000
0000
0000
0000
0000
0000
0000
0000
0000
0000
0000
0000
0000
0000
0000
0000
0000
0000
0000
0000
0000
0000
0000
0000
0000
0000
0000
0000
0000
0000
0000
0000
0000
0000
0000
0000
0000
0000
0000
0000
0000
0000
0000
0000
0000
0010
0000
0000
0000
0000
0000
0000
0000
0000
0000
0000
0000
0000
0000
0000
0000
0000
0000
0000
0000
0000
0000
0000
0000
0000
0000
0000
0000
0000
0000
0000
0000
0000
0000
0000
0000
0000
0000
0000
0000
0000
0000
0000
0000
0000
0000
0000
,
0000
0000
0000
0100
,
0000
0000
0000
0001
,
0000
0000
0000
1000
,
0000
0000
0000
0100
,
0000
0000
0010
0000
,
0000
0000
0000
0100
,
0000
0000
0000
1000
,
0000
0000
0000
0100
,
0000
0000
0000
0010
,
0000
0000
0000
0001
,
0000
0100
0000
0010
,
0000
0100
0000
0010
,
0000
0000
0000
0100
,
0000
0000
0000
1000
,
0000
0000
0000
0100
,
0000
0000
0000
0010
,
0000
0000
0000
0001
,
0000
0000
0000
0010
,
0000
0000
0000
0100
,
0000
0000
0000
0010
;

//--------------- dance-single - Wrland ----------------
#NOTES:
     dance-single:
     Wrland:
     Easy:
     5:
     0,0,0,0,0:
0000
0000
0000
0000
,
0000
0000
0000
0000
,
0000
0000
0000
0000
,
0000
0000
0000
0000
,
0000
0000
0000
0000
,
0000
0000
0000
0000
,
0000
0000
0000
0000
,
0000
0000
0000
0000
,
1000
0000
1000
0000
,
0001
0000
0001
0000
,
0100
0000
0100
0000
,
0010
0000
0010
0000
,
0100
0000
0100
0000
,
0010
0000
0001
0000
,
0010
0000
0100
0000
,
1000
0000
0100
0000
,
1000
0000
0100
0000
,
0010
0000
0001
0000
,
0010
0000
0100
0000
,
1000
0000
0100
0000
,
1000
0000
0100
0000
,
0010
0000
0001
0000
,
0010
0000
0100
0000
,
1000
0000
0100
0000
,
0010
0000
0100
0000
,
0100
0000
1000
0000
,
0100
0000
0010
0000
,
0001
0000
0010
0000
,
0100
0000
1000
0000
,
0100
0000
0010
0000
,
0200
0000
0300
0020
0000
0030
0200
0000
,
0300
0020
0000
0030
0000
0000
0000
0000
,
0001
0000
1000
0000
,
0100
0000
0010
0000
,
0001
0000
1000
0000
,
1000
0000
0100
0000
,
0010
0000
0001
0000
,
0001
0000
0100
0000
,
0010
0000
1000
0000
,
1000
0000
0100
0000
,
0000
0100
0000
0000
0000
0000
0000
0000
0000
0000
0000
0000
0000
0000
0000
0000
0000
0000
0000
0000
0000
0000
0000
0000
0000
0000
0000
0000
0000
0000
0000
0000
0000
0000
0000
0000
0000
0000
0000
0000
0000
0000
0000
0000
0000
0000
0000
0000
0000
0000
0000
0000
0000
0000
0000
0000
0000
0000
0000
0000
0000
0000
0000
0000
0000
0000
0000
0000
0000
0000
0000
0000
0000
0000
0000
0000
0000
0000
0000
0000
0000
0000
0000
0000
0000
0000
0000
0000
0000
0000
0000
0000
0000
0000
0000
0000
0100
0000
0000
0000
0000
0000
0000
0000
0000
0000
0000
0000
0000
0000
0000
0000
0000
0000
0000
0000
0000
0000
0000
0000
0000
0000
0000
0000
0000
0000
0000
0000
0000
0000
0000
0000
0000
0000
0000
0000
0000
0000
0000
0000
0000
0000
0000
0000
0000
0000
0000
0000
0000
0000
0000
0000
0000
0000
0000
0000
0000
0000
0000
0000
0000
0000
0000
0000
0000
0000
0000
0000
0000
0000
0000
0000
0000
0000
0000
0000
0000
0000
0000
0000
0000
0000
0000
0000
0000
0000
0000
0000
0000
0000
0000
0000
,
0010
0000
0000
0000
0000
0000
0000
0000
0000
0000
0000
0000
0000
0000
0000
0000
0000
0000
0000
0000
0000
0000
0000
0000
0000
0000
0000
0000
0000
0000
0000
0000
0000
0000
0000
0000
0000
0000
0000
0000
0000
0000
0000
0000
0000
0000
0000
0000
0000
0000
0000
0000
0000
0000
0000
0000
0000
0000
0000
0000
0000
0000
0000
0000
0000
0000
0000
0000
0000
0000
0000
0000
0000
0000
0000
0000
0000
0000
0000
0000
0000
0000
0000
0000
0000
0000
0000
0000
0000
0000
0000
0000
0000
0000
0000
0000
0000
0000
0000
0000
0000
0000
0000
0000
0000
0000
0000
0000
0000
0000
0000
0000
0000
0000
0000
0000
0000
0000
0000
0000
0000
0000
0000
0000
0000
0000
0000
0000
0000
0000
0000
0000
0000
0000
0000
0000
0000
0000
0000
0000
0000
0000
0000
0000
0000
0001
0000
0000
0000
0000
0000
0000
0000
0000
0000
0000
0000
0000
0000
0000
0000
0000
0000
0000
0000
0000
0000
0000
0000
0000
0000
0000
0000
0000
0000
0000
0000
0000
0000
0000
0000
0000
0000
0000
0000
0000
0000
0000
0000
0000
0000
0000
,
0000
0001
0000
1000
,
0000
0000
0000
0100
,
0000
1000
0000
0100
,
0000
0000
0000
0010
,
0000
0100
0000
0010
,
0000
0000
0000
0001
,
0000
0100
0000
0010
,
0000
0000
0000
0100
,
0000
1000
0000
0100
,
0000
0000
0000
0010
,
0010
0100
0100
1000
,
1000
0100
0010
0101
,
0000
0010
0000
0100
,
0000
1000
0000
1100
,
0000
1000
0000
0100
,
0000
0010
0000
0101
,
0000
0010
0000
0001
,
0000
0010
0000
0110
,
0000
0100
0000
1000
,
0000
0100
0000
0110
;

//--------------- dance-single - Wrland ----------------
#NOTES:
     dance-single:
     Wrland:
     Medium:
     7:
     0,0,0,0,0:
0000
0000
0000
0000
,
0000
0000
0000
0000
,
0000
0000
0000
0000
,
0000
0000
0000
0000
,
0000
0000
0000
0000
,
0000
0000
0000
0000
,
0000
0000
0000
0000
,
0000
0000
0000
0000
,
0200
0300
0020
0030
0100
0000
0010
0000
,
0001
0010
0100
1000
,
0100
1000
0100
1000
,
0100
0000
0010
0000
0001
0000
0100
0002
,
0003
0000
0001
0100
0002
0003
0001
0000
,
0010
0000
0100
0010
0000
0100
0000
0010
,
0200
0300
0020
0030
2000
3000
0200
0300
,
1000
0100
1000
0000
0100
0010
0001
0000
,
0002
0003
0200
0300
0001
0100
0000
0010
,
0000
0100
0010
0001
0100
0000
0010
0000
,
0200
0300
1000
0100
1000
0100
0010
0001
,
0202
0303
0010
0100
0100
0010
0100
1000
,
0200
0300
0000
0100
0020
0030
0000
0001
,
0200
0300
0002
0003
0020
0030
0220
0330
,
1000
0100
1000
0100
,
0010
0001
0000
0100
0010
0000
0100
0000
,
2000
0000
3000
0100
0020
0030
0001
0020
,
0030
0200
0000
0000
0300
0000
0000
0001
,
0020
0030
0000
0010
0200
0300
0010
0200
,
0300
0020
0000
0030
0002
0003
0010
0200
,
0300
2000
0000
3000
0100
0010
0100
0020
,
0030
0002
0003
0200
0300
0020
0030
0100
,
0022
0000
0033
2200
0000
3300
0220
0000
,
0330
0202
0000
0303
0110
0000
0100
0000
,
0010
0000
0001
0000
0010
0000
0200
0000
0300
0000
0100
0020
0030
0020
0030
0000
,
0200
0300
0020
0030
0002
0003
0200
0000
0000
0300
2000
0000
0000
3000
0000
1000
,
0200
0300
1000
0200
0300
0010
0001
0200
0300
0010
0200
0000
0300
0020
0000
0030
,
0002
0000
0003
0020
0000
0030
0200
0000
0000
0000
0000
0000
0310
0000
0010
0000
,
0200
0300
0020
0030
0002
0003
0200
0000
0000
0300
1000
0200
0300
2000
0000
3000
,
0200
0300
0020
0030
0002
0003
0100
0002
0000
0003
0020
0000
0000
0000
0030
0010
,
0200
0300
0010
0002
0003
0100
0010
0200
0300
1000
0200
0000
0300
2000
0000
3000
,
0200
0000
0300
2000
0000
3000
0200
0000
0000
0000
0000
0000
0300
0000
0000
0000
,
0000
0020
0000
0000
0000
0000
0000
0000
0000
0000
0000
0000
0000
0000
0000
0000
0000
0000
0000
0000
0000
0000
0000
0000
0000
0000
0000
0000
0000
0000
0000
0000
0000
0000
0000
0000
0030
0000
0000
0000
0000
0000
0000
0000
0000
0000
0000
0000
2000
0000
0000
0000
0000
0000
0000
0000
0000
0000
0000
0000
0000
0000
0000
0000
0000
0000
0000
0000
0000
0000
0000
0000
3000
0000
0000
0000
0000
0000
0000
0000
0000
0000
0000
0000
0000
0000
0000
0000
0000
0000
0000
0000
0000
0000
0000
0000
0200
0000
0000
0000
0000
0000
0000
0000
0000
0000
0000
0000
0000
0000
0000
0000
0000
0000
0000
0000
0000
0000
0000
0000
0300
0000
0000
0000
0000
0000
0000
0000
0000
0000
0000
0000
0000
0000
0000
0000
0000
0000
0000
0000
0000
0000
0000
0000
2000
0000
0000
0000
0000
0000
0000
0000
0000
0000
0000
0000
0000
0000
0000
0000
0000
0000
0000
0000
0000
0000
0000
0000
0000
0000
0000
0000
0000
0000
0000
0000
0000
0000
0000
0000
0000
0000
0000
0000
0000
0000
0000
0000
0000
0000
0000
0000
,
3000
0000
0000
0000
0000
0000
0000
0000
0000
0000
0000
0000
0000
0000
0000
0000
0000
0000
0000
0000
0000
0000
0000
0000
0000
0000
0000
0000
0000
0000
0000
0000
0000
0000
0000
0000
0000
0000
0000
0000
0000
0000
0000
0000
0000
0000
0000
0000
1000
0000
0000
0000
0000
0000
0000
0000
0000
0000
0000
0000
0000
0000
0000
0000
0000
0000
0000
0000
0000
0000
0000
0000
0200
0000
0000
0000
0000
0000
0000
0000
0000
0000
0000
0000
0000
0000
0000
0000
0000
0000
0000
0000
0000
0000
0000
0000
0300
0000
0000
0000
0000
0000
0000
0000
0000
0000
0000
0000
0000
0000
0000
0000
0000
0000
0000
0000
0000
0000
0000
0000
0010
0000
0000
0000
0000
0000
0000
0000
0000
0000
0000
0000
0000
0000
0000
0000
0000
0000
0000
0000
0000
0000
0000
0000
0001
2000
0000
0000
0000
0000
0000
0000
0000
0000
0000
0000
0000
0000
0000
0000
0000
0000
0000
0000
0000
0000
0000
0000
3000
0000
0000
0000
0000
0000
0000
0000
0000
0000
0000
0000
0000
0000
0000
0000
0000
0000
0000
0000
0000
0000
0000
0000
,
0200
0300
0020
0030
0100
0020
0000
0030
,
0002
0000
0000
0000
0003
0100
0020
0030
,
0100
1000
0100
0010
0001
0200
0300
0010
,
0200
0000
0300
0020
0000
0030
0002
0000
,
0003
0020
0000
0030
0100
0000
1000
0100
,
1000
0100
0010
0001
0200
0300
0020
0030
,
0100
0000
0020
0030
0002
0000
0000
0003
,
0001
0020
0030
0200
0000
0300
2000
3000
,
0200
0300
2000
3000
0100
0020
0000
0030
,
0002
0000
0000
0000
0000
0000
0000
0000
0003
0000
0100
0000
0020
0030
0001
0200
,
0300
0010
0100
0020
0030
0100
2000
3000
0100
0020
0000
0030
0002
0000
0003
0200
,
0000
0300
0010
0220
0000
0000
0000
0000
0330
0000
0000
0000
0100
0000
0000
0000
,
0010
0000
0001
0000
0010
0100
0010
0000
,
0100
0000
1000
0000
0100
1000
0100
0000
,
0010
0000
0001
0000
0100
0010
0001
0000
,
0100
0000
0010
0000
0100
1000
0100
0000
,
1000
0000
0100
0000
0010
0001
0100
0000
,
0010
0000
0100
0000
0010
0001
0100
0000
,
0010
0000
0001
0000
0100
0010
0100
0000
,
1000
0100
0010
0101
;

//--------------- dance-single - Wrland ----------------
#NOTES:
     dance-single:
     Wrland:
     Hard:
     11:
     0,0,0,0,0:
0000
0000
0000
0000
,
0000
0000
0000
0000
,
0000
0000
0000
0000
,
0000
0000
0000
0000
,
2000
3000
0100
2000
3000
0100
0010
0002
,
0003
0100
0010
0001
0100
0010
0100
0010
,
0220
0000
0330
2002
0000
3003
2200
0000
,
3300
0220
0000
0330
0101
0000
0110
0000
,
0200
0300
2000
3000
0100
2000
3000
0200
,
0300
0020
0030
0001
0200
0300
0020
0030
,
0002
0003
0100
0020
0030
0001
0200
0300
,
0020
0030
0100
1000
0100
0010
0001
0200
,
0000
0000
0300
0010
0200
0000
0000
0300
,
0020
0000
0030
0002
0003
0200
0300
0010
,
0200
0300
2000
3000
0100
1000
0200
0300
,
0010
0000
0001
1000
0000
0001
0010
0000
0100
0000
1000
0000
0010
0000
0001
0000
,
0200
0300
0020
0030
1000
0200
0300
2000
,
3000
0100
0010
0001
0200
0300
0020
0030
,
0200
0300
0010
0001
0100
0010
0100
0010
,
0220
0330
0010
0001
0010
0001
0010
0002
,
0000
0000
0003
2200
0000
3300
0000
0100
,
0020
0030
0002
0003
0200
0300
0020
0030
,
0200
0300
0010
0001
0100
0010
1000
0100
,
0010
0000
0001
0010
0000
0100
0010
0000
1000
0000
0100
0000
0010
0000
0001
0000
,
0200
0000
0300
0010
0200
0300
0010
0002
,
0003
0010
0200
0300
2000
3000
0100
1000
,
0200
0300
0010
0100
0020
0030
0001
0200
,
0300
0020
0000
0030
0200
0300
0010
0002
,
0003
0100
0020
0000
0030
0100
1000
0200
,
0300
0020
0030
0200
0300
0020
0030
0001
,
0202
0000
0303
0020
0030
0000
2020
0000
,
3030
0200
0300
0000
0220
0330
0002
0003
,
0200
0300
0020
0030
0200
0300
2000
0000
0000
3000
0100
2000
3000
0200
0000
0300
,
0020
0030
0002
0003
0200
0300
0020
0000
0030
0000
0002
0000
0003
0000
0000
0010
,
0200
0300
0010
0002
0003
0100
0010
0200
0300
1000
0200
0300
1100
0200
0000
0300
,
0020
0000
0030
0001
0000
0000
0100
0000
0020
0000
0030
0000
0010
0000
0200
0000
0300
0000
0010
0000
0100
0000
0010
0000
0010
0000
0001
0000
0200
0000
0300
0000
,
0020
0030
0200
0300
2000
3000
0200
0000
0000
0300
1000
0200
0300
0020
0000
0030
,
0200
0300
0020
0030
0002
0003
0100
0002
0000
0003
0020
0000
0000
0000
0030
0001
,
0020
0030
0100
0020
0030
0100
0010
0002
0003
0100
0020
0030
1000
0200
0000
0300
,
0010
0000
0000
0001
0000
0000
0100
0000
0002
0000
0003
0000
0010
0000
0200
0000
0300
0000
0010
0000
0100
0000
0010
0000
0001
0000
0000
0000
0100
0000
0000
0000
,
0101
2200
0000
0000
0000
0000
0000
0000
0000
0000
0000
0000
0000
0000
0000
0000
0000
0000
0000
0000
0000
0000
0000
0000
3300
0000
0000
0000
0000
0000
0000
0000
0000
0000
0000
0000
0000
0000
0000
0000
0000
0000
0000
0000
0000
0000
0000
0000
0100
0000
0000
0000
0000
0000
0000
0000
0000
0000
0000
0000
0000
0000
0000
0000
0000
0000
0000
0000
0000
0000
0000
0000
0010
0000
0000
0000
0000
0000
0000
0000
0000
0000
0000
0000
0000
0000
0000
0000
0000
0000
0000
0000
0000
0000
0000
0000
0001
0000
0000
0000
0000
0000
0000
0000
0000
0000
0000
0000
0000
0000
0000
0000
0000
0000
0000
0000
0000
0000
0000
0000
0100
0000
0000
0000
0000
0000
0000
0000
0000
0000
0000
0000
0000
0000
0000
0000
0000
0000
0000
0000
0000
0000
0000
0000
0202
0000
0000
0000
0000
0000
0000
0000
0000
0000
0000
0000
0000
0000
0000
0000
0000
0000
0000
0000
0000
0000
0000
0000
0303
0000
0000
0000
0000
0000
0000
0000
0000
0000
0000
0000
0000
0000
0000
0000
0000
0000
0000
0000
0000
0000
0000
0000
,
0010
0000
0000
0000
0000
0000
0000
0000
0000
0000
0000
0000
0000
0000
0000
0000
0000
0000
0000
0000
0000
0000
0000
0000
0100
0000
0000
0000
0000
0000
0000
0000
0000
0000
0000
0000
0000
0000
0000
0000
0000
0000
0000
0000
0000
0000
0000
0000
1000
0000
0000
0000
0000
0000
0000
0000
0000
0000
0000
0000
0000
0000
0000
0000
0000
0000
0000
0000
0000
0000
0000
0000
0200
0000
0000
0000
0000
0000
0000
0000
0000
0000
0000
0000
0000
0000
0000
0000
0000
0000
0000
0000
0000
0000
0000
0000
0300
0000
0000
0000
0000
0000
0000
0000
0000
0000
0000
0000
0000
0000
0000
0000
0000
0000
0000
0000
0000
0000
0000
0000
0010
0000
0000
0000
0000
0000
0000
0000
0000
0000
0000
0000
0000
0000
0000
0000
0000
0000
0000
0000
0000
0000
0000
0000
0001
2000
0000
0000
0000
0000
0000
0000
0000
0000
0000
0000
0000
0000
0000
0000
0000
0000
0000
0000
0000
0000
0000
0000
3000
0000
0000
0000
0000
0000
0000
0000
0000
0000
0000
0000
0000
0000
0000
0000
0000
0000
0000
0000
0000
0000
0000
0000
,
0100
0010
0200
0300
0010
0002
0000
0003
,
0020
0030
0100
0010
0001
0100
0020
0030
,
0100
0010
1000
0001
0100
0000
0010
0000
0001
0000
0200
0000
0300
0000
0010
0000
,
0100
0020
0030
0100
0010
0000
0202
0000
,
0303
0000
0010
0000
0200
0000
0300
0000
1000
0000
0100
0000
1000
0000
0000
0100
,
0000
0010
0002
0003
0200
0300
0010
0100
,
0010
1000
0100
0000
0002
0000
0003
0000
0010
0000
0100
0000
0010
0000
0001
0000
,
0100
0020
0030
0100
2000
3000
0200
0300
,
0020
0030
0001
0100
0010
0200
0000
0300
,
0020
0000
0000
0000
0030
0000
0000
0000
0001
0000
0000
0000
0100
0000
0000
0000
0001
0000
0000
0000
0100
0000
0000
0000
0002
0000
0000
0003
0010
0000
0200
0000
,
0000
0300
1000
0000
0100
0000
0020
0000
0030
0000
0100
0000
0020
0000
0030
0000
0001
0000
0200
0000
0000
0000
0300
0000
0020
0000
0030
0200
0000
0300
0010
0000
,
0002
0003
0100
0020
0030
0100
1000
0100
0010
0001
0100
0000
0010
0000
0000
0000
,
0100
0010
0000
0001
0100
0010
0000
0100
,
1000
0100
0010
0100
0010
0000
0001
0000
,
0100
0010
0000
0100
1000
0100
0000
0100
,
1000
0100
0010
0001
0100
0000
0010
0000
,
0100
0010
0000
0001
0100
0001
0000
0100
,
0010
0100
1000
0100
1000
0000
0100
0000
,
0010
0001
0000
0100
0010
0100
0000
0010
,
0001
0100
0010
0100
0010
0000
0110
0000
;
