#TITLE:song 2;
#SUBTITLE:;
#ARTIST:blur;
#TITLETRANSLIT:;
#SUBTITLETRANSLIT:;
#ARTISTTRANSLIT:;
#GENRE:Rock;
#CREDIT:Wrland;
#MUSIC:song 2.ogg;
#BANNER:song 2.png;
#BACKGROUND:BG.png;
#CDTITLE:Wrland Season 3 CITYGHT + last one night.png;
#SAMPLESTART:84.556;
#SAMPLELENGTH:12.000;
#SELECTABLE:YES;
#OFFSET:-0.030;
#BPMS:0.000=129.724;
#STOPS:;
#DISPLAYBPM:129.000;
#LYRICSPATH:song 2.lrc;
#JACKET:song 2-jacket.png;
#CDIMAGE:song 2-cd.png;
#METERTYPE:DDR X;
#BGCHANGES:0.000=song 2.avi=1.000=0=0=0=StretchNoLoop====,
99999.000=-nosongbg-=1.000=0=0=0=StretchNoLoop====
;
#FGCHANGES:;

//--------------- dance-single - Wrland ----------------
#NOTES:
     dance-single:
     Wrland:
     Beginner:
     3:
     0,0,0,0,0:
0000
0000
0000
0000
,
0000
0000
0000
0000
,
0000
0000
0000
0000
,
0000
0000
0000
0000
,
0000
0000
0000
0000
,
0000
0000
0000
0000
,
0000
0000
0000
0000
,
0000
0000
0000
0000
,
1000
0000
0000
0000
,
1000
0000
0000
0000
,
0100
0000
0000
0000
,
0100
0000
0000
0000
,
0010
0000
0000
0000
,
0001
0000
0000
0000
,
1000
0000
0000
0000
,
0100
0000
0000
0000
,
1000
0000
0000
0000
,
1000
0000
0000
0000
,
0001
0000
0000
0000
,
0001
0000
0000
0000
,
0100
0000
0000
0000
,
0100
0000
0000
0000
,
0010
0000
0000
0000
,
0100
0000
0000
0000
,
0010
0000
0000
0000
,
0010
0000
0000
0000
,
0001
0000
0000
0000
,
0001
0000
0000
0000
,
0010
0000
0000
0000
,
0100
0000
0000
0000
,
1000
0000
0000
0000
,
0100
0000
0000
0000
,
1000
0000
0000
0000
,
1000
0000
0000
0000
,
0100
0000
0000
0000
,
0010
0000
0000
0000
,
0001
0000
0000
0000
,
0010
0000
0000
0000
,
0100
0000
0000
0000
,
0100
0000
0000
0000
,
1000
0000
0000
0000
,
1000
0000
0000
0000
,
0010
0000
0000
0000
,
0001
0000
0000
0000
,
0020
0000
0000
0030
,
0200
0000
0000
0300
,
0010
0000
0000
0000
,
0100
0000
0000
0000
,
1000
0000
0000
0000
,
1000
0000
0000
0000
,
0001
0000
0000
0000
,
0100
0000
0000
0000
,
0010
0000
0000
0000
,
0100
0000
0000
0000
,
0100
0000
0000
0000
,
1000
0000
0000
0000
,
0100
0000
0000
0000
,
0100
0000
0000
0000
,
0010
0000
0000
0000
,
0100
0000
0000
0000
,
0010
0000
0000
0000
,
0001
0000
0000
0000
,
1000
0000
0000
0000
,
1000
0000
0000
0000
,
0100
0000
0000
0000
;

//--------------- dance-single - Wrland ----------------
#NOTES:
     dance-single:
     Wrland:
     Easy:
     5:
     0,0,0,0,0:
0000
0000
0000
0000
,
0000
0000
0000
0000
,
0000
0000
0000
0000
,
0000
0000
0000
0000
,
0000
0000
0000
0000
,
0000
0000
0000
0000
,
0000
0000
0000
0000
,
0000
0000
0000
0000
,
1000
0000
1000
0000
,
0100
0000
0100
0100
,
0010
0000
0001
0000
,
0001
0000
0001
0001
,
0010
0000
0100
0000
,
0100
0000
1000
1000
,
0100
0000
0100
0000
,
0010
0000
0100
0000
,
0100
0000
1000
0000
,
0100
0000
1000
0000
,
0100
0000
0010
0000
,
0001
0000
0010
0000
,
0100
0000
1000
0000
,
0100
0000
1000
0000
,
1000
0000
0100
0000
,
0010
0000
0001
1000
,
1001
0000
0001
0000
,
0001
0001
0001
0100
,
0110
0000
0100
0000
,
1000
0000
0100
1000
,
0110
0000
0100
0000
,
0100
0000
1000
0000
,
1000
0000
0100
0000
,
0010
0000
0001
0000
,
0100
0000
0010
0000
,
0100
0000
1000
0000
,
0100
0000
1000
0000
,
0100
0000
0010
0000
,
0001
0000
0100
0000
,
0010
0000
0100
0000
,
0010
0000
0010
0000
,
0100
0000
0100
0000
,
1000
0000
1000
0000
,
0100
0000
0010
0000
,
0001
0000
0100
0000
,
0010
0000
0100
0000
,
1000
0000
2000
3000
,
0200
0000
0300
0110
,
0000
0100
1000
0100
,
0100
0010
0100
0010
,
0100
0000
0100
0010
,
0001
0010
0100
1000
,
1000
0000
1000
0100
,
1000
0000
0100
0000
,
0010
0000
0001
0000
,
0010
0100
0010
0001
,
0100
0000
0100
0000
,
1000
0100
1000
0100
,
0010
0000
0100
0000
,
0100
0000
0000
0000
0010
0000
0001
0010
,
0000
0010
0100
0000
,
1000
0000
0100
0000
1000
0000
1000
0100
,
0000
0010
0000
0100
,
0100
0000
0000
0000
0010
0000
0001
0100
,
0000
0010
0100
0000
,
0100
0010
0100
0010
,
0000
0110
0000
0000
0000
0000
0000
0000
;

//--------------- dance-single - Wrland ----------------
#NOTES:
     dance-single:
     Wrland:
     Medium:
     8:
     0,0,0,0,0:
0000
0000
0000
0000
,
0000
0000
0000
0000
,
0000
0000
0000
0000
,
0000
0000
0000
0000
,
0000
0000
0000
0000
,
0000
0000
0000
0000
,
0000
0000
0000
0000
,
0000
0000
0000
0000
0000
0000
2000
3000
,
2002
3003
0001
0000
1000
0000
1000
0000
,
0001
0000
0001
0000
1000
0000
0200
0300
,
2200
3300
0100
0000
0010
0000
0100
0000
,
0010
0100
0010
0000
0001
0100
2002
3003
,
2020
3030
0100
0000
0100
0000
1000
0000
,
0100
0010
0001
0000
0100
0010
2002
3003
,
0022
0033
0100
0000
0010
0100
0010
0000
,
0100
1000
0100
0000
1000
0100
0010
0001
,
0020
0030
0100
0000
1000
0000
0100
0000
,
1000
0000
0100
0000
1000
0001
0100
0010
,
0200
0300
0010
0000
0001
0000
0100
0000
,
0010
0000
0100
0000
1000
0001
0100
0010
,
0200
0300
0010
0000
0001
0000
0100
0000
,
0010
0000
0100
0000
0010
0100
0010
0100
,
0020
0030
0001
0000
0100
0000
0010
0000
,
0100
0000
1000
0000
0100
0000
2200
3300
,
0202
0303
0010
0000
0100
0000
0100
0010
,
0001
0100
0010
1000
0200
0300
0220
0330
,
2002
3003
1000
0000
0100
0000
0010
0001
,
0100
0010
1000
0100
0020
0030
2200
3300
,
0022
0033
0100
0000
0010
0000
0001
0100
,
0010
0100
1000
0200
0300
2000
3000
0000
,
1000
0000
0100
1000
0200
0300
0010
0100
,
0010
0002
0003
0100
0000
0010
0000
0100
,
0010
1000
0010
0100
,
0100
0010
0001
0100
0000
0010
0100
0010
,
0101
0010
0100
1000
,
0100
1000
0100
0000
0010
0001
0202
0303
,
2020
3030
0100
0010
0001
0000
0100
0010
,
0100
1000
0100
0010
0001
0100
0010
0100
,
0020
0030
0100
0000
1000
0000
0100
0000
,
0010
0000
0001
0000
0100
0000
0100
0010
,
0200
0300
0010
0000
0001
0000
0100
0000
,
0010
0000
0100
0000
1000
0000
0100
1000
,
0200
0300
0010
0000
0001
0000
0100
0000
,
0010
0000
0001
0000
0100
0000
0010
0200
,
0300
0000
0200
0300
0040
0000
0000
0000
,
0030
0001
0010
2002
,
3003
2002
3003
0000
1000
0000
0100
1000
,
0100
1000
0100
1000
0200
0300
0220
0330
,
0202
0303
0010
0000
0100
0000
0010
0001
,
0100
0010
0100
0010
0200
0300
0202
0303
,
2200
3300
1000
0100
1000
0000
0100
0010
,
0001
0100
0010
0200
0300
0020
0030
0000
,
0020
0030
0100
0010
0002
0003
0100
0010
,
1000
0200
0300
2000
3000
0100
0000
0100
,
0010
0100
0010
0000
0001
0100
0001
0000
,
0100
0010
0001
0200
0300
0010
0100
0010
,
0002
0003
0200
0300
2000
3000
0100
0010
,
0002
0003
0100
0010
0200
0300
0100
0220
,
0330
0001
1000
0001
2000
0000
3000
0000
,
1000
0000
0100
1000
0200
0300
1000
2200
,
3300
0100
0010
0001
0200
0300
0010
0000
,
0100
0000
0010
0001
0100
0000
0001
0202
,
0303
0001
0100
0001
0200
0300
0010
0000
,
0100
0000
0010
0001
0100
0000
0022
0000
,
0033
1001
0000
0000
0000
0000
0000
0000
;

//--------------- dance-single - Wrland ----------------
#NOTES:
     dance-single:
     Wrland:
     Hard:
     10:
     0,0,0,0,0:
0000
0000
0000
0000
,
0000
0000
0000
0000
,
0000
0000
0000
0000
,
0000
0000
0000
0000
,
0000
1000
0001
0000
1000
0100
0000
1000
,
0100
0000
0010
0100
0000
0010
0100
0010
,
0000
0001
0100
0000
0001
0100
0000
0010
,
0100
0000
1000
0100
0000
0000
0220
0330
,
1001
0100
1000
0100
0010
0001
0100
0001
,
0100
0001
0100
0010
0100
1000
2200
3300
,
0110
1000
0001
0100
0010
0001
0100
0010
,
0100
1000
0100
0010
0001
0100
0202
0303
,
0110
0001
0100
0010
0001
0100
0010
1000
,
0100
1000
0100
0010
0001
0100
0220
0330
,
1001
0010
1000
0001
1000
0001
1000
0001
,
0100
0010
0100
1000
0100
0010
0100
0010
,
0022
0033
0002
0003
0010
0100
0020
0030
,
1000
0100
0010
0001
0100
0010
1000
0100
,
2000
3000
2200
3300
0100
0010
0002
0003
,
0100
0010
0001
0100
0010
0100
1000
0100
,
0020
0030
0002
0003
0100
0010
0002
0003
,
0100
0010
0100
2000
3000
0100
1000
0100
,
0020
0030
0002
0003
0100
0010
0100
0010
,
0001
0100
0010
0200
0000
0300
0220
0330
,
1001
1000
0001
1000
0001
1000
0100
1000
,
0100
0010
0001
0100
0020
0030
2200
3300
,
0011
0001
0100
0010
0001
0100
0010
1000
,
0100
1000
0100
0010
0002
0003
2002
3003
,
1100
0010
0100
0010
0001
0100
0010
0100
,
1000
0100
0010
0002
0003
0200
0300
0000
,
0200
0300
1000
0100
2000
3000
0100
0010
,
0001
0200
0300
0020
0030
0200
0300
0010
,
0100
0010
0100
0010
0001
0100
0002
0003
,
0010
0100
1000
0200
0300
0100
0010
0100
,
0020
0030
0001
0100
0002
0003
0010
0100
,
1000
0100
0010
0001
0010
0100
0220
0330
,
1001
0010
0100
1000
0200
0300
1000
0100
,
0010
0001
0100
0010
0100
0010
0001
0100
,
2002
3003
2200
3300
0100
0010
0002
0003
,
0100
0010
0100
0020
0000
0030
0001
0100
,
0020
0030
0200
0300
1000
0100
2000
3000
,
0100
0010
0100
0020
0030
0001
0100
0001
,
0200
0300
0020
0030
0100
1000
0200
0300
,
1000
0100
1000
0200
0300
0100
0010
0002
,
0003
0000
0200
0300
2000
3000
0200
0300
,
1000
0100
1000
0200
0300
0000
0440
0000
,
0330
1001
0100
0010
0200
0300
0010
0001
,
0100
0010
0100
1000
0200
0300
2200
3300
,
0101
0010
0010
0100
0010
0001
0100
0010
,
0100
1000
0100
0010
0002
0003
0202
0303
,
1010
0100
1000
0001
2000
3000
0100
1000
,
0100
0010
0001
0200
0300
0020
0000
0030
,
0200
0300
0010
0001
0200
0300
0010
1000
,
0100
0020
0030
0002
0003
0200
0300
0001
,
0100
0010
1000
0100
1000
0100
2000
3000
,
0110
0110
1001
1001
1001
1001
1001
1001
,
1000
0010
0100
1000
0200
0300
0100
0010
,
0001
0100
0010
0100
0010
0001
0011
0022
,
0033
0100
1000
0100
1000
0100
0010
0000
,
0100
0010
0001
0100
1000
0100
1100
2200
,
3300
0100
0010
0001
0100
0001
0200
0300
,
0010
0100
0010
0100
0010
0010
0011
0022
,
0033
0010
0100
0010
0001
0100
0010
0000
,
0100
0000
1000
0000
0100
0000
0010
0000
0001
0000
0100
0000
0020
0000
0000
0030
,
MMMM
M11M
MMMM
0000
0000
0000
0000
0000
;
