#TITLE:sense;
#SUBTITLE:;
#ARTIST:川田まみ;
#TITLETRANSLIT:;
#SUBTITLETRANSLIT:;
#ARTISTTRANSLIT:Mami Kawada;
#GENRE:J-Pop;
#CREDIT:Wrland;
#MUSIC:sense.ogg;
#BANNER:sense.png;
#BACKGROUND:sense-bg.png;
#CDTITLE:Wrland Season 3 CITYGHT.png;
#LYRICSPATH:sense.lrc;
#SAMPLESTART:45.730;
#SAMPLELENGTH:15.000;
#SELECTABLE:YES;
#OFFSET:-5.727;
#BPMS:0.000=167.989
,48.000=83.994
,76.000=167.989
,212.000=41.997
;
#STOPS:;
#DISPLAYBPM:83.000:167.000;
#CDIMAGE:sense-cd.png;
#JACKET:sense-jacket.png;
#METERTYPE:DDR X;
#BGCHANGES:;
#FGCHANGES:;

//--------------- dance-single - Wrland ----------------
#NOTES:
     dance-single:
     Wrland:
     Beginner:
     2:
     0,0,0,0,0:
0000
0000
0000
0000
,
0000
0000
0000
0000
,
0000
0000
0000
0000
,
0000
0000
0000
0000
,
1000
0000
0000
0000
,
1000
0000
0000
0000
,
0100
0000
0000
0000
,
1000
0000
0000
0000
,
0100
0000
0000
0000
,
0010
0000
0000
0000
,
0001
0000
0000
0000
,
0010
0000
0000
0000
,
0100
0010
0100
1000
,
0100
1000
0100
0010
,
0001
0010
0100
1000
,
0100
1000
0100
0010
,
0001
0100
0001
0100
,
0010
0100
1000
0100
,
0010
0001
0100
1000
,
0100
0000
1000
0000
,
0100
0000
0010
0000
,
0001
0000
0001
0000
,
1000
0000
1000
0000
,
0100
0000
0100
0000
,
0010
0000
0010
0000
,
0001
0000
0001
0000
,
0010
0000
0010
0000
,
0100
0000
1000
0000
,
0100
0000
1000
0000
,
0100
0000
0010
0000
,
0001
0000
0010
0000
,
0100
0000
1000
0000
,
0100
0000
1000
0000
,
0100
0000
0010
0000
,
0001
0000
0010
0000
,
0100
0000
1000
0000
,
0100
0000
1000
0000
,
0100
0000
0010
0000
,
0001
0000
0010
0000
,
0100
0000
1000
0000
,
0100
0000
1000
0000
,
0100
0000
0010
0000
,
0001
0000
0010
0000
,
0100
0000
1000
0000
,
1000
0000
0001
0000
,
1001
0000
0000
0000
,
1100
0000
0000
0000
,
0110
0000
0000
0000
,
0101
0000
0000
0000
,
0010
0000
0010
0000
,
0100
0000
0100
0000
,
0010
0000
0010
0000
,
0100
0000
0100
0000
,
2000
3000
0200
0000
,
0300
0000
0000
0000
;

//--------------- dance-single - Wrland ----------------
#NOTES:
     dance-single:
     Wrland:
     Easy:
     5:
     0,0,0,0,0:
0000
0000
0000
0000
,
0000
0000
0000
0000
,
0000
0000
0000
0000
,
0000
0000
0000
0000
,
1000
1000
1000
0000
,
0100
1000
0100
0000
,
0010
0001
0010
0000
,
0100
0010
0100
0000
,
0010
0000
0001
0000
,
0010
0000
0100
0000
,
0010
0000
0001
0000
,
0001
0100
0001
0000
,
1000
0000
1000
0000
1000
1000
1000
0000
,
0100
0010
0001
0010
,
0001
0100
0001
0000
0010
0100
0010
0000
,
1000
0100
1000
0000
0100
0010
0001
0000
,
0100
0100
0010
0010
,
0001
0001
0010
0100
,
1000
0100
1000
0100
,
0010
0001
0100
0000
,
0010
0100
0010
0000
,
1000
0000
1000
0000
,
1000
0100
0010
0000
,
0001
0000
0010
0000
,
0100
0010
0100
0000
,
0010
0000
0100
0000
,
1000
0100
1000
0000
,
0100
0000
0010
0000
,
0001
0100
0001
0000
,
0010
0000
0100
0000
,
1000
0100
1000
0000
,
0100
0000
1000
0000
,
0100
0010
0001
0000
,
0100
0000
0010
0000
,
0001
0100
0001
0000
,
0010
0000
0100
0000
,
1000
0000
0100
1000
,
0100
0000
0100
0010
,
0100
0000
0010
0001
,
0010
0000
0010
0100
,
0010
0000
0100
1000
,
0100
0000
1000
0100
,
0010
0000
0100
0010
,
0001
0000
0001
0000
,
1000
0001
1000
0001
,
1000
0000
1000
0000
,
0100
0000
0010
0000
,
0001
0000
0100
0000
,
0010
0100
0010
0100
,
0010
0000
0001
0000
,
0010
0000
0100
0000
,
1000
0000
0100
0000
,
0010
0100
0010
0001
,
0200
0000
0000
0300
0020
0000
0000
0030
0200
0000
0000
0300
2000
0000
0000
3000
,
0200
0000
0000
0300
0000
0000
0000
0000
0000
0000
0000
0000
0000
0000
0000
0000
;

//--------------- dance-single - Wrland ----------------
#NOTES:
     dance-single:
     Wrland:
     Medium:
     8:
     0,0,0,0,0:
0000
0000
0000
0000
,
0000
0000
0000
0000
,
0000
0000
0000
0000
,
0000
0000
0000
0000
,
1000
0100
1000
0100
,
0010
0000
0001
0000
0100
0001
0100
0000
,
0010
0100
1000
0100
,
0010
0000
0001
0000
0100
0010
0100
0000
,
0010
0001
0100
0010
,
0100
0000
1000
0000
0100
1000
0100
0000
,
0100
0010
0001
0100
,
0010
0000
0100
0000
0010
0100
0010
0000
,
0001
0100
0010
1000
0100
1000
0200
0300
,
1000
0100
1000
0100
0010
0001
0100
0010
,
0200
0300
0100
1000
0100
0000
0100
0010
,
0002
0000
0003
0200
0000
0300
0010
0000
0200
0000
0300
0000
2000
0000
3000
0000
,
0100
1000
0100
1000
0100
0010
0002
0003
,
0001
0100
0010
0100
0010
0001
0100
0010
,
0200
0000
0000
0300
2000
0000
0000
3000
0100
0000
1000
0000
0100
0000
0010
0100
,
0020
0000
0030
0002
0000
0003
0100
0000
,
0020
0000
0030
0200
0000
0000
0300
0000
,
0010
0000
0100
0010
0100
0010
0001
0100
,
0010
0100
0000
1000
0000
0100
0000
0000
,
1000
0000
0100
1000
0100
0010
0001
0100
,
0010
0100
0000
0010
0000
0100
0000
0010
,
0100
0000
0010
0000
0100
0001
0000
0010
,
0000
0100
1000
0000
0100
0000
1000
0100
,
0020
0000
0030
0002
0000
0003
0200
0300
,
0020
0000
0030
0200
0000
0000
0300
0000
,
1000
0000
0100
1000
0100
0010
0001
0100
,
0010
0100
0000
0100
0000
2000
0000
3000
,
0100
0000
0010
0001
0100
0010
1000
0100
,
0010
0001
0000
0100
0000
0010
0000
0100
,
0010
0000
0001
0100
0000
0010
0000
2000
,
0000
0000
3000
0000
0200
0300
0020
0030
,
0200
0300
0020
0030
0002
0003
0100
0000
,
0010
0000
0001
0100
0001
0100
1000
0100
,
1000
0100
0010
0001
,
0101
0010
0100
0100
,
1100
0100
0010
0001
,
0101
0000
0000
0010
0000
0100
0010
0001
,
0100
0010
0100
1000
,
1100
0100
0010
0001
,
0101
0010
0100
1000
,
1100
0110
0011
0110
,
1000
0100
0010
0001
,
0100
0001
0010
0000
0100
1000
0100
0000
,
0010
0001
0100
0010
,
0100
0010
0100
0000
0001
0100
0001
0000
,
0010
0100
1000
0100
,
1000
0100
1000
0000
0100
0010
0001
0000
,
0100
0010
0001
0100
,
0001
0100
0001
0000
0010
0100
0010
0000
,
0200
0000
0000
0300
0020
0000
0000
0030
0200
0000
0000
0300
2000
0000
0000
3000
,
0200
0000
0000
0300
0000
0000
0000
0000
0000
0000
0000
0000
0000
0000
0000
0000
;

//--------------- dance-single - Wrland ----------------
#NOTES:
     dance-single:
     Wrland:
     Hard:
     10:
     0,0,0,0,0:
0000
0000
0000
0000
,
0000
0000
0000
0000
,
0000
0000
0000
0000
,
0000
0000
0000
0000
,
1000
0100
0010
0000
0100
0010
0001
0000
,
0001
0100
0010
0000
0100
1000
0100
0000
,
0010
0100
0010
0000
0001
1000
0001
0000
0100
0010
0001
0000
0010
0100
0010
0000
,
0100
1000
0100
0000
0010
0001
0100
1000
,
0010
0100
0010
0000
0001
0100
0001
0000
,
0010
0100
1000
0000
0010
0100
0010
0000
,
0001
1000
0001
0000
0100
1000
0100
0000
0010
0100
0010
0000
0001
0010
0001
0000
,
0010
0100
0010
0000
1000
0100
1000
0000
0001
0000
1000
0000
0001
0000
0000
0000
,
0100
0100
1000
0100
0010
0002
0003
0200
0000
0300
0020
0030
0200
0300
0020
0030
,
0001
0000
0001
0100
0001
0100
0000
0002
0000
0003
0200
0300
2000
3000
0200
0300
,
2000
3000
0200
0300
2000
3000
0200
0300
0020
0030
0002
0003
0100
0000
0010
0000
,
0220
0000
0330
2000
0000
3000
0100
0000
2200
0000
3300
0000
0220
0330
0001
0000
,
0100
0000
0001
0100
0001
0100
0001
0200
0000
0300
0010
0000
0100
0002
0000
0003
,
0010
0000
0100
1000
0100
0010
0001
0200
0000
0300
0010
0000
0100
0000
0010
0000
,
0002
0000
0003
0200
0000
0300
1000
0000
0100
0000
1000
0000
0100
0000
0001
0100
,
0002
0000
0003
0020
0000
0030
0200
0300
,
2000
0000
3000
0200
0000
0300
0010
0100
,
0010
0000
0001
0100
0001
0010
0100
1000
,
0100
0020
0030
0200
0300
0020
0000
0000
,
0030
0000
0001
0100
0010
1000
0100
0010
,
1000
0200
0300
2000
3000
0200
0300
1000
,
0100
0000
0200
0300
0001
0020
0030
0020
,
0030
0100
2000
3000
0200
0300
1000
0100
,
0020
0000
0030
0002
0000
0003
0200
0300
,
0020
0000
0030
2000
0000
0000
3000
0000
,
1000
0000
0100
1000
0100
0010
0001
0100
,
0010
2000
3000
0200
0300
0020
0000
0000
,
0030
0000
0100
0010
0001
0100
0010
1000
,
0100
0020
0030
0200
0300
1000
0000
0100
,
1000
0000
0100
0010
0000
0002
0003
0200
,
0000
0300
0010
0100
,
0020
0000
0030
0002
0000
0003
0200
0300
,
0020
0000
0030
0100
0000
0010
0001
0100
,
0010
0100
1100
0100
,
0110
0100
0001
0100
,
0001
0000
0100
0002
0000
0003
0010
0000
,
0100
0000
1000
0100
0000
1000
0100
0010
,
0001
0100
0010
0100
,
1000
0100
1000
0100
,
1100
0000
0100
0010
0200
0300
0010
0000
,
0101
0110
1100
0110
,
0202
0000
0303
2002
0000
3003
0100
0000
,
0010
0000
0001
0100
0001
0000
0100
0000
,
0010
0001
0100
1000
0010
0100
0010
0100
,
0011
1100
0110
0101
,
2002
0000
3003
0220
0000
0330
1000
0000
,
0100
0000
1000
0000
0100
1000
0100
0000
,
0010
0000
0001
0000
0100
0001
0100
0000
,
0110
0011
1100
0110
,
0202
0303
2020
3030
0202
0303
0220
0330
,
2002
0000
0000
0000
,
3003
0000
0000
0000
;
