#TITLE:recuérdame... (feat. Marc Anthony);
#SUBTITLE:;
#ARTIST:La 5ta Estación;
#TITLETRANSLIT:;
#SUBTITLETRANSLIT:;
#ARTISTTRANSLIT:;
#GENRE:Latin;
#CREDIT:Wrland;
#MUSIC:recuerdame... (feat. Marc Anthony).ogg;
#BANNER:recuerdame... (feat. Marc Anthony).png;
#BACKGROUND:BG.png;
#LYRICSPATH:recuerdame... (feat. Marc Anthony).lrc;
#CDTITLE:Wrland Season 3 CITYGHT + last one night.png;
#PREVIEWVID:preview.mp4;
#SAMPLESTART:68.455;
#SAMPLELENGTH:15.000;
#SELECTABLE:YES;
#OFFSET:0.000;
#BPMS:0.000=94.983
,2.000=93.985
,148.000=46.993
,149.000=93.985
;
#STOPS:;
#DISPLAYBPM:118.000;
#JACKET:recuerdame... (feat. Marc Anthony)-jacket.png;
#CDIMAGE:recuerdame... (feat. Marc Anthony)-cd.png;
#METERTYPE:DDR X;
#BGCHANGES:0.000=recuerdame... (feat. Marc Anthony).avi=0.000=0=0=0=StretchNoLoop====,
99999=-nosongbg-=1.000=0=0=0 // don't automatically add -songbackground-
;
#FGCHANGES:;

//--------------- dance-single - Wrland ----------------
#NOTES:
     dance-single:
     Wrland:
     Beginner:
     1:
     0,0,0,0,0:
0000
0000
0000
0000
,
0000
0000
0000
0000
,
0000
0000
0000
0000
,
0000
0000
0000
0000
,
0000
0000
0000
0000
,
0200
0000
0000
0000
,
0000
0300
0000
0000
,
2000
0000
0000
3000
,
2000
0000
0000
0000
,
0000
0000
3000
0000
,
0002
0000
0000
0003
,
0010
0010
0010
0000
,
0200
0000
0000
0000
,
0000
0000
0300
0000
,
2000
0000
0000
3000
,
0020
0000
0000
0000
,
0000
0000
0030
0000
,
0200
0000
0000
0300
,
1000
0100
0010
0000
,
0020
0000
0030
0000
,
0200
0000
0300
0000
,
2000
0000
3000
0000
,
0002
0000
0003
0000
,
2000
0000
3000
0000
,
0200
0000
0300
0000
,
0020
0000
0030
0000
,
0200
0000
0300
0000
,
0110
0000
0000
0000
,
1001
0000
0000
0000
,
1000
0000
0000
0000
,
1000
0000
0000
0000
,
0100
0000
0000
0000
,
0010
0000
0000
0000
,
0100
0000
0000
0000
,
0010
0000
0000
0000
,
0001
0000
0000
0000
,
1000
0000
0000
0000
,
0200
0300
0000
0010
,
0000
0000
0000
0100
,
0000
0000
0000
0010
,
0000
0000
0000
0001
,
0000
0000
0000
0010
,
0000
0000
0000
1000
,
0000
0000
0000
0220
,
0330
0000
0000
2000
,
0000
0000
0000
0000
,
3000
0000
0000
2000
,
0000
0000
0000
3000
,
0000
0000
0000
0002
,
0000
0000
0000
0003
,
0000
0000
0000
0002
,
0000
0000
0000
0000
,
0003
0000
0000
0200
,
0000
0000
0000
0000
,
0300
0000
0000
0000
;

//--------------- dance-single - Wrland ----------------
#NOTES:
     dance-single:
     Wrland:
     Easy:
     3:
     0,0,0,0,0:
0000
0000
0000
0000
,
0000
0000
0000
0000
,
0000
0000
0000
0000
,
0000
0000
0000
0000
,
0000
0000
0000
0000
,
2000
0000
3000
0000
,
2000
0000
3000
0000
,
0002
0000
0003
0000
,
0002
0000
0003
0000
,
0020
0000
0030
0000
,
0200
0000
0300
0000
,
2000
0000
3000
0000
,
0200
0000
0300
0000
,
0200
0000
0300
0000
,
0020
0000
0030
0000
,
0200
0000
0300
0000
,
2000
0000
3000
0000
,
0200
0000
0300
0000
,
0020
0000
0030
0000
,
0002
0000
0003
0000
,
0002
0000
0003
0000
,
2000
0000
3000
0000
,
0200
0000
0300
0000
,
0020
0000
0030
0000
,
0002
0000
0003
0000
,
2000
0000
3000
0000
,
0200
0300
0010
0100
,
0110
0000
1000
0000
,
0100
0000
1000
0000
,
0100
0000
0010
0000
,
0001
0000
0100
0001
,
0100
0000
1000
0000
,
0100
0000
1000
0000
,
0100
0000
0010
0000
,
0100
0000
0010
0000
,
0001
0000
0010
0000
,
0100
0000
1000
0000
,
0220
0330
1000
0000
1000
0000
0001
0000
,
0000
1000
0000
0100
,
0000
1000
0000
0100
,
0000
0010
0000
0100
,
0000
0010
0000
0001
,
0000
0001
0000
0100
,
0000
0100
0000
0220
,
0000
0330
0000
2000
,
0000
3000
0000
2000
,
0000
3000
0000
0002
,
0000
0003
0000
0002
,
0000
0003
0000
2000
,
0000
3000
0000
2000
,
0000
3000
0000
0020
,
0000
0030
0000
0200
,
0000
0300
0000
0020
,
0000
0000
0000
0000
,
0030
0000
0000
0000
;

//--------------- dance-single - Wrland ----------------
#NOTES:
     dance-single:
     Wrland:
     Medium:
     7:
     0,0,0,0,0:
0000
0000
0000
0000
,
0000
0000
0000
0000
,
0000
0000
0000
0000
,
0000
0000
0000
0000
,
0000
0000
0000
0000
,
2000
3000
2000
3000
2000
0000
3000
0000
,
0200
0300
2000
3000
0200
0000
0300
0000
,
0020
0030
0002
0003
0020
0000
0030
0000
,
0200
0300
0020
0030
0200
0000
0300
0000
,
0020
0030
0002
0003
0020
0000
0030
0000
,
0200
0300
2000
3000
0200
0000
0300
0000
,
0200
0300
0020
0030
0002
0000
0003
0000
,
0200
0300
0002
0003
0200
0000
0300
0000
,
0020
0030
0200
0300
2000
0000
3000
0000
,
2000
3000
0200
0300
0020
0000
0030
0000
,
0002
0003
0020
0030
0200
0000
0300
0000
,
2000
3000
0200
0300
2000
0000
3000
0000
,
0200
0300
0020
0030
0002
0000
0003
0000
,
0200
0300
2000
3000
0200
0000
0300
0000
,
2000
3000
2000
3000
2000
0000
3000
0000
,
0002
0003
0002
0003
0002
0000
0003
0000
,
2000
3000
2000
3000
2000
0000
3000
0000
,
0200
0300
0200
0300
0200
0000
0300
0000
,
0020
0030
0020
0030
0020
0000
0030
0000
,
0002
0003
0200
0300
0002
0000
0003
0000
,
0020
0030
0200
0300
2000
0000
3000
0000
,
0100
0000
1000
0000
0100
0010
0001
0100
,
1001
0000
1000
0100
0000
0100
0010
0001
,
0100
0000
0010
0100
0000
1000
0100
0000
,
0010
0000
0001
0100
0000
0010
0100
0000
,
1000
0000
0100
1000
0000
0100
0010
0000
,
0100
0000
1000
0100
0000
0100
0010
0001
,
0100
0000
0010
0100
0000
0100
0010
0000
,
0001
0000
0100
0010
0000
1000
0100
0000
,
0100
0000
0010
0100
0000
0010
0001
0100
,
0101
0000
0010
1010
0000
0000
0100
0010
,
0101
0000
0010
0110
0000
1000
0100
1000
,
0202
0303
1001
0000
1000
0100
0010
0000
,
0100
0010
0000
0001
0100
0001
0100
0000
,
0010
0100
0000
1000
0100
0010
0100
0000
,
0001
0100
0010
0001
0100
0010
1000
0100
,
0010
0001
0100
0001
0100
0010
0110
0000
,
1000
1100
0000
0100
0010
0001
0101
0000
,
0010
0110
0000
0100
1000
0100
0020
0030
,
0002
0003
2000
3000
0200
0300
0220
0330
,
2000
3000
0200
0300
2000
3000
0200
0300
,
0020
0030
0002
0003
0020
0030
0200
0300
,
2000
3000
0020
0030
0200
0300
0002
0003
,
0200
0300
0020
0030
0200
0300
2000
3000
,
0200
0300
0002
0003
0020
0030
0200
0300
,
2000
3000
0200
0300
0002
0003
0200
0300
,
0020
0030
0200
0300
2000
3000
0200
0300
,
0020
0030
0002
0003
0200
0300
0020
0000
,
0000
0000
0000
0000
,
0030
0000
0000
0000
;

//--------------- dance-single - Wrland ----------------
#NOTES:
     dance-single:
     Wrland:
     Hard:
     10:
     0,0,0,0,0:
0000
0000
0000
0000
,
0000
0000
0000
0000
,
0000
0000
0000
0000
,
0000
0000
0000
0000
,
1000
0001
1000
0001
1000
0001
1000
0100
,
2000
3000
0100
2000
3000
0100
0010
0000
,
0020
0030
0200
0300
0020
0030
0002
0003
,
0100
0001
0010
0100
0010
0001
0200
0300
,
2000
3000
0200
0300
0200
0300
0020
0030
,
0002
0003
0200
0300
0001
0100
0002
0003
,
0020
0030
0100
1000
0100
0010
0001
0100
,
2200
3300
0100
0010
0220
0330
0010
0000
,
0002
0003
0100
0002
0003
0100
0010
0100
,
2000
3000
0200
0300
0020
0030
0002
0003
,
0010
0100
0010
0001
0100
0010
0200
0300
,
2000
3000
0200
0300
0020
0030
0002
0003
,
0020
0030
0200
0300
2000
3000
0200
0300
,
2000
3000
0100
1000
0100
1000
0200
0300
,
0100
0010
0001
0100
0010
0001
0100
0001
,
0200
0300
0001
0200
0300
0010
0100
0010
,
0002
0003
0200
0300
2000
3000
0200
0300
,
2000
3000
0100
1000
0100
0010
0001
0100
,
0020
0030
0200
0300
2000
3000
0100
1000
,
0100
0010
0002
0003
0200
0300
0010
0100
,
0020
0030
0002
0003
0200
0300
2000
3000
,
0100
1000
0100
1000
0100
0010
0001
0100
,
0001
0000
0100
0001
0010
0000
1000
0010
0100
0000
0010
0000
0001
1000
0100
0001
,
0200
0300
0010
0100
0010
0001
0101
0010
,
2000
3000
0100
1000
0100
0010
0001
0100
,
0020
0000
0030
0000
0100
0000
1000
0000
0100
0000
0001
0000
0010
0000
0100
0001
,
0220
0000
0330
0000
1000
0000
0100
0000
0010
0000
0001
0000
0100
0000
0001
0100
,
0002
0003
0010
0100
1000
0100
1000
0100
,
0020
0000
0030
0000
0100
0000
0010
0000
0001
0000
0100
0001
0100
0000
0010
0000
,
0200
0300
1000
0100
0010
0100
1000
0100
,
0020
0030
0100
1000
0100
0010
0001
0100
,
0202
0000
0303
0000
0010
0000
0110
0000
1000
0000
0100
0010
0100
0000
0010
0000
,
0202
0000
0303
0000
0010
0000
1000
0100
1000
0000
0100
0010
0001
0000
0100
0000
,
0202
0000
0303
0000
1000
0000
0000
0100
0020
0000
0030
0000
0001
0000
0100
0000
,
0010
1000
0100
1000
0100
0010
0002
0003
,
0100
0000
0010
0000
0100
0000
1000
0000
0100
0000
1000
0000
0100
0010
0001
0100
,
0010
1000
0100
0010
0001
0100
0010
1000
0100
0000
1000
0100
0010
0000
0100
0010
,
0001
0100
0010
0001
1000
0100
0010
0001
0100
0001
1000
0000
0202
0000
0303
0000
,
0010
0000
1000
0010
0100
0000
0010
0001
0100
0000
0010
0000
2200
0000
3300
0000
,
0100
0000
0001
0100
0001
0000
0010
0000
0100
0010
0001
1000
0200
0000
0300
0000
,
0020
0030
0200
0300
2000
3000
0200
0300
,
1000
0100
0010
0001
0100
0010
0100
0000
,
1000
0100
0010
0001
0100
0000
0010
0000
,
0100
0010
0001
0100
0010
0000
1000
0000
,
0100
1000
0100
0010
0001
0000
0100
0000
,
0010
0100
0010
0000
0001
0000
0001
1000
,
0001
1000
0001
0000
1000
0000
0100
0000
,
1000
0100
1000
0000
0100
0000
0010
0000
,
0100
0010
0001
0000
0010
0000
2000
0000
,
0000
0000
0000
0000
,
3000
0000
0000
0000
;
