#TITLE:♡らぶ☆ちゅき!!;
#SUBTITLE:;
#ARTIST:あべにゅうぷろじぇくと feat.佐倉紗織;
#TITLETRANSLIT:♡love☆chi~yuki!!;
#SUBTITLETRANSLIT:avenew project feat.Saori Sakura;
#ARTISTTRANSLIT:;
#GENRE:J-Pop/Denpa;
#CREDIT:Wrland;
#MUSIC:love chi~yuki!!.ogg;
#BANNER:love chi~yuki!!.png;
#BACKGROUND:love chi~yuki!!-bg.png;
#CDTITLE:Wrland Season 3 CITYGHT.png;
#SAMPLESTART:63.693;
#SAMPLELENGTH:12.000;
#SELECTABLE:YES;
#OFFSET:-2.966;
#BPMS:0.000=165.000;
#STOPS:;
#DISPLAYBPM:165.000;
#CDIMAGE:love chi~yuki!!-cd.png;
#JACKET:love chi~yuki!!-jacket.png;
#BGCHANGES:0.000=love chi~yuki!!.avi=0.000=0=0=0=StretchNoLoop====,
99999=-nosongbg-=1.000=0=0=0 // don't automatically add -songbackground-
;
#FGCHANGES:;

//--------------- dance-single - ----------------
#NOTES:
     dance-single:
     :
     Beginner:
     2:
     0,0,0,0,0:
0000
0000
0000
0000
,
0000
0000
0000
0000
,
0000
0000
0000
0000
0000
0000
0000
1000
,
0000
0000
0000
0000
0000
0000
0000
1000
,
0000
0000
0000
0000
0000
0000
0000
0010
,
0000
0000
0000
0000
0000
0000
0000
0001
,
0000
0000
0000
1001
,
1000
0000
0000
0000
0000
0000
0000
1000
,
0000
0000
0000
0000
0000
0000
0000
0100
,
0000
0000
0000
0000
0000
0000
0000
0010
,
0000
0000
0000
0000
,
0100
0000
0000
0000
0000
0000
0000
0100
,
0000
0000
0000
0000
,
0010
0000
0000
0000
0000
0000
0000
0010
,
0000
0000
0000
1000
,
0000
0000
0100
0000
,
0000
0000
0000
0000
0000
0000
0000
0010
,
0000
0000
0000
0000
0000
0000
0000
0001
,
0000
0000
0000
0000
,
0100
0000
0000
0000
0000
0000
0000
1000
,
0000
0000
0000
0000
0000
0000
0000
0100
,
0000
0000
0000
0000
,
1000
0000
0000
0000
0000
0000
0000
1000
,
0000
0000
0000
0000
,
1001
0000
0000
0000
,
0000
0000
0000
0000
,
0100
0000
0000
0000
,
0000
0000
0000
0000
,
0100
0000
0000
0000
,
0000
0000
0000
0000
,
0010
0000
0000
0000
,
0000
0000
0000
0000
,
0100
0000
0000
0000
,
0000
0000
0000
0000
,
0010
0000
0000
0000
,
0000
0000
0000
0000
,
0001
0000
0000
0000
,
0000
0000
0000
0000
,
0001
0000
0000
0000
,
0000
0000
0000
0000
,
1000
0000
0000
0000
,
0000
0000
0000
1000
,
0000
0000
0001
0000
,
0000
0000
0000
0000
0000
0000
0000
1000
,
0000
0000
0000
0000
0000
0000
0000
0100
,
0000
0000
0000
0000
,
1000
0000
0000
0000
0000
0000
0000
0010
,
0000
0000
0000
0000
,
0100
0000
0000
0000
0000
0000
0000
0100
,
0000
0000
0000
0010
,
0000
0000
0001
0000
,
0000
0000
0000
0000
0000
0000
0000
0100
,
0000
0000
0000
0000
0000
0000
0000
0100
,
0000
0000
0000
0000
0000
0000
0000
0010
,
0000
0000
0000
0000
0000
0000
0000
0100
,
0000
0000
0000
0000
0000
0000
0000
0100
,
0000
0000
0000
0000
,
0100
0000
0000
0000
0000
0000
0000
0010
,
0000
0000
0000
0000
,
0001
0000
0000
0000
0000
0000
0000
0001
,
0000
0000
0000
0000
0000
0000
0000
1000
,
0000
0000
0000
0000
0000
0000
0000
1000
,
0000
0000
0000
0000
0000
0000
0000
0001
,
0000
0000
0000
0000
0000
0000
0000
0001
,
0000
0000
0000
0000
0000
0000
0000
0100
,
0000
0000
0000
0000
0000
0000
0000
0100
,
0000
0000
0000
0000
0000
0000
0000
0010
,
0000
0000
0000
0000
0000
0000
0000
0010
,
0000
0000
0000
1001
,
0000
0000
0000
1001
;

//--------------- dance-single - ----------------
#NOTES:
     dance-single:
     :
     Easy:
     4:
     0,0,0,0,0:
0000
0000
0000
0000
,
0000
0000
0000
0000
,
0000
0000
0000
0000
0000
0000
0000
1000
,
0000
0000
1000
0000
0100
0000
0000
0100
,
0000
0000
0100
0000
0010
0000
0000
0100
,
0000
0000
0100
0000
0010
0000
0000
0001
,
0000
0000
0001
0000
0010
0000
0000
0100
,
0000
0000
0100
0000
,
1000
0000
0000
0000
1000
0000
0000
0100
,
0000
0000
0000
0000
0010
0000
0000
0100
,
0000
0000
0001
0000
0000
0010
0001
0000
,
0100
0000
0000
0000
0010
0000
0000
0001
,
0000
0000
0100
0000
,
1000
0000
0000
1000
0000
0100
0000
1000
,
0000
0000
0100
0010
,
0100
0000
0000
0000
0100
0000
0000
0010
,
0000
0000
0000
0000
0010
0000
0000
0001
,
0000
0000
0000
0000
0100
0000
0000
1000
,
0000
0100
0100
0000
0000
0100
0010
0000
,
0001
0000
0000
0000
0100
0000
0000
1000
,
0000
0000
0000
0000
0100
0000
0000
0010
,
0000
0000
0000
0000
,
0100
0000
0000
0000
0100
0000
0000
0010
,
0000
0000
0010
0100
,
0010
0000
0001
0000
0010
0100
1000
0200
,
0000
0000
0000
0300
,
1001
0000
0000
0000
0100
0000
0000
2000
,
0000
0000
3000
0000
,
1000
0000
0000
0000
0100
0000
0000
0020
,
0000
0000
0030
0100
,
0010
0000
0000
0000
0001
0000
0000
0200
,
0000
0000
0300
0100
,
0010
0000
0000
0000
0010
0000
0000
0200
,
0000
0000
0300
0000
,
1000
0000
0000
0000
,
1000
0000
0000
0000
,
0001
0000
0000
0000
0000
0000
0000
0001
,
0000
0000
0000
0000
,
0100
0000
0000
0000
0000
0000
0000
0100
,
0000
0000
0000
0000
,
0020
0000
0000
0030
,
M020
0M00
M000
0000
M000
0M00
M030
0100
,
0000
0000
0000
0000
0100
0000
0000
0010
,
0000
0000
0000
0000
0100
0000
0000
0010
,
0000
0000
0000
0000
0001
0000
0000
0010
,
0000
0000
0000
0000
0000
0100
1000
0000
,
0100
0000
0000
0000
1000
0000
0000
0100
,
0000
0010
0001
0000
,
1000
0000
0000
0100
0000
0000
0000
0010
,
0000
0000
0100
0010
,
1000
0000
0000
0000
0100
1000
0000
0100
,
0000
0000
0000
0000
0010
0000
0000
0100
,
0000
0000
0000
0000
0100
0100
0000
1000
,
0000
0100
0010
0000
0000
0100
0010
0100
,
0000
0000
0010
0000
0001
0010
0000
0100
,
0000
0000
0010
0000
0100
0010
0100
1000
,
0000
0000
0000
0000
0000
0000
0000
0100
,
1000
0000
0000
0000
0010
0001
0000
0010
,
0000
0100
0000
1000
0100
0000
0100
0000
,
1000
0000
0000
0000
0100
0000
0000
0020
,
0000
0000
0000
0000
0030
0000
0000
0010
,
0000
0000
0100
0000
0010
0000
0000
0001
,
0000
0000
0010
0000
0100
0000
1000
0010
,
0000
0000
0100
0000
0010
0000
0000
0100
,
0000
0000
0010
0000
0001
0000
0000
0010
,
0000
0000
0100
0000
0010
0000
0000
0001
,
0000
0000
0010
0000
0100
0000
0000
1000
,
0000
0100
1000
0100
,
0000
0000
0010
0000
0100
0000
0000
0010
,
0000
0100
0010
0000
0110
0000
1001
0000
;

//--------------- dance-single - ----------------
#NOTES:
     dance-single:
     :
     Medium:
     8:
     0,0,0,0,0:
0000
0000
0000
0000
,
0000
0000
0000
0000
,
0000
0000
0000
0000
0000
0000
0000
1000
,
0000
1000
0100
0000
1000
0100
0010
0100
,
0000
0010
0100
0000
0010
0100
1000
0001
,
0000
0010
0001
0000
0010
0001
0001
0010
,
0000
0100
0010
0000
0100
0100
1000
0000
,
0100
0100
0100
0010
0100
0010
0000
0100
,
0000
1000
0100
1000
0100
0010
1000
0100
,
0000
0010
0001
0100
0001
0010
0100
1000
,
0000
0100
0010
0000
0000
0010
0100
0000
,
0010
0000
0001
0000
0100
1000
0000
0010
,
0000
0001
0100
0000
0010
0000
0100
0010
,
0001
0000
0001
0110
0000
0100
0000
1000
,
0000
0100
0010
0001
1100
0000
1001
0010
,
0110
0110
0110
0110
0100
0010
0000
0100
,
0000
0010
0100
0010
1000
0100
0010
0100
,
0000
0010
0100
0010
0001
0100
0000
0010
,
0000
0100
1000
0000
0000
0100
0010
0001
,
0001
0000
0010
0000
0100
0010
0000
1000
,
0000
0000
0100
0000
1000
0100
1000
0200
,
0000
0000
0000
0000
0300
0000
0000
0100
,
0010
0000
0000
0001
0010
0000
0000
0100
,
0000
0010
0000
0100
0010
0000
0100
0000
,
1000
0000
0100
0000
1000
0100
1000
0200
,
0000
0000
0000
0300
,
0100
0000
0000
0001
0010
0000
0000
0200
,
0000
0000
0000
0000
0300
0010
0000
1000
,
0001
0000
0010
0001
0000
0010
0000
0200
,
0000
0000
0000
0000
0300
0000
0010
0100
,
0010
0000
0010
0001
0000
0100
0000
0100
,
0000
0020
0000
0000
0030
0000
0010
0000
,
1000
0100
0000
0010
0000
0100
0000
1010
,
0000
0100
0020
0000
0000
0000
0030
0000
,
2002
3003
0011
0110
,
2200
0000
0000
3300
0000
1000
0100
1000
,
0200
0300
0001
0010
0000
0100
0000
0010
,
0000
0100
0001
2020
0000
0000
3030
0000
,
0100
1000
0000
0100
0000
0010
0000
0100
,
0000
0010
0001
0000
0100
0000
0010
0000
,
0100
0010
0000
0002
0000
0000
0003
0000
,
1000
0001
1000
0000
0001
1000
1001
0100
,
0010
0000
0100
0010
0100
0011
0000
0100
,
0000
1000
0100
0010
0001
0100
0010
0011
,
0000
0100
1000
0010
0100
1000
0010
0100
,
0000
1000
0010
0000
0000
1001
0110
0000
,
0100
0000
0001
0000
0010
1000
0000
0100
,
0000
0010
0100
0000
0100
0000
0010
0100
,
1000
0000
1000
0100
0000
1000
0000
0100
,
0000
0001
0100
0010
0001
0000
0100
0010
,
0000
0100
0010
1000
0001
0010
0000
0100
,
0000
0010
0100
1000
0000
0100
0010
0100
,
0000
1000
0100
0010
0001
0000
0000
0100
,
0000
0010
0100
0000
0000
0100
0010
0000
,
0001
0000
0010
0000
0100
0000
1000
0100
,
0000
0000
1000
0000
0100
0010
0001
0200
,
0000
0000
0000
0000
0300
0000
0000
0010
,
0100
0000
0000
0001
0100
0000
0000
1000
,
0000
0100
0000
1000
0100
0000
0010
0000
,
0001
0000
0100
0000
0010
0100
0010
0002
,
0000
0000
0000
0000
0003
0000
0000
1001
,
0000
0100
1000
0000
0100
0001
0010
0100
,
0000
1000
0100
0000
0010
0001
1000
0100
,
0000
0010
0001
0000
0100
0010
0100
0010
,
0000
0100
1000
0000
0100
0010
0100
0010
,
0000
0001
0100
0000
0010
1000
0100
0010
,
0000
0100
1000
0000
0100
0010
0100
0010
,
0000
0001
1000
0000
0100
0100
0010
0001
,
0000
0100
0010
0000
0100
0010
1000
0100
,
0010
0100
0010
0000
1001
0000
1001
0000
;

//--------------- dance-single - ----------------
#NOTES:
     dance-single:
     :
     Hard:
     11:
     0,0,0,0,0:
0000
0000
0000
0000
,
0000
0000
0000
0000
,
0000
0000
0000
0000
0000
0000
0000
1001
,
0000
0100
0010
0000
0100
0010
0001
0100
,
0000
1000
0100
0000
0010
0100
1000
0100
,
0000
0010
0001
0000
0100
0010
1000
0100
,
0000
0010
0001
0000
0100
0010
0100
0010
,
0000
0001
1000
0100
0010
0100
0000
1000
,
0000
0100
0010
0001
0100
0010
1000
0100
,
0000
1000
0100
1000
0100
0010
0001
0100
,
0000
0010
0010
0000
0000
1001
1001
0100
,
0010
0000
0100
0000
0010
0100
0000
1000
,
0000
0100
0010
0000
0010
0000
0100
0001
,
1100
0000
0011
1100
0000
0101
0000
1010
,
0000
0011
1100
0011
1001
0000
1001
0100
,
0010
0100
0001
0010
1100
0011
0100
0010
,
0000
1000
0010
0100
0010
1000
0010
0100
,
0000
0010
1000
0010
0100
0010
0000
0100
,
0000
0001
1000
0000
0000
0110
0110
1000
,
0001
0000
0100
0000
0010
1000
0000
0010
,
0000
0100
0010
0000
0001
1000
0010
2000
,
0000
0000
0000
0000
3000
0000
0000
1010
,
1010
0000
0000
0101
0101
0000
0000
0110
,
0000
1001
0000
0110
0110
0000
1001
0000
,
1010
0000
0101
0000
1010
0101
1000
2020
,
0000
0000
0000
3030
,
1000
0000
0100
0000
0100
1000
0000
0200
,
0000
0000
0300
0000
0000
0100
0000
0010
,
0001
0000
0010
1000
0000
0100
0000
0020
,
0000
0000
0030
0100
,
0010
0000
0100
0010
0000
0001
0000
0100
,
0000
2000
0000
0000
3000
0000
0100
1000
,
0100
0100
0000
1000
0000
1000
0000
0100
,
0000
0010
0002
0000
0000
0000
0003
0000
,
2002
0000
3003
0000
2022
0000
0000
3033
,
2202
0000
0000
3303
0000
0100
0010
0100
,
1000
0000
0100
0100
0000
0010
0000
1000
,
0000
0001
0100
0020
0000
0000
0030
0000
,
1000
0010
0000
0100
0000
1010
0000
0101
,
0000
1000
0010
0000
0001
0000
1000
0010
,
0100
0001
0000
2002
0000
0000
3003
0000
,
1M1M
0000
MM11
MMMM
11MM
MMMM
MMMM
MMMM
M1M1
MMMM
1M1M
MMMM
1M11
0000
1000
0000
,
0000
0100
0010
1000
0101
0011
0000
0010
,
0000
0100
0010
0001
1000
0100
0010
0001
,
0000
0100
1000
0100
1000
0100
0010
0100
,
0000
0001
0100
0000
0000
1001
1001
0000
,
0110
0000
1001
0000
0100
0010
0000
1010
,
0000
0101
0110
0000
1010
0000
0101
0101
,
1010
0000
0110
0110
0000
1001
0000
0110
,
0000
1010
1010
0110
0101
0000
1001
0000
,
0100
0010
1000
0100
1001
1001
0110
0110
,
0000
0010
1000
0010
0100
0001
1000
0110
,
0000
0010
1000
0010
0100
0001
0100
0010
,
0000
1000
0010
0000
0000
1010
1010
0101
,
0101
0000
0010
0000
1000
0010
0100
0001
,
0000
1000
0010
0100
0001
1000
0010
2000
,
0000
0000
0000
0000
0000
3000
0000
1010
,
1010
0000
0000
0101
0101
0000
0000
0110
,
0000
1001
0000
0110
0110
0000
1001
0000
,
1010
0000
0101
0000
0010
1000
0010
0200
,
0000
0000
0000
0000
0300
0000
0000
1001
,
0000
0100
0010
1000
0001
0100
1001
1001
,
0100
0010
1000
0001
0100
1001
1001
0100
,
0010
1000
0110
0001
0100
1010
1010
0100
,
0001
1000
0010
0100
0010
1010
1010
0100
,
0001
1000
0010
0100
1010
0011
0110
0100
,
0001
1000
0010
0100
0010
0110
0110
1000
,
0001
0100
0010
0100
0010
1000
1010
0010
,
0100
0101
0010
1000
0010
0101
0101
0010
,
1000
0001
1000
0000
1001
0000
1M11
0000
;
