#TITLE:絆-kizunairo-色;
#SUBTITLE:;
#ARTIST:Lia;
#TITLETRANSLIT:kizunairo;
#SUBTITLETRANSLIT:;
#ARTISTTRANSLIT:;
#GENRE:J-Pop;
#CREDIT:;
#MUSIC:kizunairo.ogg;
#BANNER:kizunairo.png;
#BACKGROUND:kizunairo-bg.png;
#CDTITLE:Wrland Season 3 CITYGHT.png;
#SAMPLESTART:58.120;
#SAMPLELENGTH:12.000;
#SELECTABLE:YES;
#OFFSET:0.000;
#BPMS:0.000=128.011;
#STOPS:;
#DISPLAYBPM:128.000;
#JACKET:kizunairo-jacket.png;
#CDIMAGE:kizunairo-cd.png;
#BGCHANGES:;
#FGCHANGES:;

//--------------- dance-single - ----------------
#NOTES:
     dance-single:
     :
     Beginner:
     1:
     0,0,0,0,0:
0000
0000
0000
0000
,
0000
0000
0000
0000
,
0000
0000
0000
0000
,
0000
0000
0000
0000
,
0100
0000
0000
0000
,
0000
0000
0000
0000
,
0100
0000
0000
0000
,
0000
0000
0000
0000
,
0100
0000
0000
0000
,
0000
0000
0000
0000
,
0010
0000
0000
0000
,
1001
0000
0000
0000
,
0000
0000
0000
0000
,
0100
0000
0000
0000
,
0000
0000
0000
0000
,
0010
0000
0000
0000
,
0000
0000
0000
0000
,
0010
0000
0000
0000
,
0000
0000
0000
0000
,
0001
0000
0000
0000
,
0000
0000
0000
0000
,
1000
0000
0000
0000
,
0000
0000
0000
0000
,
0100
0000
0000
0000
,
0000
0000
0000
0000
,
0010
0000
0000
0000
,
0000
0000
0000
0000
,
0100
0000
0000
0000
,
0000
0000
0000
0000
,
1000
0000
0000
0000
,
0000
0000
0000
0000
,
0110
0000
0000
0000
,
0000
0000
0000
0000
,
0010
0000
0000
0000
,
0000
0000
0000
0000
,
0011
0000
0000
0000
,
0000
0000
0000
0000
,
0001
0000
0000
0000
,
0000
0000
0000
0000
,
1000
0000
0000
0000
,
0000
0000
0000
0000
,
0100
0000
0000
0000
,
0000
0000
0000
0000
,
1000
0000
0000
0000
,
0000
0000
0000
0000
,
0100
0000
0000
0000
,
0000
0000
0000
0000
,
0020
0000
0000
0000
,
0130
0000
0000
0000
,
0000
0000
0000
0000
,
0001
0000
0000
0000
,
0000
0000
0000
0000
,
1000
0000
0000
0000
,
0000
0000
0000
0000
,
0100
0000
0000
0000
,
0000
0000
0000
0000
,
0010
0000
0000
0000
,
0000
0000
0000
0000
,
0010
0000
0000
0000
,
0000
0000
0000
0000
,
0100
0000
0000
0000
,
0000
0000
0000
0000
,
0100
0000
0000
0000
,
0000
0000
0000
0000
,
0010
0000
0000
0000
,
0000
0000
0000
0000
,
0020
0000
0000
0000
,
0000
0000
0000
0000
,
0000
0000
0030
0000
;

//--------------- dance-single - ----------------
#NOTES:
     dance-single:
     :
     Easy:
     3:
     0,0,0,0,0:
0000
0000
0000
0000
,
0000
0000
0000
0000
,
0000
0000
0000
0000
,
0000
0000
0000
0000
,
1000
0000
0000
0000
,
1000
0000
0000
0000
,
0001
0000
0000
0000
,
0001
0000
0000
0000
,
0100
0000
0000
0000
,
0100
0000
0000
0000
,
0010
0000
0000
0000
,
0010
0000
0000
0000
,
0100
0000
0000
0000
,
0010
0000
0000
0000
,
0001
0000
0000
0000
,
0010
0000
0000
0000
,
0100
0000
0000
0000
,
1000
0000
0000
0000
,
0100
0000
0000
0000
,
1000
0000
0000
0000
,
1000
0000
0000
0000
,
0100
0000
0000
0000
,
1000
0000
0000
0000
,
0010
0000
0000
0000
,
0001
0000
0000
0000
,
0100
0000
0000
0000
,
0010
0000
0000
0000
,
0100
0000
0000
0000
,
1000
0000
0000
0000
,
0001
0000
0000
0000
,
0010
0000
0000
0000
,
0100
0000
0000
0000
,
0100
0000
0000
0000
,
0010
0000
0000
0000
,
0001
0000
0000
0000
,
0100
0000
0000
0000
,
1000
0000
0000
0000
,
0100
0000
0000
0000
,
0010
0000
0000
0000
,
0100
0000
0000
0000
,
0010
0000
0000
0000
,
0100
0000
0000
0000
,
1000
0000
0000
0000
,
0100
0000
0000
0000
,
0001
0000
0000
0000
,
0010
0000
0000
0000
,
0100
0000
0000
0000
,
0020
0000
0000
0000
,
0130
0000
0000
0000
,
0001
0000
0000
0000
,
0010
0000
0000
0000
,
0100
0000
0000
0000
,
1000
0000
0000
0000
,
0100
0000
0000
0000
,
0100
0000
0000
0000
,
0010
0000
0000
0000
,
0100
0000
0000
0000
,
0010
0000
0000
0000
,
0001
0000
0000
0000
,
1000
0000
0000
0000
,
0010
0000
0000
0000
,
0100
0000
0000
0000
,
0010
0000
0000
0000
,
0100
0000
0000
0000
,
0010
0000
0000
0000
,
0100
0000
0000
0000
,
0220
0000
0000
0000
,
0000
0000
0000
0000
,
0000
0000
0330
0000
;

//--------------- dance-single - ----------------
#NOTES:
     dance-single:
     :
     Medium:
     8:
     0,0,0,0,0:
0000
0000
0000
0000
,
0000
0000
0000
0000
,
0000
0000
0000
0000
,
0000
0000
0000
0000
,
0100
0000
0000
0000
0010
0000
0000
0000
0100
0000
0010
0100
0100
0010
0000
0200
,
0000
0000
0000
0300
0000
0000
0100
0020
0000
0000
0000
0030
0000
0000
0100
0000
,
0010
0000
0100
0010
0000
0100
0000
0010
0000
0000
0100
0000
0000
0000
0100
0000
,
0010
0000
0100
0010
0000
0100
0020
0000
0000
0000
0030
0000
0100
0000
0000
0000
,
0010
0000
0000
0000
0100
0000
0000
0000
1000
0000
0000
0001
0000
0000
1000
0000
,
0100
0000
0000
0001
0000
0010
0200
0000
0000
0000
0000
0300
0000
0000
0000
0001
,
0010
0000
0100
1000
0000
0100
1000
0000
0000
0000
0100
0000
1000
0000
0100
0000
,
0010
0100
0010
0001
,
0200
0000
0000
0000
,
0320
0000
0000
0000
,
0032
0000
0000
0000
,
1003
0000
0100
0000
1000
0000
0100
1000
0100
0000
0010
0100
0000
0000
0000
0000
,
0000
0000
0100
0000
0010
0000
0001
0010
0001
0000
0010
0001
0010
0000
0100
0000
,
0010
0000
0100
0010
0000
0000
0000
0000
0010
0000
0000
0000
0100
0000
0000
0000
,
0010
0000
0100
0000
0010
0000
0001
1000
0001
0000
0000
0000
0000
0000
0000
0000
,
0100
0000
0010
0000
0100
0000
0100
0010
0100
0000
0100
0010
0000
0000
0000
0000
,
0000
0000
0100
0010
0100
0000
0001
0010
0001
0000
0010
0001
0010
0000
0100
0000
,
0010
0000
0000
0100
0000
0000
0010
0000
0000
0000
0000
0000
0100
0000
0020
0000
,
0000
0000
0030
0100
,
0011
0000
0000
0100
0000
0010
0000
0100
,
0010
0000
0000
0100
0000
0000
0010
0000
0000
1000
0100
0000
0010
0001
0010
0001
,
0010
0000
0100
0000
0000
0000
0010
0000
0100
0000
0010
0100
0000
0000
0010
0000
,
0001
0000
0100
0000
1000
0000
0100
0000
0000
0000
0010
0000
0001
0010
0000
0000
,
0100
0000
0000
1000
0000
0000
0100
0000
0000
0000
1100
0000
0000
0000
0100
0000
,
0010
0000
0000
0100
0000
0000
0010
0000
0000
0000
0001
0000
0010
0011
0000
0000
,
0200
0010
0010
0010
0010
0010
0010
0310
,
0100
0000
0000
0010
0000
0100
0000
0010
0000
0000
0000
0000
0100
0010
0100
0010
,
0100
0000
0000
0000
0010
0000
0000
0000
0100
0000
0001
0010
0100
0010
0000
0002
,
0000
0000
0000
0003
0000
0000
0100
0020
0000
0000
0000
0030
0000
0000
0100
0000
,
0010
0000
0100
0010
0000
1000
0000
0100
0000
0000
1000
0000
0000
0000
0100
0000
,
1000
0000
1000
0100
0000
0100
2000
0000
0000
0000
3000
0000
0100
0000
0000
0000
,
0010
0000
0000
0000
0100
0000
0000
0000
0010
0000
0000
0001
0000
0000
0001
0000
,
0010
0000
0000
0100
0000
0100
2000
0000
0000
0000
3000
0000
0000
0000
1000
0100
,
1000
0000
0000
0100
0000
0010
0100
0010
,
0100
0000
0010
0100
0000
0010
0100
0000
0000
0000
0000
0000
0010
0100
0010
0100
,
0010
0000
0000
0000
0001
0000
0000
0000
0010
0000
1000
0100
0010
0100
0000
0020
,
0000
0000
0000
0030
0000
0000
0001
0200
0000
0000
0000
0300
0000
0000
0010
0000
,
0100
0000
1000
0100
0000
0010
0000
0001
0000
0000
0010
0000
0001
0000
0010
0000
,
0010
0000
0100
1000
0000
1000
0200
0000
0000
0000
0300
0000
0010
0000
1000
0000
,
0001
0000
0000
0000
0010
0000
0000
0000
0100
0000
0000
1000
0000
0000
0100
0000
,
0010
0000
0001
0010
0000
0001
0020
0000
0000
0000
0030
0000
0000
0000
1000
0100
,
1000
0000
0100
0010
0000
0100
0010
0000
0000
0000
0001
0000
0100
0000
0010
0000
,
1000
0000
1000
0100
0000
0000
0000
0000
0010
0000
0000
0000
0010
0000
0000
0000
,
0202
0000
0000
0303
,
0100
0000
0000
0000
0100
0000
0000
0000
1000
0000
0000
0100
0000
0000
1000
0000
,
0100
0000
0000
0000
0000
0000
0010
0100
0010
0000
0001
0100
0001
0000
0010
0000
,
0100
0000
0020
0000
0000
0000
0000
0000
0000
0000
0000
0000
0030
0000
0010
0100
,
0010
0000
0100
0010
0000
0001
0000
0000
0200
0000
0000
0000
0300
0000
0010
0000
,
0100
0000
0000
0000
0010
0000
0000
0000
0100
0000
0000
0010
0000
0000
0001
0000
,
0100
0000
0000
0000
0000
0000
1000
0001
1000
0000
0100
0000
0010
0000
0100
0000
,
0010
0200
0000
0000
0000
0000
0300
0010
,
0100
0000
0000
0010
0000
0000
0001
0000
0200
0000
0000
0000
0300
0000
0000
0000
,
0011
0000
0000
0000
0110
0000
0000
0000
1000
0000
0000
0100
0000
0000
0010
0000
,
0100
0000
0000
0000
0000
0000
0010
0100
0000
0000
0010
0000
0100
0000
0010
0000
,
0001
0000
0200
0000
0000
0000
0000
0000
0000
0000
0000
0000
0300
0000
0100
1000
,
0100
0000
0010
0100
0000
0010
0000
0000
0002
0000
0000
0000
0003
0000
0100
0000
,
0010
0000
0000
0000
0100
0000
0000
0000
0010
0000
0000
0100
0000
0000
0100
0000
,
1000
0000
0000
0000
0000
0000
1000
0100
1000
0000
0100
0000
0100
0000
0010
0000
,
0100
0000
0010
0002
0000
0000
0000
0000
0000
0000
0000
0000
0003
0000
0100
0000
,
0010
0000
0000
0100
0000
0000
0100
0000
0020
0000
0000
0000
0030
0000
0000
0000
,
0001
1000
0001
1000
0001
1000
0001
1000
,
0001
1000
0001
1000
0001
1000
0001
1000
,
0002
0000
0000
0000
,
0000
0000
0000
0000
,
0000
0000
0003
0000
;

//--------------- dance-single - ----------------
#NOTES:
     dance-single:
     :
     Hard:
     10:
     0,0,0,0,0:
0000
0000
0000
0000
,
0000
0000
0000
0000
,
0000
0000
0000
0000
,
0000
0000
0000
0000
,
0010
0000
0100
0010
0000
0100
0000
0010
0000
0000
0100
0010
0100
0010
0000
0200
,
0000
0000
0000
0300
0000
0000
0010
0200
0000
0000
0000
0300
0000
0000
0001
0000
,
0010
0000
0010
0001
0000
0001
0000
0200
0000
0300
0020
0000
0030
0000
0100
0000
,
1000
0000
0100
1000
0000
0100
2000
0000
0000
3000
0000
0000
1000
0000
0100
0000
,
0020
0000
0030
0000
0200
0000
0300
0000
0002
0000
0003
0200
0000
0300
0010
0000
,
0200
0000
0300
0001
0000
0010
0200
0000
0000
0000
0300
0000
0000
0000
0010
0100
,
0010
0000
0001
0010
0000
0001
0010
0000
0001
0010
0001
0100
1000
0100
0010
0100
,
0020
0000
0001
1000
0001
1000
0031
1000
,
0020
0000
0000
0000
0230
0000
0000
0000
0320
0000
0000
0230
0000
0000
0320
0000
,
0032
0203
0320
0230
,
1300
0100
0010
0001
0010
0100
1000
0100
0010
0001
0010
0100
1000
0100
0010
0001
,
0010
0000
0100
0000
0010
0000
0100
0010
0100
0000
0010
0200
0000
0000
0300
0000
,
0001
0000
0010
0000
0001
0000
0010
0001
0010
0000
0100
0010
0000
0000
0100
0000
,
0200
0000
0300
1000
0200
0000
0000
0300
0000
0000
0010
0100
0010
0100
0010
1000
,
0100
0010
0100
0010
0001
0010
0100
0010
0001
0010
0100
0001
0010
0200
0000
0300
,
0010
0000
0100
0000
0010
0000
0100
0010
0100
0000
1000
0200
0000
0000
0300
0000
,
0000
0000
0100
0010
0001
0000
0001
0010
0100
0000
0010
0001
0010
0000
0100
0000
,
0020
0000
0030
0002
0000
0003
0020
0000
0000
0000
0030
0000
0100
0000
2000
0000
,
0000
0000
0000
0000
0000
0000
3000
0000
1000
0100
0010
0001
0020
0000
0030
0000
,
0200
0000
0300
0020
0030
0200
0300
0010
,
0200
0000
0300
0220
0000
0330
2002
0000
3003
0100
0010
0000
0100
0010
0100
0010
,
0100
0000
0020
0000
0030
0000
1000
0000
0100
0000
0010
0200
0000
0300
0010
0000
,
0100
0000
0010
0000
0001
0000
0020
0000
0030
0000
0100
0000
0010
0200
0000
0300
,
0022
0000
0033
0220
0000
0330
2200
0000
3300
0000
0220
0000
0330
0000
0110
0000
,
2200
0000
3300
0220
0000
0330
0202
0000
0303
0000
0100
0000
1000
0200
0000
0300
,
1000
1001
1000
1001
1000
1001
1000
1001
,
2002
0000
3003
0100
0000
0010
0000
0100
0010
0100
0010
0001
0010
0100
0010
0100
,
1011
0000
0010
0100
0000
1000
0000
0200
0000
0300
0010
0100
0010
0100
0000
0020
,
0000
0000
0000
0030
0000
0000
0100
0020
0000
0000
0000
0030
0000
0000
0100
0000
,
0010
0000
1000
0010
0000
0100
0000
0020
0000
0030
0002
0000
0003
0000
0010
0000
,
0100
0000
0010
0100
0000
0010
0200
0000
0000
0000
0300
0000
0010
0000
0100
0000
,
0020
0000
0030
0000
0002
0000
0003
0000
0020
0000
0030
0200
0000
0300
0100
0000
,
2000
0000
3000
0100
0000
0100
0020
0000
0000
0000
0030
0001
0100
0001
0100
0001
,
0200
0000
0300
0020
0030
0100
1000
0100
,
0010
0000
0100
0011
0000
0011
0200
0000
0000
0000
0300
0000
0001
0010
0001
0001
,
1110
0000
0010
0001
0000
0010
0000
0200
0000
0300
0010
0100
0010
0100
0000
0200
,
0000
0000
0000
0300
0000
0000
0100
0020
0000
0000
0000
0030
0000
0000
0001
0000
,
0010
0000
0100
0010
0000
0100
0000
2000
0000
3000
0100
0000
0010
0000
0001
0000
,
0100
0000
0010
0100
0000
0010
2000
0000
0000
0000
3000
0000
0010
0000
0100
0000
,
0002
0000
0003
0000
0200
0000
0300
0000
0020
0000
0030
2000
0000
3000
0010
0000
,
0100
0000
0010
0001
0000
0010
0002
0000
0000
0000
0003
0000
0000
0000
0010
0100
,
0010
0000
0001
0010
0000
0001
0020
0000
0030
0000
0100
0000
1000
0000
0100
0000
,
1000
0000
0100
2000
0001
0000
0010
0000
0001
0000
0010
0000
0001
0000
0010
0000
,
3002
0000
0000
0000
0100
0100
0100
0100
,
0203
0000
0300
0000
0200
0000
0300
0000
0200
0000
0300
2000
0000
3000
0100
0000
,
0020
0000
0000
0000
0030
0000
0001
0010
0001
0000
0001
0000
0010
0000
0010
0000
,
0100
0000
2000
0000
0010
0000
0001
0000
0010
0000
0001
0000
3010
0000
0100
0010
,
0100
0000
0010
0100
0000
0100
0000
0000
2001
0000
0001
0000
3001
0000
1000
0000
,
0002
0000
0003
0000
0020
0000
0030
0000
0200
0000
0300
0010
0000
0000
0100
0000
,
2000
0000
0000
0000
3000
0000
0100
0010
0001
0000
0001
0000
0010
0000
0100
0000
,
0100
2000
0010
0001
0010
0001
3010
0100
,
0020
0000
0030
0200
0000
0300
1000
0000
0100
0010
0001
0010
0100
1000
0100
0010
,
0002
0000
0003
0000
2000
0000
3000
0000
0002
0000
0003
2000
0000
3000
0001
0000
,
2000
0000
0000
0000
3000
0000
0100
0010
0100
0000
0010
0001
0010
0000
0100
0000
,
0010
0000
0200
0000
0000
0000
0000
0000
0010
0000
0000
0000
0310
0000
0010
0001
,
0010
0000
0100
0010
0000
0100
1000
0000
0200
0000
0300
0000
0100
0010
0100
0010
,
0200
0000
0300
0000
0022
0000
0033
0000
0200
0000
0300
0020
0000
0030
0200
0000
,
0320
0000
0000
0000
0030
0000
1000
0200
0000
0300
0010
0000
0100
0000
0010
0000
,
0010
0000
0001
0020
0000
0000
0000
0030
2000
0000
3000
0000
0100
0000
0010
0000
,
0200
0000
0300
0020
0000
0030
0100
0000
0020
1000
0001
1000
0001
0100
0001
1000
,
0130
0000
0011
0100
0010
0100
1000
0100
0010
0000
0101
0010
0001
0100
0010
0001
,
0100
0000
1001
0100
0010
0100
0010
0001
0100
0010
0000
0100
0010
0000
0100
0010
,
2002
0000
0000
0000
,
0000
0000
0000
0000
,
0000
0000
3003
0000
;
