#TITLE:blender;
#SUBTITLE:;
#ARTIST:Vivid BAD SQUAD × MEIKO;
#TITLETRANSLIT:;
#SUBTITLETRANSLIT:;
#ARTISTTRANSLIT:Vivid BAD SQUAD x MEIKO;
#GENRE:J-Pop/Project SEKAI;
#CREDIT:Wrland;
#MUSIC:blender (Vivid BAD SQUAD x MEIKO).ogg;
#BANNER:blender (Vivid BAD SQUAD x MEIKO).png;
#BACKGROUND:blender (Vivid BAD SQUAD x MEIKO)-bg.png;
#CDTITLE:Wrland Season 3 CITYGHT.png;
#SAMPLESTART:70.421;
#SAMPLELENGTH:12.000;
#SELECTABLE:YES;
#OFFSET:0.000;
#BPMS:0.000=109.000
,2.000=103.000
;
#STOPS:;
#DISPLAYBPM:103.000;
#JACKET:blender (Vivid BAD SQUAD x MEIKO)-jacket.png;
#CDIMAGE:blender (Vivid BAD SQUAD x MEIKO)-cd.png;
#METERTYPE:DDR X;
#BGCHANGES:0.000=blender (Vivid BAD SQUAD x MEIKO).avi=1.000=0=0=0=StretchNoLoop====,
99999.000=-nosongbg-=1.000=0=0=0=StretchNoLoop====,
99999=-nosongbg-=1.000=0=0=0 // don't automatically add -songbackground-
;
#FGCHANGES:;

//--------------- dance-single - Wrland ----------------
#NOTES:
     dance-single:
     Wrland:
     Beginner:
     1:
     0,0,0,0,0:
0000
0000
0000
0000
,
0000
0000
0000
0000
,
0000
0000
0000
0000
,
0000
0000
0000
0000
,
0000
0000
0000
0000
,
0000
0000
0000
0000
,
0000
0000
0000
0000
,
0000
0000
0000
0000
,
0000
0000
1000
0000
,
0000
0000
0000
0000
,
0000
0000
0100
0000
,
0000
0000
0000
0000
,
0000
0000
0010
0000
,
0000
0000
0000
0000
,
0000
0000
0001
0000
,
0000
0000
0000
0000
,
0000
0000
0010
0000
,
0000
0000
0000
0000
,
0000
0000
0100
0000
,
0000
0000
0000
0000
,
0000
0000
1000
0000
,
0000
0000
0000
0000
,
0000
0000
1000
0000
,
0000
0000
0000
0000
,
0000
0000
0100
0000
,
0000
0000
0000
0000
,
0000
0000
0010
0000
,
0000
0000
0000
0000
,
0000
0000
0001
0000
,
0000
0000
0000
0000
,
0000
0000
1000
0000
,
0000
0000
0000
0000
,
0000
0000
0001
0000
,
0000
0000
0000
0000
,
0000
0000
0100
0000
,
0000
0000
0000
0000
,
0000
0000
0010
0000
,
0000
0000
0000
0000
,
0000
0000
0010
0000
,
0000
0000
0000
0000
,
0000
0000
0001
0000
,
0000
0000
0000
0000
,
0000
0000
0100
0000
,
0000
0000
0000
0000
,
0000
0000
1000
0000
,
0000
0000
0000
0000
,
0000
0000
0100
0000
,
0000
0000
0000
0000
,
0000
0000
0010
0000
,
0000
0000
0000
0000
,
0000
0000
0001
0000
,
0000
0000
0000
0000
,
0000
0000
0100
0000
,
0000
0000
0000
0000
,
0000
0000
0020
0000
,
0000
0000
0000
0000
,
0030
0000
0000
0000
;

//--------------- dance-single - Wrland ----------------
#NOTES:
     dance-single:
     Wrland:
     Easy:
     3:
     0,0,0,0,0:
0000
0000
0000
0000
,
0000
0000
0000
0000
,
0000
0000
0000
0000
,
0000
0000
0000
0000
,
0000
0000
0000
0000
,
0000
0000
0000
0000
,
0000
0000
0000
0000
,
0000
0000
0000
0000
,
0000
0000
0100
0000
,
0000
0000
0100
0000
,
0000
0000
0010
0000
,
0000
0000
0001
0000
,
0000
0000
0010
0000
,
0000
0000
0100
0000
,
0000
0000
1000
0000
,
0000
0000
0100
0000
,
0000
0000
0100
0000
,
0000
0000
0010
0000
,
0000
0000
0001
0000
,
0000
0000
1000
0000
,
0000
0000
0100
0000
,
0000
0000
1000
0000
,
0000
0000
1000
0000
,
0000
0000
0100
0000
,
0000
0000
0010
0000
,
0000
0000
0001
0000
,
0000
0000
0100
0000
,
0000
0000
0010
0000
,
0000
0000
0100
0000
,
0000
0000
2000
0000
,
3000
0000
1000
0000
,
0100
1000
0100
0000
,
0010
0001
0010
0000
,
0100
0010
0100
0000
,
0100
0010
0001
0000
,
0010
0100
0010
0000
,
0100
1000
0100
0000
,
0100
0000
0010
0000
0001
0000
0000
0100
,
0010
0100
0010
0001
0020
0030
0000
0000
,
0100
0000
0100
0000
,
0010
0000
0001
0000
,
1000
0000
0100
0000
,
0010
0000
0100
0000
,
0010
0000
0001
0000
,
0010
0000
0100
0000
,
0100
0000
1000
0000
,
0001
0000
1000
0000
,
0000
0000
0001
0000
,
0000
0000
0100
0000
,
0000
0000
0010
0000
,
0000
0000
0100
0000
,
0000
0000
0010
0000
,
0000
0000
0001
0000
,
0000
0000
0010
0000
,
0000
0000
0200
0000
,
0000
0000
0000
0000
,
0300
0000
0000
0000
;

//--------------- dance-single - Wrland ----------------
#NOTES:
     dance-single:
     Wrland:
     Medium:
     5:
     0,0,0,0,0:
0000
0000
0000
0000
,
0000
0000
0000
0000
,
0000
0000
0000
0000
,
0000
0000
0000
0000
,
0000
0000
0000
0000
,
0000
0000
0000
0000
,
0000
0000
0000
0000
,
0000
0000
0000
0000
,
0000
0000
0100
0100
,
0100
0000
0000
0100
0000
0000
0010
0000
0010
0000
0000
0000
0010
0000
0000
0000
,
0001
0000
0000
0010
0000
0000
0001
0000
0010
0000
0000
0000
0100
0000
0000
0000
,
1000
0000
0000
0100
0000
0000
1000
0000
0100
0000
0000
0000
0010
0000
0000
0000
,
0100
0000
0000
0000
0010
0000
0000
0000
0001
0000
0000
0000
0000
0010
0000
0001
,
0000
0000
0020
0000
0030
0000
0000
0000
0100
0000
0000
0000
0000
1000
0000
0100
,
0000
2000
3000
0000
0100
0000
0010
0000
,
0001
0000
0010
0000
0100
0000
0000
1000
,
0001
1000
0000
0001
0000
0001
2000
0000
3000
0000
1000
0000
0001
0000
0000
0000
,
1000
0000
0100
2000
0000
3000
0000
0000
0000
0000
0100
0000
0010
0100
0000
0000
,
0001
0000
0100
0001
0100
0001
0200
0000
0300
0000
0010
0000
1000
0010
0000
0000
,
0100
0000
0010
0100
0000
0100
0010
0000
0022
0000
0033
0000
0220
0000
0330
0000
,
2002
0000
3003
0000
2200
0000
3300
0000
0000
0000
0100
0000
0010
0100
0000
0000
,
0100
0000
0000
0100
0000
0000
0020
0000
0030
0000
0001
0000
0100
0001
0000
0000
,
0001
0000
0000
0001
0000
0000
0100
0002
0003
0000
0001
0000
0010
0100
0000
0000
,
0100
0000
0000
1000
0000
0000
1000
0000
0200
0000
0300
0000
0000
0000
0100
0000
,
0010
0100
0000
0010
0000
0000
0002
0000
0003
0000
0010
0000
0100
0010
0000
0000
,
0100
0000
0000
0100
0000
0000
2000
0000
3000
0000
1000
0000
0100
1000
0000
0000
,
0100
0000
0000
0010
0000
0000
0002
0000
0003
0000
0001
0000
0100
0001
0000
0000
,
0010
0000
0000
0100
0000
0000
0010
0000
0200
0000
0300
0000
0000
0000
0100
0000
,
0010
0100
0010
0001
0200
0000
0300
0000
,
0000
0000
1000
0000
0100
0010
0000
0001
0000
0000
0010
0000
0100
0000
0010
0000
,
0002
0003
0100
0010
,
0100
0010
0000
0200
0000
0300
0000
0000
0001
0000
0000
0000
0100
0000
0000
0000
,
0010
0100
0000
2000
0000
3000
0000
0000
1000
0000
0000
0000
0100
0000
0000
0000
,
1000
0000
0000
0100
0000
0010
0000
0002
0000
0003
0000
0000
0000
0000
0100
0000
,
0010
0100
0000
1000
0000
0100
0000
0020
0000
0030
0000
0000
0100
0000
0000
0000
,
0010
0100
0000
0020
0000
0030
0000
0000
0001
0000
0000
0000
0100
0000
0000
0000
,
0010
0100
0000
0020
0000
0030
0000
0000
0100
0000
0000
0000
1000
0000
0000
0000
,
0100
1000
0000
0100
0000
0010
0000
0200
0000
0300
0000
0000
0000
0000
0010
0000
,
0100
0000
0010
0000
0100
0000
0010
0000
0200
0000
0300
0000
0000
0001
1000
0001
,
1000
0000
0001
1000
0000
0001
0000
0100
0000
0000
0020
0000
0030
0000
0100
0000
,
0010
0001
0000
1000
0000
0000
0001
0200
0000
0300
0000
0000
0000
0001
0010
0001
,
0010
0000
0100
1000
0000
0100
0000
1000
0000
0000
1000
0200
0000
0300
1000
0000
,
0010
0000
0100
0000
0010
0000
0100
0000
0010
0000
0001
0100
0000
0100
1000
0100
,
0010
0000
0001
0010
0000
0100
0000
0010
0000
0000
0200
0000
0300
0000
0100
0000
,
0010
0100
0000
0010
0000
0000
0001
0200
0000
0300
0000
0000
0000
0000
0010
0100
,
0010
0000
0100
0010
0000
0000
0000
0100
0020
0000
0000
0000
0000
0000
0000
0000
,
0000
0030
0100
0100
,
1000
0000
0100
0000
0010
0000
0001
1000
,
0010
0100
0000
0010
0000
0000
0100
0020
0000
0030
0000
0000
0100
0000
0000
0000
,
0010
0000
0001
0000
0200
0000
0300
0010
,
0100
0010
0000
1000
0000
0100
0000
0001
0000
0000
0100
0000
0020
0000
0030
0000
,
0100
0000
1000
0000
0200
0000
0300
0010
,
0100
0010
0000
0001
1000
0000
0000
0100
2000
0000
3000
0000
0100
0000
0000
0000
,
0010
0001
0200
0300
,
0010
0010
0220
0000
,
0000
0000
0000
0000
,
0330
0000
0000
0000
;

//--------------- dance-single - Wrland ----------------
#NOTES:
     dance-single:
     Wrland:
     Hard:
     8:
     0,0,0,0,0:
0000
0000
0000
0000
,
0000
0000
0000
0000
,
0000
0000
0000
0000
,
0000
0000
0000
0000
,
0000
0000
0000
0000
,
0000
0000
0000
0000
,
0000
0000
0000
0000
,
0000
0000
0000
0000
,
0000
0000
0000
0000
0000
0000
0000
0000
0100
0000
0010
0000
0100
0010
0000
0000
,
0001
0000
0010
0100
0000
0000
0010
0000
0001
0000
0100
0000
0010
0100
0000
0000
,
0100
0000
0010
0100
0000
0000
0010
0000
0001
0000
0010
0000
0100
0010
0000
0000
,
1000
0000
0100
1000
0000
0000
0100
0000
0010
0000
0001
0000
0010
0000
0100
0000
,
0010
0000
0001
0000
0010
0000
0100
0000
0010
0000
0100
0010
0000
1000
0001
2000
,
0000
3000
0020
0030
0100
0000
0010
0000
0100
0000
0010
0001
0000
0100
0010
0200
,
0000
0300
0002
0003
0100
0010
0000
0002
0003
0000
1000
0000
0001
0000
1000
0000
,
0001
0100
0010
0100
0010
0010
0001
0001
,
0101
0010
0000
0100
0000
1000
0220
0000
0330
0000
0010
0100
0010
0200
0000
0300
,
0010
0000
0001
0200
0300
0000
0010
2000
0000
3000
0100
0010
0100
0020
0000
0030
,
0001
0000
0100
0000
0010
0000
0200
0000
0300
0000
0100
0000
0010
0100
0000
0000
,
0010
0000
0100
0001
0000
0100
0020
0030
4000
0000
0000
0000
3001
0000
0000
0000
,
0004
0000
0000
0000
1003
0000
0000
0000
0100
0000
0100
0000
0010
0200
0000
0300
,
0001
0000
0010
0001
0010
0000
0100
0020
0030
0000
0100
0000
2000
0000
3000
0000
,
0100
0000
1000
0000
0100
0000
0100
0020
0030
0000
0100
0000
0010
0002
0003
0000
,
0001
0100
0001
0010
0200
0300
0000
1000
,
0010
0001
0000
0100
0000
0000
0020
0000
0030
0000
0100
0000
0010
0200
0300
0000
,
0010
0000
0001
1000
0001
0000
0100
0020
0030
0000
0100
0000
0010
0200
0300
0000
,
0100
0000
0010
0000
0001
0000
0010
0200
0300
0000
1000
0000
0100
2000
3000
0000
,
0100
0010
0100
0010
0002
0003
0000
0010
,
0100
0010
0001
0010
0400
0000
0000
0000
,
1300
0000
4000
0000
,
3MM1
0000
0000
0000
0002
0003
2000
3000
,
0001
1000
0000
0001
0000
0000
0100
0000
0020
0000
0030
0000
0200
0000
0300
0000
,
0100
0010
0000
0100
0000
0000
0010
0000
0100
0000
0010
0000
0001
0000
0010
0000
,
0100
0010
0000
0100
0000
0010
0000
2000
0000
0000
3000
0000
0000
0000
1000
0000
,
0001
1000
0000
0001
0000
0100
0000
0020
0000
0030
0100
0020
0000
0030
0100
0000
,
0010
0100
0000
0001
0000
0000
1000
0000
0100
0000
1000
0100
0000
0010
0100
0000
,
0001
1000
0000
0001
0000
1000
0000
0020
0000
0030
0100
0020
0030
0100
0010
0100
,
0010
0100
0000
0010
0000
0001
0000
0200
0000
0300
0000
0000
0000
0000
0100
0000
,
1000
0000
0100
0000
1000
0000
0100
0000
0020
0000
0000
0030
0000
0000
0100
0010
,
0100
0010
0001
0010
0100
0020
0030
0100
,
0010
0100
0000
1000
0000
0100
0010
0000
0200
0000
0000
0300
0000
0001
0010
0001
,
0010
0000
0100
0100
0000
0100
0000
0020
0000
0030
0100
0020
0000
0030
0001
0000
,
1000
0000
0001
0000
1000
0000
0001
0000
1000
0000
0001
1000
0000
1000
0100
1000
,
0100
0000
0100
0010
0000
0100
0000
0020
0000
0030
0200
0000
0300
0000
0010
0000
,
0001
0100
0000
0010
0100
0000
1000
0200
0000
0000
0300
0000
0000
0001
1000
0001
,
1000
0000
0100
0100
0000
0000
0010
0200
0000
0000
0000
0000
0000
0000
0300
0000
,
0020
0000
0030
0000
0200
0000
0300
0000
0020
0030
1000
0000
0100
2000
0000
3000
,
0100
0000
0010
0200
0000
0300
0010
0000
0001
0000
0100
0000
0010
0100
0001
0000
,
1000
0100
0000
0010
0000
0000
0100
0020
0000
0000
0030
0000
0002
0000
0003
0000
,
0020
0000
0030
0000
0200
0000
0300
0000
0020
0000
0000
0030
0000
0000
1000
0000
,
0100
0000
1000
0010
0000
0000
0100
0000
0010
0000
0001
0000
0020
0030
0100
0000
,
0010
0000
0100
0010
0000
0100
0010
0000
0100
0000
1000
0000
0100
0000
1000
0000
,
0100
0010
0000
0001
0010
0000
0000
0100
0020
0000
0030
0000
0200
0000
0300
0000
,
2000
3000
0200
0300
0020
0030
0002
0003
,
1000
0000
0001
0000
1000
0001
0000
0000
2002
0000
0000
0000
0000
0000
0000
0000
,
0000
0000
0000
0000
,
3003
0000
0000
0000
;

//--------------- dance-single - Wrland ----------------
#NOTES:
     dance-single:
     Wrland:
     Challenge:
     10:
     0,0,0,0,0:
0000
0000
0000
0000
,
0000
0000
0000
0000
,
0000
0000
0000
0000
,
0000
0000
0000
0000
,
0000
0000
0000
0000
0000
0000
0000
0000
0000
0000
0000
0000
1000
0000
0000
0100
0000
0010
0100
0000
0010
0000
0000
0001
,
0100
0000
0000
0010
0000
0000
0001
0000
1000
0200
0000
0000
0300
0000
1000
0001
0000
0100
0001
0000
0010
0000
0000
0000
,
0100
0000
0001
0000
0000
0001
0000
0000
1000
0200
0000
0000
0300
0000
0001
1000
0000
0001
1000
0000
0001
0000
0000
0100
,
1000
0000
1000
0010
0000
1000
0100
0000
2002
0000
0000
0000
3003
0000
1000
0000
,
0100
0000
1000
0000
0100
0000
0010
0000
0001
0000
0200
0000
0300
2000
0000
3000
,
0200
0000
0300
2000
3000
0010
0200
0000
0300
0000
0010
0100
0010
0200
0000
0300
,
0001
0000
0100
0020
0000
0030
2000
0000
3000
0000
0100
0000
1000
0020
0000
0030
,
0002
0000
0003
0200
0000
0300
0010
0000
0110
0000
0100
0000
1100
0000
1000
0000
,
1100
0000
0001
1000
0000
0001
1000
0000
0010
0100
0000
0010
0000
0000
0001
0001
0000
1000
1000
0000
0100
0100
0000
0010
,
0010
0000
0000
0000
0000
0000
0001
0000
0000
0000
1000
0000
0100
0000
0000
0000
0000
0000
0010
0000
0000
0000
0000
0000
0100
0000
0000
0000
0000
0000
0010
0000
0000
0100
0000
0000
0000
0000
0000
0000
0001
0000
0100
0000
0000
0000
0001
0000
,
1000
0000
0000
0100
0000
0010
0100
0000
0010
0010
0000
1000
1000
0000
0100
0100
0000
0010
0010
0000
0100
0100
0000
0010
,
0010
0000
0001
0001
0000
0100
0100
0000
0010
0010
0000
0100
0100
0000
0100
0100
0000
0010
0010
0000
0000
0100
0000
0000
,
0010
0000
0100
0000
0000
0010
0000
0000
0001
0200
0000
0000
0300
0000
0010
0001
0000
0010
0100
0000
0000
0000
0000
1000
,
0100
0000
0000
0001
0000
0100
0000
0000
0000
0010
0000
0100
0000
0000
0001
0010
0000
0001
0010
0000
0100
0010
0000
0000
,
0100
0000
0000
0010
0000
0001
1000
0000
0100
0010
0000
0000
0000
0000
0010
0010
0000
0100
0100
0000
0000
0000
0000
1000
,
1000
0000
0000
0100
0000
0010
0000
0000
0100
0100
0000
0000
0011
0000
0001
0001
0000
0000
1100
0000
0100
0100
0000
0000
,
0110
0000
0100
0100
0000
0000
1001
0000
0110
0000
0011
0000
1101
0000
0010
0010
0000
0100
0100
0000
0010
0000
0000
0010
,
0100
0000
0001
1000
0000
1000
0100
0000
0000
0010
0000
0100
0000
0000
0010
0100
0000
0001
0010
0000
0100
0000
0000
0001
,
0000
0000
1000
1000
0000
0100
0100
0000
0000
1000
0000
0001
0000
0000
0100
0100
0000
0001
0010
0000
1000
0000
0000
0001
,
0001
0000
0100
0100
0000
0010
0010
0000
0100
0100
0000
0000
0440
0000
0000
0000
0000
0000
0330
0000
0000
1000
0000
0000
,
0001
0000
1000
0000
0000
0001
0000
0000
0100
0010
0000
0000
0100
0000
0010
0010
0000
0100
0100
0000
0010
0000
0000
0010
,
0100
0000
0010
0100
0000
0010
0010
0000
0000
0010
0000
0001
0000
0000
0010
0001
0000
0010
0100
0000
1000
0000
0000
0100
,
0010
0000
0001
0010
0000
0100
1000
0000
0100
0010
0000
0001
0000
0000
0100
0100
0000
0010
0010
0000
0010
0000
0000
0001
,
0001
0000
0010
0100
0000
0100
1100
0000
0000
0110
0000
0000
0044
0000
0000
0000
0000
0000
0033
0000
0000
0101
0000
0000
,
1010
0110
0011
1100
0400
0000
0301
0000
,
0001
0000
0010
0000
1000
0100
0000
0010
0000
0000
0100
0000
0010
0000
0100
0000
,
0010
0000
0100
0000
0000
0100
0010
0000
0100
0010
0000
0100
0010
0000
0001
0100
0000
1000
0100
0000
0010
0010
0000
0001
,
0100
0000
0100
0000
0000
1000
0000
0000
0000
0001
0000
1000
0000
0000
0000
0001
0000
1000
0000
0000
1000
0100
0000
0010
,
0001
0000
1000
0000
0000
0001
0000
0000
0000
0100
0000
0000
0010
0000
0000
0100
0000
0001
0000
0000
0010
0001
0000
0100
,
1000
0000
0010
0100
0000
0010
0100
0000
1000
0000
0000
0002
0000
0000
0000
0003
0000
0000
0000
0000
0000
1000
0000
0000
,
0100
0000
1000
0000
0000
0100
0000
0000
0010
0000
0000
0100
0000
0000
0000
0010
0000
0100
0000
0000
0001
0010
0000
0100
,
1000
0000
0100
0000
0000
0010
0000
0000
0000
0001
0000
0010
0000
0000
0000
0100
0000
1000
0000
0000
0100
0010
0000
0000
,
1010
0000
0101
0000
0000
1010
0000
0000
0101
0000
0000
0010
0000
0000
0000
0100
0000
0010
0000
0000
0100
0100
0000
0010
,
0010
0000
0001
0000
0000
1000
0000
0000
0100
0000
0000
0022
0000
0000
0000
0033
0000
0000
0000
0000
0000
0010
0000
0000
,
0101
0000
0000
0010
0000
0000
1100
0000
0000
0010
0000
0000
0220
0000
0000
0000
0330
0000
0000
0000
0100
0010
0000
0100
,
0010
0000
0010
0001
0000
0001
0010
0000
0100
1000
0000
0100
0000
0000
0000
0020
0000
0000
0000
0030
0000
0100
0000
0000
,
0011
0000
0100
0000
0000
0010
0000
0000
0000
0100
0000
0000
2020
0000
0000
0000
3030
0000
0000
0000
0100
0010
0000
0100
,
0010
0000
0001
0010
0000
0100
0000
0000
0010
0000
0000
0001
0000
0000
0000
0001
0000
0100
0000
0000
0000
0101
0000
0000
,
1010
0000
0000
0101
0000
0000
0110
0000
0000
0101
0000
0000
1010
0000
0000
0101
0000
0110
0000
0000
0100
0100
0000
0010
,
0010
0000
0001
0001
0000
0100
0100
0000
0010
0000
0000
0100
0000
0000
0000
0020
0000
0000
0000
0030
0000
1001
0000
0000
,
0011
0000
1100
0000
0000
0101
0000
0000
0000
1100
0000
0202
0000
0000
0000
0303
0000
0000
0000
0000
1000
0100
0000
0010
,
0001
0000
0010
0001
0000
0010
0000
0000
0000
0100
0000
0000
0400
0000
0000
0000
0000
0000
0301
0000
0000
0000
0000
0000
,
4000
0000
0000
0000
0000
0000
3001
0000
0000
0000
0000
0000
1MM1
0000
0000
0000
0000
0000
1000
0000
0100
0010
0000
0010
,
0001
0000
0000
0000
0000
0100
0010
0000
0001
0010
0000
0100
0010
0000
0000
0000
0000
0100
0100
0000
0010
0010
0000
0000
,
1000
0000
0001
0000
0000
0100
0000
0000
0000
0010
0000
0200
0000
0000
0300
0000
0000
0100
0010
0000
0010
0100
0000
0100
,
0010
0000
0000
0000
0000
0001
1000
0000
1000
0001
0000
0001
1000
0000
0000
0000
0000
0100
1000
0000
1000
0100
0000
0010
,
0001
0000
1000
0000
0000
0100
0000
0000
0010
0000
0000
0001
0000
0000
0000
1000
0000
0000
0100
0000
0010
0001
0000
0010
,
0100
0000
0000
0000
0000
0100
0010
0000
0100
0010
0000
0001
0010
0000
0000
0000
0000
1000
0100
0000
1000
0100
0000
0000
,
0010
0000
0001
0000
0000
1000
0100
0000
0000
0010
0000
0002
0000
0000
0003
0000
0000
0100
0010
0000
0100
0010
0000
0001
,
1000
0000
0000
0000
0000
0001
1000
0000
0000
1001
0000
0000
0110
0000
0000
0000
0000
1000
0100
0000
0010
0001
0000
0001
,
0110
0000
1100
0011
4400
0000
0000
0000
,
0000
0000
0000
0000
,
3300
0000
0000
0000
;
