#TITLE:baptize;
#SUBTITLE:;
#ARTIST:妖精帝國;
#TITLETRANSLIT:;
#SUBTITLETRANSLIT:;
#ARTISTTRANSLIT:Yousei Teikoku;
#GENRE:J-Rock;
#CREDIT:Wrland;
#MUSIC:baptize.ogg;
#BANNER:baptize.png;
#BACKGROUND:BG.png;
#PREVIEWVID:preview.mp4;
#LYRICSPATH:baptize.lrc;
#CDTITLE:Wrland Season 3 CITYGHT + last one night.png;
#SAMPLESTART:44.583;
#SAMPLELENGTH:15.000;
#SELECTABLE:YES;
#OFFSET:-0.012;
#BPMS:0.000=105.000
,16.000=210.000
,48.000=105.000
,64.000=210.000
,128.000=105.000
,144.000=210.000
;
#STOPS:209.000=0.286
,210.000=0.286
,252.000=0.286
;
#DISPLAYBPM:105.000:210.000;
#METERTYPE:DDR X;
#JACKET:baptize-jacket.png;
#CDIMAGE:baptize-cd.png;
#BGCHANGES:0.000=baptize.avi=0.000=0=0=0=StretchNoLoop====,
99999=-nosongbg-=1.000=0=0=0 // don't automatically add -songbackground-
;
#FGCHANGES:;

//--------------- dance-single - Wrland ----------------
#NOTES:
     dance-single:
     Wrland:
     Beginner:
     2:
     0,0,0,0,0:
0000
0000
0000
0000
,
0000
0000
0000
0000
,
0000
0000
0000
0000
,
0000
0000
0000
0000
,
0000
0000
0000
0000
,
0000
0000
0000
0000
,
0000
0000
0000
0000
,
0000
0000
0000
0000
,
0000
0000
0000
0000
,
0000
0000
0000
0000
,
0000
0000
0000
0000
,
0000
0000
0000
0000
,
0100
0000
0100
0000
,
0010
0000
0001
0000
,
0010
0000
0100
0000
,
1000
0000
0100
0000
,
1000
0000
0000
0000
,
1000
0000
0000
0000
,
0001
0000
0000
0000
,
0001
0000
0000
0000
,
0100
0000
0000
0000
,
0100
0000
0000
0000
,
0010
0000
0000
0000
,
0010
0000
0000
0000
,
0001
0000
0000
0000
,
0010
0000
0000
0000
,
0100
0000
0000
0000
,
1000
0000
0000
0000
,
0100
0000
0000
0000
,
1000
0000
0000
0000
,
0100
0000
0000
0000
,
0010
0000
0000
0000
,
0100
0000
0100
0000
,
0010
0000
0010
0000
,
0001
0000
0001
0000
,
0010
0000
0200
0300
,
0010
0000
0000
0000
,
0100
0000
0000
0000
,
0010
0000
0000
0000
,
0001
0000
0000
0000
,
1000
0000
0000
0000
,
0100
0000
0000
0000
,
1000
0000
0000
0000
,
0100
0000
0000
0000
,
0010
0000
0000
0000
,
0100
0000
0000
0000
,
0010
0000
0000
0000
,
0001
0000
0000
0000
,
0010
0000
0000
0000
,
0100
0000
0000
0000
,
1000
0000
0000
0000
,
0100
0000
0000
0000
,
0010
0000
0000
0000
0000
0000
0000
0000
0000
0000
0000
0000
0000
0000
0000
0000
0000
0000
0000
0000
0000
0000
0000
0000
0000
0000
0000
0000
0000
0000
0000
0000
0000
0000
0000
0000
0000
0000
0000
0000
0000
0000
0000
0000
0000
0000
0000
0000
0000
0000
0000
0000
0000
0000
0000
0000
0000
0000
0000
0000
0000
0000
0000
0000
0000
0000
0000
0000
0000
0000
0000
0000
0000
0000
0000
0000
0000
0000
0000
0000
0000
0000
0000
0000
0000
0000
0000
0000
0000
0000
0000
0000
0000
0000
0000
0000
0000
0100
0000
0000
0000
0000
0000
0000
0000
0000
0000
0000
0000
0000
0000
0000
0000
0000
0000
0000
0000
0000
0000
0000
0000
0000
0000
0000
0000
0000
0000
0000
0000
0000
0000
0000
0000
0000
0000
0000
0000
0000
0000
0000
0000
0000
0000
0000
0000
0000
0000
0000
0000
0000
0000
0000
0000
0000
0000
0000
0000
0000
0000
0000
0000
0000
0000
0000
0000
0000
0000
0000
0000
0000
0000
0000
0000
0000
0000
0000
0000
0000
0000
0000
0000
0000
0000
0000
0000
0000
0000
0000
0000
0000
0000
0000
,
0000
0000
0010
0000
,
0000
0000
0100
0000
,
0000
0000
1000
0000
,
0000
0000
0010
0000
,
0000
0000
0001
0000
,
0000
0000
0100
0000
,
0000
0000
0010
0000
,
0000
0000
0100
0000
,
0000
0000
0010
0000
,
0000
0000
0100
0000
,
0000
1001
0000
0000
;

//--------------- dance-single - Wrland ----------------
#NOTES:
     dance-single:
     Wrland:
     Easy:
     5:
     0,0,0,0,0:
0000
0000
0000
0000
,
0000
0000
0000
0000
,
0000
0000
0000
0000
,
0000
0000
0000
0000
,
0000
0000
0000
0000
,
0000
0000
0000
0000
,
0000
0000
0000
0000
,
0000
0000
0000
0000
,
0000
0000
0000
0000
,
0000
0000
0000
0000
,
0000
0000
0000
0000
,
0000
0000
0000
0000
,
0100
0100
1000
0100
,
0010
0001
0010
0100
,
0010
0001
0100
0010
,
0100
1000
0100
1000
,
1000
0000
0100
0000
,
1000
0000
0100
0000
,
0010
0000
0001
0000
,
0010
0000
0001
0000
,
0010
0000
0100
0000
,
0010
0000
0100
0000
,
1000
0000
0100
0000
,
0010
0000
0001
0000
,
0010
0000
0100
0000
,
0100
0000
0010
0000
,
0100
0000
0010
0000
,
0100
0000
0010
0000
,
0001
0000
0010
0000
,
0100
0000
1000
0000
,
0100
0000
1000
0000
,
0100
1000
0100
1000
,
0200
0300
0010
0000
0100
0000
0010
0000
,
0001
0000
0001
0000
0200
0300
0020
0030
,
0100
1000
0100
0010
,
0001
0000
0010
0000
0200
0300
0020
0030
,
0100
0100
1000
0100
,
1000
0100
0000
0010
,
0100
0010
0100
0010
,
0100
0010
0001
0000
,
0001
0010
0100
0010
,
0100
1000
0100
0000
,
0100
1000
0100
1000
,
0100
1000
0100
0010
,
0001
0000
0010
0100
,
0010
0100
0010
0000
,
0100
0010
0001
0100
,
0010
0100
0010
0000
,
0001
0100
0010
0100
,
1000
0100
1000
0100
,
0010
0100
0010
0100
,
0010
0001
0100
0010
,
1100
0000
0000
0000
0000
0000
0000
0000
0000
0000
0000
0000
0000
0000
0000
0000
0000
0000
0000
0000
0000
0000
0000
0000
0000
0000
0000
0000
0000
0000
0000
0000
0000
0000
0000
0000
0000
0000
0000
0000
0000
0000
0000
0000
0000
0000
0000
0000
0000
0110
0000
0000
0000
0000
0000
0000
0000
0000
0000
0000
0000
0000
0000
0000
0000
0000
0000
0000
0000
0000
0000
0000
0000
0000
0000
0000
0000
0000
0000
0000
0000
0000
0000
0000
0000
0000
0000
0000
0000
0000
0000
0000
0000
0000
0000
0000
0000
0011
0000
0000
0000
0000
0000
0000
0000
0000
0000
0000
0000
0000
0000
0000
0000
0000
0000
0000
0000
0000
0000
0000
0000
0000
0000
0000
0000
0000
0000
0000
0000
0000
0000
0000
0000
0000
0000
0000
0000
0000
0000
0000
0000
0000
0000
0000
0100
0000
0000
0000
0000
0000
0000
0000
0000
0000
0000
0000
0000
0000
0000
0000
0000
0000
0000
0000
0000
0000
0000
0000
0000
0000
0000
0000
0000
0000
0000
0000
0000
0000
0000
0000
0000
0000
0000
0000
0000
0000
0000
0000
0000
0000
0000
0000
,
0000
0100
0010
0100
,
0000
0010
0001
0100
,
0000
0010
0100
1000
,
0000
0000
0100
1000
,
0000
0100
0010
0100
,
0000
0010
0100
0010
,
0000
0001
0100
0001
,
0000
0000
0010
0000
,
0100
0000
1000
0000
,
0100
0000
0010
0000
,
0000
0100
0000
0000
0000
0000
0000
0000
0000
0000
0000
0000
0000
0000
0000
0000
0000
0000
0000
0000
0000
0000
0000
0000
0010
0000
0000
0000
0000
0000
0000
0000
0000
0000
0000
0000
0000
0000
0000
0000
0000
0000
0000
0000
0000
0000
0000
0000
0100
0000
0000
0000
0000
0000
0000
0000
0000
0000
0000
0000
0000
0000
0000
0000
0000
0000
0000
0000
0000
0000
0000
0000
0010
0000
0000
0000
0000
0000
0000
0000
0000
0000
0000
0000
0000
0000
0000
0000
0000
0000
0000
0000
0000
0000
0000
0000
0000
0000
0000
0000
0000
0000
0000
0000
0000
0000
0000
0000
0000
0000
0000
0000
0000
0000
0000
0000
0000
0000
0000
0000
0000
0000
0000
0000
0000
0000
0000
0000
0000
0000
0000
0000
0000
0000
0000
0000
0000
0000
0000
0000
0000
0000
0000
0000
0000
0000
0000
0000
0000
0000
0000
0000
0000
0000
0000
0000
0000
0000
0000
0000
0000
0000
0000
0000
0000
0000
0000
0000
0000
0000
0000
0000
0000
0000
0000
0000
0000
0000
0000
0000
0000
0000
0000
0000
0000
0000
0000
0000
0000
0000
0000
0000
;

//--------------- dance-single - Wrland ----------------
#NOTES:
     dance-single:
     Wrland:
     Medium:
     8:
     0,0,0,0,0:
0000
0000
0000
0000
,
0000
0000
0000
0000
,
0000
0000
0000
0000
,
0000
0000
0000
0000
,
0000
0000
0000
0000
,
0000
0000
0000
0000
,
0000
0000
0000
0000
,
0000
0000
0000
0000
,
0000
0000
0000
0000
,
0000
0000
0000
0000
,
0000
0000
0000
0000
,
0000
0000
0000
0000
,
1000
0001
0100
0000
1000
0010
0100
0010
0000
0100
0010
0001
0100
0010
1000
0100
,
0000
0100
1000
0100
0000
0010
0100
0010
0000
0100
0010
0001
0010
0100
1000
0100
,
0000
0010
0100
0010
0001
1000
0001
0100
0000
0010
0000
1000
0000
0010
0100
0010
,
0000
0100
0010
0001
0100
0001
0100
0001
0010
0000
0100
0000
1000
0000
0100
0000
,
0020
0030
0200
0300
0020
0030
0200
0300
,
0020
0030
0002
0003
0200
0300
0020
0030
,
0200
0300
2000
3000
0200
0300
2000
3000
,
0200
2300
3200
0300
0020
0032
0203
0300
,
0010
0100
0010
0100
,
0010
0001
0100
0001
,
0100
0010
0100
1000
,
0100
1000
0100
0000
0010
0100
0010
0000
,
0001
0010
0100
0010
0000
0100
1000
0100
,
0000
0100
0000
0010
0000
0001
0000
0100
,
0000
0010
0100
0010
0000
0001
0100
0001
,
0000
0010
0000
0100
0000
1000
0000
0100
,
0000
0010
0100
0010
1000
0001
0010
0100
,
0000
0010
0100
0010
0100
0010
0000
0010
,
0000
0100
0000
0010
0100
0010
1000
0001
,
0200
0300
0020
0030
0200
0300
0020
0030
,
0202
0303
0010
0100
0010
0001
0100
1000
,
0100
1000
0100
0010
0220
0330
2002
3003
,
1000
0100
1000
0100
1000
0100
0010
0001
,
0100
0000
0010
0000
0100
0000
0010
0001
0110
0000
0000
1100
0000
0000
0110
0000
,
0010
0100
0010
0001
,
0100
0000
0010
0200
0000
0300
1000
0000
,
0100
1000
0100
0010
,
0001
0000
0100
0002
0000
0000
0003
0000
,
0010
0100
0010
0100
,
1000
0000
0100
1000
0000
0100
0010
0001
,
0000
0010
0000
0100
0010
0100
0010
0001
,
1000
0100
0010
0002
0000
0003
0010
0000
,
0100
0010
0100
1000
,
0100
0000
1000
0100
0000
0000
0100
0000
,
0010
0001
0100
0010
,
0100
0000
0010
0200
0000
0000
0300
0000
,
0001
0000
0100
0001
0100
0001
0100
0001
,
0100
0000
0010
0100
0000
0001
1000
0100
,
0000
0010
0000
0100
0010
0100
0001
1000
,
0100
0010
0100
0010
,
1001
0000
0000
0000
0000
0000
0000
0000
0000
0000
0000
0000
0000
0000
0000
0000
0000
0000
0000
0000
0000
0000
0000
0000
0000
0000
0000
0000
0000
0000
0000
0000
0000
0000
0000
0000
0000
0000
0000
0000
0000
0000
0000
0000
0000
0000
0000
0000
0000
1100
0000
0000
0000
0000
0000
0000
0000
0000
0000
0000
0000
0000
0000
0000
0000
0000
0000
0000
0000
0000
0000
0000
0000
0000
0000
0000
0000
0000
0000
0000
0000
0000
0000
0000
0000
0000
0000
0000
0000
0000
0000
0000
0000
0000
0000
0000
0000
0110
0000
0000
0000
0000
0000
0000
0000
0000
0000
0000
0000
0000
0000
0000
0000
0000
0000
0000
0000
0000
0000
0000
0000
0000
0000
0000
0000
0000
0000
0000
0000
0000
0000
0000
0000
0000
0000
0000
0000
0000
0000
0000
0000
0000
0000
0000
0100
0000
0000
0000
0000
0000
0000
0000
0000
0000
0000
0000
0000
0000
0000
0000
0000
0000
0000
0000
0000
0000
0000
0000
0000
0000
0000
0000
0000
0000
0000
0000
0000
0000
0000
0000
0000
0000
0000
0000
0000
0000
0000
0000
0000
0000
0000
0000
,
0010
0001
0100
0002
,
0003
0010
0100
0000
0010
0000
0002
0003
,
0100
0000
1000
0000
0200
0000
0300
2000
,
0000
3000
0100
0000
0010
0000
0001
0000
,
0100
0001
0100
0002
,
0003
0010
0100
0000
0010
0000
0002
0003
,
0100
0000
0010
0000
0200
0000
0300
0010
,
0000
0000
0100
0000
0010
0000
0001
2000
,
0000
3000
0100
0000
0010
0000
0100
0020
,
0000
0030
0001
0000
0100
0010
0100
0010
,
0000
0001
0000
0000
0000
0000
0000
0000
0000
0000
0000
0000
0000
0000
0000
0000
0000
0000
0000
0000
0000
0000
0000
0000
1000
0000
0000
0000
0000
0000
0000
0000
0000
0000
0000
0000
0000
0000
0000
0000
0000
0000
0000
0000
0000
0000
0000
0000
0001
0000
0000
0000
0000
0000
0000
0000
0000
0000
0000
0000
0000
0000
0000
0000
0000
0000
0000
0000
0000
0000
0000
0000
1000
0000
0000
0000
0000
0000
0000
0000
0000
0000
0000
0000
0000
0000
0000
0000
0000
0000
0000
0000
0000
0000
0000
0000
0000
0000
0000
0000
0000
0000
0000
0000
0000
0000
0000
0000
0000
0000
0000
0000
0000
0000
0000
0000
0000
0000
0000
0000
0000
0000
0000
0000
0000
0000
0000
0000
0000
0000
0000
0000
0000
0000
0000
0000
0000
0000
0000
0000
0000
0000
0000
0000
0000
0000
0000
0000
0000
0000
0000
0000
0000
0000
0000
0000
0000
0000
0000
0000
0000
0000
0000
0000
0000
0000
0000
0000
0000
0000
0000
0000
0000
0000
0000
0000
0000
0000
0000
0000
0000
0000
0000
0000
0000
0000
0000
0000
0000
0000
0000
0000
;

//--------------- dance-single - Wrland ----------------
#NOTES:
     dance-single:
     Wrland:
     Hard:
     10:
     0,0,0,0,0:
0000
0000
0000
0000
,
0000
0000
0000
0000
,
0000
0000
0000
0000
,
0000
0000
0000
0000
,
1001
0000
0200
0000
0300
0010
0100
0000
,
0010
0000
0200
0000
0300
0001
0100
0000
,
0010
0000
0200
0000
0300
1000
0100
0000
,
2000
0000
3000
0200
0000
0300
0010
0000
,
0002
0003
0200
0300
0000
0100
0010
0000
,
0200
0300
0020
0000
0030
0100
0010
0000
,
0002
0003
0200
0300
0000
0100
0010
0000
,
0200
0000
0300
2000
0000
3000
0100
0000
,
0010
0001
0100
0001
0000
1000
0100
1000
0000
0100
0000
0010
0001
0100
0001
0100
,
0000
0010
0100
0010
0000
0001
0100
0001
0000
0010
0000
0100
1000
0100
0010
0100
,
0000
0001
0000
0010
0100
0010
0001
0100
0000
0010
0000
0100
1000
0100
0010
0001
,
0000
0010
0000
0100
0010
0001
0010
0100
1000
0000
0100
0000
0010
0000
0001
0000
,
0101
0000
0020
0030
1000
0100
1000
0000
,
0200
0300
0020
0030
0001
0100
0002
0003
,
0200
0300
0020
0030
0100
0010
0200
0300
,
0022
0000
0033
2200
3300
0001
0020
0030
,
0200
0300
2000
3000
0100
0010
0200
0300
,
0020
0030
0001
0000
0100
0001
0200
0300
,
0002
0003
0100
0000
0010
0001
0200
0300
,
0020
0000
0030
0200
0000
0300
1000
0000
,
0100
0001
0010
2000
3000
0010
0100
0020
,
0030
0002
0003
0100
0010
0100
0010
0002
,
0003
0010
0100
0020
0030
1000
0100
2000
,
3000
0100
0001
0020
0030
0100
0010
0002
,
0003
0010
0001
0100
0010
0100
0010
0200
,
0300
0020
0030
0100
0001
0020
0030
0200
,
0300
2000
3000
0100
0010
0100
0010
0100
,
0011
1001
0110
1010
,
0202
0000
0303
0000
0100
0000
0010
0100
0010
0000
0001
0000
0100
0000
0010
0000
,
0100
1000
0100
1000
0200
0300
2200
3300
,
0100
0010
0001
0100
0010
0100
0010
0001
,
0100
0000
0010
0000
0100
0000
0000
0010
0101
0000
0000
1100
0000
0000
0110
0000
,
0020
0000
0030
0100
,
0010
0000
0001
0200
0000
0300
0010
0000
,
0100
1000
0100
1000
,
0100
0000
0010
0200
0000
0000
0300
0000
,
0010
0000
0100
0010
0001
1000
0100
0010
,
0100
0000
0010
0100
0000
0010
0001
0020
,
0030
0100
0000
1000
0100
0010
1000
0100
,
0010
0001
0100
0020
0000
0030
0100
0000
,
2000
3000
0100
0000
1000
0000
0100
0000
,
0010
0000
0001
0200
0000
0300
0010
0000
,
0100
0010
0001
0100
,
0001
0000
0100
0002
0000
0000
0003
0000
,
0010
0000
0100
0010
0100
0010
0100
0010
,
0001
0000
0010
0100
0000
1000
0100
1000
,
0000
0100
0000
0010
0001
0100
0010
0001
,
1010
0100
0010
0011
0100
0010
1100
0010
,
0011
0000
0000
0000
0000
0000
0000
0000
0000
0000
0000
0000
0000
0000
0000
0000
0000
0000
0000
0000
0000
0000
0000
0000
0000
0000
0000
0000
0000
0000
0000
0000
0000
0000
0000
0000
0000
0000
0000
0000
0000
0000
0000
0000
0000
0000
0000
0000
0000
0110
0000
0000
0000
0000
0000
0000
0000
0000
0000
0000
0000
0000
0000
0000
0000
0000
0000
0000
0000
0000
0000
0000
0000
0000
0000
0000
0000
0000
0000
0000
0000
0000
0000
0000
0000
0000
0000
0000
0000
0000
0000
0000
0000
0000
0000
0000
0000
1100
0000
0000
0000
0000
0000
0000
0000
0000
0000
0000
0000
0000
0000
0000
0000
0000
0000
0000
0000
0000
0000
0000
0000
0000
0000
0000
0000
0000
0000
0000
0000
0000
0000
0000
0000
0000
0000
0000
0000
0000
0000
0000
0000
0000
0000
0000
0200
0000
0000
0000
0000
0000
0000
0000
0000
0000
0000
0000
0000
0000
0000
0000
0000
0000
0000
0000
0000
0000
0000
0000
0000
0000
0000
0000
0000
0000
0000
0000
0000
0000
0000
0000
0000
0000
0000
0000
0000
0000
0000
0000
0000
0000
0000
0000
,
0300
1000
0002
0003
0100
0000
0020
0030
,
0100
0010
0100
0000
0020
0030
0002
0003
,
0100
1000
0002
0003
0200
0000
0300
0020
,
0000
0030
0001
1000
0100
0000
0010
0000
,
0100
0010
2000
3000
0200
0300
0020
0000
,
0030
0001
0100
0000
0002
0003
0200
0300
,
0010
0100
0020
0030
0200
0000
0300
2000
,
0000
3000
0100
0000
0010
0000
0001
2000
,
0000
3000
0100
0000
0010
0000
0100
0020
,
0000
0030
0001
0000
0100
0010
0100
0010
,
0000
0001
0000
0000
0000
0000
0000
0000
0000
0000
0000
0000
0000
0000
0000
0000
0000
0000
0000
0000
0000
0000
0000
0000
1000
0000
0000
0000
0000
0000
0000
0000
0000
0000
0000
0000
0000
0000
0000
0000
0000
0000
0000
0000
0000
0000
0000
0000
0001
0000
0000
0000
0000
0000
0000
0000
0000
0000
0000
0000
0000
0000
0000
0000
0000
0000
0000
0000
0000
0000
0000
0000
1000
0000
0000
0000
0000
0000
0000
0000
0000
0000
0000
0000
0000
0000
0000
0000
0000
0000
0000
0000
0000
0000
0000
0000
0000
0000
0000
0000
0000
0000
0000
0000
0000
0000
0000
0000
0000
0000
0000
0000
0000
0000
0000
0000
0000
0000
0000
0000
0000
0000
0000
0000
0000
0000
0000
0000
0000
0000
0000
0000
0000
0000
0000
0000
0000
0000
0000
0000
0000
0000
0000
0000
0000
0000
0000
0000
0000
0000
0000
0000
0000
0000
0000
0000
0000
0000
0000
0000
0000
0000
0000
0000
0000
0000
0000
0000
0000
0000
0000
0000
0000
0000
0000
0000
0000
0000
0000
0000
0000
0000
0000
0000
0000
0000
0000
0000
0000
0000
0000
0000
;
