#TITLE:agony;
#SUBTITLE:;
#ARTIST:KOTOKO;
#TITLETRANSLIT:;
#SUBTITLETRANSLIT:;
#ARTISTTRANSLIT:;
#GENRE:J-Pop;
#CREDIT:;
#MUSIC:agony.ogg;
#BANNER:agony.png;
#BACKGROUND:agony-bg.png;
#CDTITLE:Wrland Season 3 CITYGHT.png;
#SAMPLESTART:50.710;
#SAMPLELENGTH:12.000;
#SELECTABLE:YES;
#OFFSET:-7.297;
#BPMS:0.000=131.989;
#STOPS:;
#DISPLAYBPM:131.000;
#BGCHANGES:;
#FGCHANGES:;

//--------------- dance-single - ----------------
#NOTES:
     dance-single:
     :
     Beginner:
     1:
     0,0,0,0,0:
0000
0000
0000
0000
,
0000
0000
0000
0000
,
0000
0000
0000
0000
,
0000
0000
0000
0000
,
1000
0000
0000
0000
,
0100
0000
0000
0000
,
0010
0000
0000
0000
,
0001
0000
0000
0000
,
1001
0000
0000
0000
,
0100
0000
0000
0000
,
0010
0000
0000
0000
,
0100
0000
0000
0000
,
1000
0000
0000
0000
,
0010
0000
0000
0000
,
0100
0000
0000
0000
,
0010
0000
0000
0000
,
1001
0000
0000
0000
,
0100
0000
0000
0000
,
0010
0000
0000
0000
,
0100
0000
0000
0000
,
0010
0000
0000
0000
,
0001
0000
0000
0000
,
1000
0000
0000
0000
,
0100
0000
0000
0000
,
0110
0000
0000
0000
,
0010
0000
0000
0000
,
1100
0000
0000
0000
,
1000
0000
0000
0000
,
0101
0000
0000
0000
,
0001
0000
0000
0000
,
0110
0000
0000
0000
,
0010
0000
0000
0000
,
1100
0000
0000
0000
,
0010
0000
0000
0000
,
0110
0000
0000
0000
,
0100
0000
0000
0000
,
0011
0000
0000
0000
,
1000
0000
0000
0000
,
0100
0000
0000
0000
,
0110
0000
0000
0000
,
1001
0000
0000
0000
,
0100
0000
0000
0000
,
0010
0000
0000
0000
,
0100
0000
0000
0000
,
0010
0000
0000
0000
,
0100
0000
0000
0000
,
1000
0000
0000
0000
,
0100
0000
0000
0000
,
0010
0000
0000
0000
,
0100
0000
0000
0000
,
0010
0000
0000
0000
,
0100
0000
0000
0000
,
0010
0000
0000
0000
,
1000
0000
0000
0000
,
0001
0000
0000
0000
,
0100
0000
0000
0000
,
0110
0000
0000
0000
;

//--------------- dance-single - ----------------
#NOTES:
     dance-single:
     :
     Easy:
     3:
     0,0,0,0,0:
0000
0000
0000
0000
,
0000
0000
0000
0000
,
0000
0000
0000
0000
,
0000
0000
0000
0000
,
1000
0000
0100
0000
,
0010
0000
0100
0000
,
0001
0000
1000
0000
,
0100
0000
0100
0000
,
0110
0000
0010
0000
,
0001
0000
1000
0000
,
0100
0000
0100
0000
,
0010
0000
0100
0000
,
1000
0000
0100
0000
,
0010
0000
0001
0000
,
0100
0000
0100
0000
,
0010
0000
0010
0000
,
0110
0000
1000
0000
,
0100
0000
0010
0000
,
0100
0000
0010
0000
,
1000
0000
0100
0000
,
0010
0000
0100
0000
,
0010
0000
0001
0000
,
0100
0000
0000
0000
0010
0000
0000
0220
,
0000
0330
0000
0000
,
1000
0000
0100
0000
,
0001
0000
1000
0001
,
0100
0000
0010
0100
,
0010
0000
0001
0000
,
1001
0000
1000
0000
,
0100
0000
0100
1000
,
0010
0000
0100
0001
,
0010
0000
0010
1000
,
1001
0000
0100
0000
,
0010
0000
0100
0010
,
0100
0000
1000
0100
,
1000
0000
0100
0000
,
0101
0000
0010
0000
,
1000
0000
0100
0010
,
0220
0000
0000
0330
,
1001
0100
0010
0100
,
0110
0000
1000
0000
,
0100
0000
0010
0000
,
0100
0000
0010
0000
,
1000
0000
0100
0000
,
0010
0000
0100
0000
,
0010
0000
0100
0000
,
0001
0000
1000
0000
,
0100
0010
0100
0000
,
0010
0000
0001
0000
,
1000
0000
0001
0000
,
0100
0000
0010
0000
,
0100
0000
0010
0000
,
0001
0000
1000
0000
,
0100
0000
0010
0000
,
0100
0000
0010
0000
,
0100
0010
0100
0000
,
0110
0000
0000
0000
;

//--------------- dance-single - ----------------
#NOTES:
     dance-single:
     :
     Medium:
     5:
     0,0,0,0,0:
0000
0000
0000
0000
,
0000
0000
0000
0000
,
0000
0000
0000
0000
,
0000
0000
0000
0000
,
1001
0000
0010
0200
0000
0000
0300
0000
0100
0000
0010
0200
0000
0000
0000
0300
,
0010
0000
0100
2000
0000
0000
0000
3000
0100
0000
0010
0000
1000
0000
0100
0000
,
0010
0000
0001
1000
0000
0000
0100
0000
0010
0000
0100
0000
0010
0000
0001
0000
,
2002
0000
0000
3003
0200
0000
0000
0300
0010
0000
0100
0000
0010
0000
0100
0000
,
0010
0000
0001
0200
0000
0000
0300
0000
0100
0000
0010
2000
0000
0000
0000
3000
,
0100
0000
0010
0200
0000
0000
0000
0300
0010
0000
0100
0000
0010
0000
0001
0000
,
1000
0000
1000
0002
0000
0000
0000
0003
0010
0000
0100
0020
0000
0000
0030
0000
,
0010
0000
0001
2000
0000
0000
0000
3000
0100
0000
0010
0000
0100
0000
0001
0000
,
1000
0000
1000
0002
0000
0003
1000
0000
0001
0000
0010
2000
0000
0000
0000
3000
,
0100
0000
0010
0100
0000
0000
0010
0000
0100
0000
1000
0000
0100
0000
0010
0000
,
0001
0000
0000
0100
0000
0000
2002
0000
0000
0000
0000
0000
3003
0000
0100
0010
,
1000
0000
0100
0010
0100
0010
0001
1000
,
0100
0000
0000
0010
0000
0000
0100
0000
0020
0000
0000
0000
0000
0030
0100
0000
,
0010
0000
0100
0000
0100
0000
0010
0000
0000
0000
0100
0000
0010
0000
1000
0100
,
0020
0000
0000
0000
0000
0030
0100
0010
0200
0000
0000
0000
0000
0300
0010
0100
,
0020
0000
0000
0000
0000
0000
0000
0030
0100
0000
0010
0000
0001
0000
1000
0000
,
0200
0000
0300
0020
0000
0030
0100
0000
0020
0000
0000
0000
0000
0000
0000
0030
,
0100
0000
1000
0000
0010
0000
0200
0000
0000
0300
0010
0000
0010
0000
0001
0000
,
1000
0000
0001
1000
0000
0000
0010
1000
0100
0000
0010
0000
0100
0000
0020
0000
,
0000
0030
1000
0000
0100
0000
0000
0000
0010
0000
0000
0000
0100
0000
0010
0100
,
0020
0000
0000
0030
0100
0000
0020
0000
0000
0030
1000
0000
0100
0000
0010
0200
,
0000
0000
0000
0000
0000
0300
0010
0001
0100
0000
0010
0000
0100
0000
1000
0001
,
0200
0000
0000
0000
0000
0300
0010
0001
0100
0000
0010
0000
0100
0000
0010
0001
,
0200
0000
0000
0000
0000
0300
1000
0000
0020
0000
0000
0030
0200
0000
0000
0300
,
0010
0000
1001
0200
0000
0000
0300
0000
0001
0000
0010
0200
0000
0000
0000
0300
,
0010
0000
0100
0020
0000
0000
0030
1000
0100
0000
0010
0000
0100
0000
1000
0000
,
0020
0000
0000
0030
0100
0000
0010
1000
0020
0000
0000
0030
0001
0000
2000
0000
,
0000
0000
3000
0000
0100
0000
0010
0100
0000
0000
0010
0000
0100
0000
0010
0000
,
0020
0000
0000
0030
0100
0000
0020
0000
0000
0030
0100
0000
0010
0000
1000
0001
,
0200
0000
0300
0000
0100
0000
0010
0000
0100
0000
0010
0000
1000
0000
0100
0020
,
0000
0000
0000
0000
0030
0000
1000
0001
0100
0000
0010
0000
1000
0000
0100
0020
,
0000
0000
0000
0000
0000
0030
0100
0000
0020
0000
0000
0030
0100
0000
0000
0000
,
0010
0000
0100
0020
0000
0000
0000
0030
0100
0000
0010
2000
0000
0000
0000
3000
,
0100
0000
0010
0100
0000
0000
0010
0000
0010
0000
0000
0000
0001
0000
0000
0000
,
1000
0000
0001
0220
0000
0000
0000
0000
0000
0000
0000
0000
0000
0000
0000
0330
,
1001
0000
0000
0000
0100
0000
0010
0100
0000
0000
0010
0000
0100
0000
0010
0000
,
0002
0000
0000
0003
1000
0000
0200
0000
0000
0300
0020
0000
0000
0030
0100
0000
,
0000
0000
0100
0000
1000
0000
0020
0000
0000
0030
0200
0000
0000
0300
1001
0000
,
0000
0000
0000
0000
0100
0000
0020
0000
0000
0030
0200
0000
0000
0300
0010
0000
,
2000
0000
0000
3000
0002
0000
0000
0003
0200
0000
0000
0300
0020
0000
0000
0030
,
1001
0000
0000
0000
0100
0000
0020
0000
0000
0030
0200
0000
0000
0300
0020
0000
,
0000
0030
0100
0000
0001
0000
2000
0000
0000
3000
0200
0000
0000
0300
0020
0000
,
0000
0000
0000
0030
0100
0000
0020
0000
0000
0030
0002
0000
0000
0003
1000
0000
,
0200
0000
0000
0300
0020
0000
0000
0030
0200
0000
0000
0300
0020
0000
0000
0030
,
1001
0000
0000
0000
0100
0000
0020
0000
0000
0030
0200
0000
0000
0300
0001
0000
,
0000
0000
0000
0000
1000
0000
0002
0000
0000
0003
0200
0000
0000
0300
0020
0000
,
0000
0000
0030
0000
0100
0000
0020
0000
0000
0030
0200
0000
0000
0300
0010
0000
,
0002
0000
0000
0003
2000
0000
0000
3000
0200
0000
0000
0300
0020
0000
0000
0030
,
0100
0000
0000
0000
0010
0000
0002
0000
0000
0003
2000
0000
0000
3000
0200
0000
,
0000
0300
0000
0000
0100
0000
0020
0000
0000
0030
0200
0000
0000
0300
0020
0000
,
0000
0000
0000
0030
1000
0000
0200
0000
0000
0300
0020
0000
0000
0030
0100
0000
,
0020
0000
0000
0030
0002
0000
0000
0003
2000
0000
0000
3000
0002
0000
0000
0003
,
1001
0000
0000
0000
;

//--------------- dance-single - ----------------
#NOTES:
     dance-single:
     :
     Hard:
     11:
     0,0,0,0,0:
1000
0000
0100
0010
0000
0000
0100
0000
0010
0000
0100
0010
0000
0000
0100
1000
,
0020
0000
0000
1030
0000
0000
0100
0000
0010
0000
0100
0000
0010
0000
0100
0000
,
1000
0000
0100
0020
0000
0030
0100
0000
0010
0000
0100
0020
0000
0030
0100
0010
,
0100
0000
1000
0100
0010
0000
0100
0000
0010
0000
0100
0000
0010
0000
0001
0000
,
1000
0000
0001
2000
0000
3000
0100
0000
0010
0000
1000
0002
0000
0003
0100
1000
,
0010
0000
0100
0020
0000
0030
0100
0000
0010
0000
0100
0000
1000
0000
0001
0000
,
0100
0000
0010
0100
0000
0000
0100
0000
0010
0000
1000
0000
0100
0000
0010
0000
,
1001
0000
0000
0000
0000
0100
0010
0100
,
0010
0000
1000
0100
0000
0000
0010
1000
0100
0000
0100
0010
0000
0000
0010
0001
,
1000
0000
0000
0100
0010
0000
0100
0000
0010
0000
0100
0000
1000
0000
0100
0000
,
0010
0000
0010
0100
0000
0000
0010
0100
0010
0000
0100
2000
0000
3000
0010
0100
,
0010
0000
1000
0200
0000
0300
0001
0000
0010
0000
1000
0000
0010
0000
0100
0000
,
1001
0000
0100
0010
0100
0000
0100
0000
0010
0000
0100
0010
0000
0000
0001
0100
,
0020
0030
0001
0200
0000
0300
0001
0000
1000
0000
0010
0000
0100
0000
0010
0000
,
0110
0000
0000
1000
0000
0000
0010
0000
0100
0000
0010
0000
0100
0000
0010
0000
,
0100
1000
0010
0000
0010
0000
0100
0000
0010
0000
0100
0000
1000
0000
0010
0000
,
1001
0000
0000
0100
0000
0000
0010
0000
0100
0000
0000
0000
0010
0000
0100
0000
,
0010
0000
0001
0000
1000
0000
0100
0000
0000
0000
0010
0000
0100
0000
0010
0100
,
0020
0000
0000
0030
0000
0000
0100
0010
0200
0000
0000
0300
0000
0000
0010
0001
,
2000
0000
3001
0100
0010
0100
0010
1000
,
0100
0000
0000
0010
0000
0000
0100
0000
0020
0000
0000
0030
0200
0000
0000
0000
,
0300
0010
0100
1000
0000
0010
0001
1000
,
0100
0000
0010
0100
0000
0000
0100
0010
0100
0000
1000
0000
0100
0000
0010
0000
,
0000
0000
1000
0000
0010
0000
0100
0010
0100
0010
0100
0010
0100
0010
0100
0010
,
0200
0000
0000
0300
1000
0000
0200
0000
0300
0000
0100
0000
0010
0000
0100
0020
,
0000
0000
0000
0000
1030
0000
0001
1000
0100
0000
0010
0000
1000
0000
0100
0020
,
0000
0000
0000
0000
0000
0030
0100
0010
0100
0000
0001
0000
1000
0000
0100
0020
,
0000
0000
0000
0000
0000
0030
0100
0000
0020
0000
0000
0030
0200
0000
0000
0300
,
0010
0000
0001
1000
0000
0000
0100
0000
0010
0000
0001
0100
0000
0000
0001
0000
,
0100
0000
0010
0001
0000
0000
0100
0000
0010
0000
0100
0000
0010
0000
0010
0000
,
2002
0000
0000
3003
0100
0000
0010
0100
0020
0000
0000
0030
0100
0000
0020
0000
,
0000
0000
0000
0030
0100
0000
0010
0100
0000
0000
0010
0000
1000
0000
0010
0000
,
0002
0000
0000
0003
1000
0000
0002
0000
0000
0003
0100
0000
0010
0000
0100
0020
,
0000
0000
0030
0000
0100
0000
0010
0000
0100
0000
1000
0000
0100
0000
0010
0100
,
0020
0000
0000
0000
0030
0000
0100
0010
0100
0000
1000
0000
0100
0000
0010
0002
,
0000
0000
0000
0000
0000
0003
0100
0000
0020
0000
0000
0030
0200
0000
0000
0300
,
0001
0000
0100
0010
0000
0000
0100
0000
2000
0000
3001
0100
0010
0000
0001
0000
,
0100
0000
0010
0100
0000
0000
0100
0000
0020
0000
0000
0030
1000
0000
0000
0000
,
0100
0000
0010
0100
2000
0000
0000
0000
0000
0000
0000
0000
0000
0000
0000
0000
,
3001
0000
0000
0000
0100
0000
0010
0100
0000
0000
1000
0000
0100
0000
0010
0000
,
0220
0000
0000
0330
0010
0000
2000
0000
0000
3000
0100
0000
0010
0000
0200
0000
,
0000
0300
0010
0000
0100
0000
0020
0000
0000
0030
0100
0000
0010
0000
1000
0000
,
0200
0000
0000
0300
0010
0000
0200
0000
0000
0300
0010
0000
0010
0000
0001
0000
,
2020
0000
3030
0000
0010
1000
0100
0001
0010
0000
0010
0000
0100
0010
0100
1000
,
0020
0000
0000
0030
0100
0000
0020
0000
0000
0030
0200
0000
0000
0300
0010
0000
,
1000
0000
0100
0000
0010
0000
0002
0000
0000
0003
0100
0000
0010
0000
0100
0000
,
0020
0000
0000
0030
0100
0000
0020
0000
0000
0030
0002
0000
0000
0003
0100
0000
,
2020
0000
0000
3030
0220
0000
0000
0330
2002
0000
0000
3003
0220
0000
0000
0330
,
1001
0000
0100
0010
0000
0100
0000
0010
,
0000
0000
0100
0010
0000
0001
0000
1000
,
0000
0000
0100
0010
0000
0010
0000
0001
,
1000
0001
0100
0010
,
0100
0000
0010
0100
0000
0010
0000
0001
,
0000
0000
1000
0100
0000
0010
0000
0100
,
0000
0000
0010
0100
0000
0001
0000
1000
,
0001
0100
0010
0100
,
1001
0000
0000
0000
;
