#TITLE:Wind of Change;
#SUBTITLE:;
#ARTIST:Scorpions;
#TITLETRANSLIT:;
#SUBTITLETRANSLIT:;
#ARTISTTRANSLIT:;
#GENRE:Rock;
#CREDIT:Wrland;
#MUSIC:Wind of Change.ogg;
#BANNER:Wind of Change.png;
#BACKGROUND:Wind of Change-bg.png;
#CDTITLE:Wrland Season 3 CITYGHT.png;
#SAMPLESTART:99.807;
#SAMPLELENGTH:12.000;
#SELECTABLE:YES;
#OFFSET:0.000;
#BPMS:0.000=74.778
,4.000=75.778
;
#STOPS:;
#DISPLAYBPM:75.000;
#CDIMAGE:Wind of Change-cd.png;
#JACKET:Wind of Change-jacket.png;
#METERTYPE:DDR X;
#BGCHANGES:0.000=Wind of Change.avi=1.000=0=0=0=StretchNoLoop====,
99999.000=-nosongbg-=1.000=0=0=0=StretchNoLoop====
;
#FGCHANGES:;

//--------------- dance-single - Wrland ----------------
#NOTES:
     dance-single:
     Wrland:
     Beginner:
     1:
     0,0,0,0,0:
0000
0000
0000
0000
,
0000
0000
0000
0000
,
0000
0000
0000
0000
,
0000
0000
0000
0000
,
0000
0000
0000
0000
,
0000
0000
0000
0000
,
0000
0000
0100
0000
,
0000
0000
0000
0000
,
0000
0000
0001
0000
,
0000
0000
0000
0000
,
0000
0000
1000
0000
,
0100
0000
0000
0000
,
0000
0000
0000
0000
,
0010
0000
0000
0000
,
0000
0000
0001
0000
,
1000
0000
0100
0000
,
0000
0000
0000
0000
,
0000
0000
0010
0000
,
0000
0000
0000
0000
,
0000
0000
0100
0000
,
0000
0000
0000
0000
,
0000
0000
0000
0000
,
0010
0000
0000
0000
,
0000
0000
0000
0000
,
0001
0000
0000
0000
,
0000
0000
0000
1000
0001
0000
0000
0000
,
0100
0000
0010
0000
,
0000
0000
0000
0000
,
0000
0000
0100
0000
,
0000
0000
0000
0000
0000
0000
0000
0010
,
0001
0000
0020
0000
,
0030
0000
0110
0000
,
0000
0000
1000
0000
,
0100
0000
0011
0000
,
0000
0000
0010
0000
,
0100
0000
0010
0000
,
0000
0000
0001
0000
,
0000
0000
1100
0000
,
0000
0000
0100
0000
,
0000
0000
1000
0000
,
0000
0000
0100
0000
,
0000
0000
0010
0000
,
0000
0000
0002
0000
,
0000
0000
0000
0000
,
0003
0000
0000
0000
;

//--------------- dance-single - Wrland ----------------
#NOTES:
     dance-single:
     Wrland:
     Easy:
     2:
     0,0,0,0,0:
0000
0000
0000
0000
,
0000
0000
0000
0000
,
0000
0000
0000
0000
,
0000
0000
0000
0000
,
0000
0000
0000
0000
,
0000
0000
0000
0000
,
0000
0000
0100
0000
,
0000
0000
0010
0000
,
0000
0000
0100
0000
,
0000
0000
0010
0000
,
0001
0000
1000
0000
,
0100
0000
0000
0000
,
1000
0000
0000
0000
,
0100
0000
0000
0000
,
1000
0000
0000
1000
0001
0000
0000
0000
,
0100
0000
0010
0000
,
0000
0000
0100
0000
,
0000
0000
0010
0000
,
0000
0000
0001
0000
,
0000
0000
0010
0000
,
0000
0000
0100
0000
,
1000
0000
0100
0000
,
0010
0000
0000
0000
,
0100
0000
0000
0000
,
0010
0000
0000
0000
,
0001
0000
0000
0010
0001
0000
0000
0000
,
0010
0000
0100
0000
,
0000
0000
1000
0000
,
0000
0000
0100
0000
,
0000
0000
0000
0000
0010
0000
0000
0010
,
0100
0000
1000
0000
,
0000
0000
1000
0000
,
0100
0000
0000
0000
0000
0000
0000
0000
0010
0000
0000
0000
0000
0000
0001
0010
,
0000
0001
0000
0000
0000
0000
0000
0000
0010
0000
0000
0000
0000
0000
0000
0000
,
0100
0000
0000
0000
0000
0000
0000
0000
1000
0000
0000
0000
0000
0000
0100
1000
,
0000
0100
0000
0000
0000
0000
0000
0000
0010
0000
0000
0000
0000
0000
0000
0000
,
0000
0000
0100
0000
,
0000
0000
0010
0000
,
0000
0000
0000
0000
0000
0000
0000
0000
0001
0000
0000
0000
0000
0000
0010
0100
,
0000
0010
0000
0000
0000
0000
0000
0000
0100
0000
0000
0000
0000
0000
0000
0000
,
0000
0000
0000
0000
0000
0000
0000
0000
1000
0000
0000
0000
0000
0000
1000
0100
,
0000
1000
0000
0000
0000
0000
0000
0000
0100
0000
0000
0000
0000
0000
0000
0000
,
0000
0000
0220
0000
,
0000
0000
0000
0000
,
0330
0000
0000
0000
;

//--------------- dance-single - Wrland ----------------
#NOTES:
     dance-single:
     Wrland:
     Medium:
     4:
     0,0,0,0,0:
0000
0000
0000
0000
,
0000
0000
0000
0000
,
0000
0000
0000
0000
,
0000
0000
0000
0000
,
0000
0000
0000
0000
,
0000
0000
0000
0000
,
0000
0000
1001
0000
,
1000
0100
0000
0000
0010
0000
0100
0020
0000
0000
0030
0000
0000
0000
0000
0000
,
0001
0000
0010
0000
0100
0000
0100
1000
0000
0200
0000
0000
0300
0000
0000
0000
,
0100
0010
0000
0000
0010
0000
0100
0020
0000
0000
0030
0000
0000
0000
0001
0000
,
0200
0300
0020
0030
,
1100
0000
0000
0000
0000
0000
0000
0000
0100
0010
0000
0000
0100
0010
0000
0200
,
0000
0000
0300
0000
0000
0000
0000
0000
1000
0100
0000
0000
0010
0000
0100
0010
,
0000
0002
0000
0000
0003
0000
0000
0000
0100
0010
0000
0000
0100
0000
0010
0200
,
0000
0300
0000
0001
0020
0000
0030
0000
,
0200
0000
0000
0000
0300
0000
0000
0000
1000
0000
0000
0000
1000
0000
0100
2000
,
0000
3000
0000
0000
0100
0000
0100
0010
,
0001
0000
0010
0002
0000
0000
0003
0000
0001
0000
0000
0000
0010
0000
0100
0020
,
0000
0000
0030
0000
0100
0010
0000
0000
0100
0000
0000
0000
1000
0000
0100
0000
,
1000
0000
0100
0020
0000
0000
0030
0000
0001
0000
0000
0000
0001
0000
0010
0000
,
0001
0000
0010
0100
0000
0000
0010
0200
0000
0000
0300
0000
0000
0000
0010
0000
,
0200
0000
0300
0010
0002
0000
0003
0000
,
1010
0000
0000
0000
0000
0000
0000
0000
0100
0010
0000
0000
0100
0000
1000
0200
,
0000
0000
0300
0000
0000
0000
0000
0000
0001
0010
0000
0000
0100
0001
0000
0020
,
0000
0000
0030
0000
0000
0000
0000
0100
0010
0001
0000
0000
0010
0000
0100
0020
,
0000
0030
0000
0100
2000
0000
3000
0000
,
0200
0300
0011
0000
,
0001
0010
0000
0000
0100
0000
1000
0200
0000
0000
0300
0000
0000
0000
0000
0000
,
1000
0100
0000
0000
0010
0000
0100
0020
0000
0000
0030
0000
0000
0000
0000
0000
,
0001
0100
0000
0000
0010
0000
0100
2000
0000
0000
3000
0000
0000
0000
1000
0000
,
0200
0000
0000
0000
0300
0000
0000
0000
0020
0000
0030
0000
0100
0000
0000
0010
,
0100
0000
0001
0000
0100
0010
1000
0010
0200
0000
0000
0000
0300
0000
0010
0200
,
0000
0000
0300
0000
0010
0000
0001
0010
0100
0010
0000
0000
0100
0000
1000
0100
,
0000
1000
0000
0000
1000
0100
1000
0200
0000
0000
0300
0000
0000
0000
0100
0020
,
0000
0000
0030
0000
0001
0000
0010
0100
0010
0001
0000
0000
0010
0000
0100
1000
,
0000
0100
0000
0000
0100
0000
0010
0200
0000
0000
0300
0000
0010
0000
0001
0010
,
0000
0000
0010
0000
0100
0010
0000
0002
0000
0000
0000
0000
0003
0000
0000
0000
,
0100
0000
1000
0000
0100
0001
0010
0100
0020
0000
0030
0000
0100
0000
1000
0200
,
0000
0000
0300
0000
0010
0000
0001
0010
0100
0010
0000
0000
0001
0000
0010
0100
,
0000
1000
0000
0000
0100
0010
0100
0020
0000
0000
0030
0000
1000
0000
0100
2000
,
0000
0000
3000
0000
0100
0000
0001
0100
0010
0100
0000
0000
0001
0000
0010
0100
,
0000
0010
0000
0000
0001
0000
0010
0002
0000
0000
0003
0000
0010
0000
0100
0010
,
0000
0000
0001
0100
0010
0100
0000
0020
0000
0000
0000
0000
0030
0000
0000
0000
,
0220
0000
0000
0000
,
0330
0000
0000
0000
;

//--------------- dance-single - Wrland ----------------
#NOTES:
     dance-single:
     Wrland:
     Hard:
     6:
     0,0,0,0,0:
0000
0000
0000
0000
,
0000
0000
0000
0000
,
1000
0000
0000
0000
0001
0000
0010
0002
0000
0000
0003
0000
0010
0100
0000
0000
,
0010
0000
0000
0000
0100
0000
1000
0000
0100
0000
0010
0200
0000
0000
0300
0000
,
0001
0000
0000
0000
0010
0000
0100
0000
0010
0000
0001
0010
0000
0000
0100
0010
,
0001
1000
0100
0010
0001
0010
0001
0010
,
0100
0100
0022
0033
,
0100
1000
0000
0000
0100
0001
0000
0020
0000
0000
0030
0000
0000
0000
0000
0000
,
0100
0000
0010
0000
0001
0000
0010
0100
0000
0200
0000
0000
0300
0000
0000
0000
,
1000
0100
0000
0000
0001
0000
0010
0002
0000
0000
0003
0000
0000
0000
0100
0000
,
0010
1000
0100
1000
0010
0001
0010
0001
,
0020
0000
0000
0000
0030
0000
0000
0000
0100
0010
0000
0000
0100
0001
0000
0200
,
0000
0000
0300
0000
0000
0000
0000
0000
0010
0001
0000
0000
0001
0000
0010
0100
,
0000
2000
0000
0000
3000
0000
0000
0000
1000
0100
0000
0000
0010
0000
0100
0020
,
0000
0030
0000
0100
0010
0100
1000
0100
,
0001
0000
0001
0000
0010
0000
0100
0000
1000
0000
0000
0000
0100
0000
0010
0200
,
0000
0000
0300
0000
0001
0010
0000
0000
0100
0000
0000
0000
1000
0000
0100
0000
,
1000
0000
0100
0020
0000
0000
0030
0000
0100
0000
0000
0000
0010
0000
0100
0020
,
0000
0000
0030
0000
0001
0010
0000
0000
0100
0000
0000
0000
1000
0000
0100
0000
,
1000
0000
0100
2000
0000
0000
3000
0000
0100
0000
0000
0000
0100
0000
0010
0000
,
0001
0000
0100
0010
0000
0000
0100
0010
0001
0000
0010
0000
0100
0000
1000
0000
,
0100
0010
0001
0010
0100
1000
0100
0010
,
0002
0000
0003
0000
1000
0000
0000
0000
0100
1000
0000
0000
0100
0000
0010
0200
,
0000
0000
0300
0000
0000
0000
0000
0000
0001
0010
0000
0000
0100
0010
0000
0200
,
0000
0000
0300
0000
0001
0010
0000
1000
0100
0010
0000
0000
0001
0000
0010
0200
,
0000
0300
0000
0100
0010
0100
0010
0100
,
0001
1000
0100
1000
0200
0000
0300
0000
,
0010
0001
0000
0000
0010
0000
0100
0020
0000
0000
0030
0000
0100
0010
0000
0000
,
0001
0010
0000
0000
0100
0000
1000
0001
0200
0000
0300
0000
0010
0100
0000
0000
,
0010
0100
0000
0000
0010
0000
0001
0020
0000
0000
0030
0000
0000
0000
1000
0000
,
0100
0000
1000
0000
0100
0000
0010
0000
0001
0000
0100
0000
0110
0000
0001
0010
,
0100
0000
0010
0000
0001
0010
0100
0010
2002
0000
3003
0000
0100
0000
0010
0200
,
0000
0000
0300
0000
0010
0000
0010
0100
0010
0001
0000
0000
0010
0000
0100
1000
,
0000
0100
0000
0000
0000
1000
0100
0020
0000
0000
0030
0000
0100
0000
0010
0002
,
0000
0000
0003
0000
0001
0010
0100
0010
0001
0010
0000
0000
0100
0000
1000
0100
,
0000
0010
0000
0000
0100
0000
0010
0200
0000
0000
0300
0000
0001
0000
0010
0100
,
0000
0000
1000
0100
0010
0001
0000
0020
0000
0000
0030
0000
0100
0000
0000
1000
,
0100
0000
0010
0000
0001
0100
0010
0100
2020
0000
3030
0000
0100
0000
0010
0002
,
0000
0000
0003
0000
0010
0000
0100
0010
0001
1000
0000
0000
0100
0000
1000
0100
,
0000
0010
0000
0000
0010
0100
0010
0200
0000
0000
0300
0000
0001
0000
0010
0200
,
0000
0000
0300
0000
1000
0100
0010
0100
0010
0001
0000
0000
0010
0000
0100
1000
,
0000
0100
0000
0000
0100
0000
0010
0200
0000
0000
0300
0000
0001
0000
0010
0100
,
0000
0000
1000
0100
0010
1000
0000
0220
0000
0000
0000
0000
0000
0000
0000
0000
,
0000
0000
0000
0000
,
0330
0000
0000
0000
;
