#TITLE:Why Not;
#SUBTITLE:;
#ARTIST:Hilary Duff;
#TITLETRANSLIT:;
#SUBTITLETRANSLIT:;
#ARTISTTRANSLIT:;
#GENRE:Rock-Pop;
#CREDIT:;
#MUSIC:Why Not.ogg;
#BANNER:Why Not.png;
#BACKGROUND:Why Not-bg.png;
#CDTITLE:Wrland Season 3 CITYGHT.png;
#SAMPLESTART:44.576;
#SAMPLELENGTH:12.000;
#SELECTABLE:YES;
#OFFSET:0.000;
#BPMS:0.000=115.000
,4.000=113.000
,179.000=56.500
,187.000=113.000
;
#STOPS:83.000=0.531;
#DISPLAYBPM:56.000:113.000;
#ORIGIN:;
#PREVIEWVID:;
#JACKET:Why Not-jacket.png;
#CDIMAGE:Why Not-cd.png;
#DISCIMAGE:;
#BGCHANGES:0.000=Why Not.avi=1.000=0=0=1,
99999.000=-nosongbg-=1.000=0=0=0=StretchNoLoop====
;
#FGCHANGES:;

//--------------- dance-single - ----------------
#NOTES:
     dance-single:
     :
     Beginner:
     1:
     0.034641,0.066863,0.021396,0,0.003566,34,31,3,0,0,0,0,0,0,0.034641,0.066863,0.021396,0,0.003566,34,31,3,0,0,0,0,0,0:
0000
0000
0000
0000
,
0000
0000
0000
0000
,
0000
0000
0000
0000
,
0000
0000
0000
0000
,
0000
0000
0000
0000
,
0010
0000
0000
0000
,
0000
0000
0000
0000
,
0001
0000
0000
0000
,
0000
0000
0000
0000
,
0100
0000
0000
0000
,
0000
0000
0000
0000
,
0010
0000
0000
0000
,
0000
0000
0000
0000
,
1000
0000
0000
0000
,
0000
0000
0000
0000
,
1000
0000
0000
0000
,
0000
0000
0000
0000
,
0100
0000
0000
0000
,
0000
0000
0000
0000
,
0100
0000
0000
0000
,
0000
0000
0000
0000
0000
0000
0000
0000
0000
0000
0000
0000
0000
0000
0000
0000
0000
0000
0000
0000
0000
0000
0000
0000
0000
0000
0000
0000
0000
0000
0000
0000
0000
0000
0000
0000
0000
0000
0000
0000
0000
0000
0000
0000
0000
0000
0000
0000
0000
0000
0000
0000
0000
0000
0000
0000
0000
0000
0000
0000
0000
0000
0000
0000
0000
0000
0000
0000
0000
0000
0000
0000
0000
0000
0000
0000
0000
0000
0000
0000
0000
0000
0000
0000
0000
0000
0000
0000
0000
0000
0000
0000
0000
0000
0000
0000
0000
0000
0000
0000
0000
0000
0000
0000
0000
0000
0000
0000
0000
0000
0000
0000
0000
0000
0000
0000
0000
0000
0000
0000
0000
0000
0000
0000
0000
0000
0000
0000
0000
0000
0000
0000
0000
0000
0000
0000
0000
0000
0000
0000
0000
0000
0000
0000
0000
1001
0000
0000
0000
0000
0000
0000
0000
0000
0000
0000
0000
0000
0000
0000
0000
0000
0000
0000
0000
0000
0000
0000
0000
0000
0000
0000
0000
0000
0000
0000
0000
0000
0000
0000
0000
0000
0000
0000
0000
0000
0000
0000
0000
0000
0000
0000
,
0000
0000
0000
0000
,
0000
0000
0000
0100
,
0000
0000
0000
0000
,
0000
0000
0000
0010
,
0000
0000
0000
0000
,
0000
0000
0000
0100
,
0000
0000
0000
0000
,
0000
0000
0000
0001
,
0000
0000
0000
0000
,
0000
0000
0000
1000
,
0000
0000
0000
0000
,
0000
0000
0000
0001
,
0000
0000
0000
0000
,
0000
0000
0000
1000
,
0000
0000
0000
0000
,
0000
0000
0000
0100
,
0000
0000
0000
0000
,
0000
0000
0000
1000
,
0000
0000
0000
0000
,
0000
0000
0000
0001
,
0000
0000
0000
0000
,
0000
0000
0000
1000
,
0000
0000
0000
0000
,
0000
0000
0000
0001
,
0000
0000
0000
0100
,
0000
0000
0000
0010
,
0000
0000
0000
0000
,
0000
0000
0000
0100
,
0000
0000
0000
0000
,
0000
0000
0000
1001
,
0000
0000
0000
0000
,
0000
0000
0000
0001
,
0000
0000
0000
0000
,
0000
0000
0000
0010
,
0000
0000
0000
0000
,
0000
0000
0000
0001
,
0000
0000
0000
0000
,
0000
0000
0000
1000
,
0000
0000
0000
0000
,
0000
0000
0000
0100
,
0000
0000
0000
0000
,
0000
0000
0110
0000
;

//--------------- dance-single - ----------------
#NOTES:
     dance-single:
     :
     Easy:
     3:
     0.096792,0.20139,0.10698,0.014264,0.003566,95,80,15,2,0,0,0,0,0,0.096792,0.20139,0.10698,0.014264,0.003566,95,80,15,2,0,0,0,0,0:
0000
0000
0000
0000
,
0000
0000
0000
0000
,
0000
0000
0000
0000
,
0000
0000
0000
0000
,
0000
0000
0000
0000
,
0100
0000
0000
0000
,
0100
0000
0000
0000
,
0100
0000
0000
0000
,
0010
0000
0000
0000
,
0001
0000
0000
0000
,
0010
0000
0000
0000
,
1010
0000
0000
0000
,
0101
0000
0000
0010
,
0110
0000
0000
0000
,
0100
0000
0000
0000
,
1000
0000
0000
0000
,
0100
0000
0000
0000
,
0100
0000
0000
0000
,
0010
0000
0000
0000
,
0001
0000
0000
0000
,
0100
0000
0000
0000
0000
0000
0000
0000
0000
0000
0000
0000
0000
0000
0000
0000
0000
0000
0000
0000
0000
0000
0000
0000
0000
0000
0000
0000
0000
0000
0000
0000
0000
0000
0000
0000
0000
0000
0000
0000
0000
0000
0000
0000
0000
0000
0000
0000
0000
0000
0000
0000
0000
0000
0000
0000
0000
0000
0000
0000
0000
0000
0000
0000
0000
0000
0000
0000
0000
0000
0000
0000
0000
0000
0000
0000
0000
0000
0000
0000
0000
0000
0000
0000
0000
0000
0000
0000
0000
0000
0000
0000
0000
0000
0000
0000
0000
0000
0000
0000
0000
0000
0000
0000
0000
0000
0000
0000
0000
0000
0000
0000
0000
0000
0000
0000
0000
0000
0000
0000
0000
0000
0000
0000
0000
0000
0000
0000
0000
0000
0000
0000
0000
0000
0000
0000
0000
0000
0000
0000
0000
0000
0000
0000
0110
0110
0000
0000
0000
0000
0000
0000
0000
0000
0000
0000
0000
0000
0000
0000
0000
0000
0000
0000
0000
0000
0000
0000
0000
0000
0000
0000
0000
0000
0000
0000
0000
0000
0000
0000
0000
0000
0000
0000
0000
0000
0000
0000
0000
0000
0000
0000
,
0000
0000
0000
1001
,
0000
0000
0000
1100
,
0000
0000
0000
0110
,
0000
0000
0000
0010
,
0000
0000
0000
0010
,
0000
0000
0000
0100
,
0000
0000
0000
0100
,
0000
0000
0000
0100
,
0010
0100
0000
1000
,
1000
1000
0000
0001
,
0000
0100
0000
0000
0000
0010
0000
0100
,
0000
0010
0000
0000
0000
0000
0100
0000
,
0000
0000
0000
0010
,
0000
0000
0000
0100
,
0100
0010
0010
0100
,
1000
0100
0010
0200
,
0000
0000
0000
0000
0000
0010
0000
0000
,
0000
0000
0300
0010
,
0000
0000
0000
0100
0010
0000
0000
0000
,
0000
0000
0000
0001
0010
0000
0200
0000
,
0000
0000
0000
0000
0000
0001
0000
0000
,
0000
0000
0300
0001
,
0000
0000
0000
1000
0100
0000
0000
0000
,
0000
0000
0000
0100
0010
0000
0110
0000
,
0000
0000
0000
1001
,
0000
0000
0000
1000
,
0000
0000
0000
1000
,
0000
0000
0000
0100
,
0000
0000
0000
0100
,
0000
0000
0000
0010
,
0000
0000
0000
0010
,
0000
0000
0000
0001
,
0000
0000
0000
0100
,
0000
0000
0000
1100
,
0000
0000
0000
0101
,
0000
0000
0000
0110
,
0000
0000
0000
1010
,
0000
0000
0000
0100
,
0000
0000
0000
0010
,
0000
0000
0000
0100
,
0000
0000
0000
0010
,
0000
0000
0000
0110
;

//--------------- dance-single - ----------------
#NOTES:
     dance-single:
     :
     Medium:
     6:
     0.310752,0.44575,0.064188,0.114112,0.360166,305,296,9,16,0,0,0,0,0,0.310752,0.44575,0.064188,0.114112,0.360166,305,296,9,16,0,0,0,0,0:
0000
0000
0000
0000
,
0000
0000
0000
0000
,
0000
0000
0000
0000
,
0000
0000
0000
0000
,
0000
0000
0000
0000
,
0100
0000
0010
0000
0010
0100
0000
0100
0000
0010
0000
0000
0000
0000
0010
1000
,
0100
0000
1000
0100
0000
0001
0000
0100
0000
0000
0000
0000
0000
0000
0000
0000
,
0100
0010
0000
0100
0000
0100
0000
1000
0000
0100
0000
0010
0000
0000
0000
0100
,
0010
0100
0000
0001
0000
1000
0000
0100
0000
0000
0110
0000
0110
0000
0000
1000
,
0001
0000
0000
0010
0000
0100
0000
0010
0000
0100
0000
1000
0000
0000
0000
0000
,
1000
0000
0100
0000
1000
0100
0000
1000
0000
0000
0100
0000
0010
0000
0000
0000
,
1000
0100
0000
1000
0000
0100
0000
1000
0000
0100
0000
0000
0010
0000
0001
0000
,
0010
0000
0001
0000
0010
0001
0000
1000
0101
0000
0100
0000
0011
0000
1000
0000
,
0100
0000
0010
0100
0000
0010
0000
0100
0000
0010
0000
0000
0000
0000
0001
0000
,
0100
0000
0010
0100
0000
0010
0000
0100
0000
0000
0000
0000
0000
0000
0000
0000
,
0100
0000
0100
0000
0010
0100
0000
0010
0000
0100
0000
0010
0000
0000
0000
0100
,
1000
0000
0010
0000
0100
0000
0010
0100
0000
0000
0000
0000
0000
0000
0000
0000
,
0010
0000
1000
0000
0100
0001
0000
0010
0000
0100
0000
0001
0000
0000
0010
0000
,
0100
0000
0010
0100
0000
0010
0000
0100
0000
0000
0000
0000
0000
0000
0000
0000
,
0100
0010
0100
0000
0010
0100
0000
0100
0000
0010
0000
0100
0000
0000
0000
1000
,
0100
0000
0000
0000
0000
0000
0000
0000
0000
0000
0000
0000
0010
0000
0000
0000
0000
0000
0000
0000
0000
0000
0000
0000
0000
0000
0000
0000
0000
0000
0000
0000
0000
0000
0000
0000
0010
0000
0000
0000
0000
0000
0000
0000
0000
0000
0000
0000
0000
0000
0000
0000
0000
0000
0000
0000
0000
0000
0000
0000
0001
0000
0000
0000
0000
0000
0000
0000
0000
0000
0000
0000
0000
0000
0000
0000
0000
0000
0000
0000
0000
0000
0000
0000
0000
0000
0000
0000
0000
0000
0000
0000
0000
0000
0000
0000
0110
0000
0000
0000
0000
0000
0000
0000
0000
0000
0000
0000
0000
0000
0000
0000
0000
0000
0000
0000
0000
0000
0000
0000
0000
0000
0000
0000
0000
0000
0000
0000
0000
0000
0000
0000
0000
0000
0000
0000
0000
0000
0000
0000
0000
0000
0000
0000
1001
0220
0000
0000
0000
0000
0000
0000
0000
0000
0000
0000
0000
0000
0000
0000
0000
0000
0000
0000
0000
0000
0000
0000
0330
0000
0000
0000
0000
0000
0000
0000
0000
0000
0000
0000
0000
0000
0000
0000
0000
0000
0000
0000
0000
0000
0000
0000
,
0100
0000
0010
0000
0000
0000
0100
0000
0010
0000
0000
0000
0001
0000
0000
0010
,
0000
0100
0000
0010
0000
0000
0100
0000
0010
0000
0000
0000
0100
0000
0000
0000
,
0010
0000
0100
0000
0000
0000
1000
0000
0100
0000
0000
0000
1000
0000
0000
0100
,
0000
1000
0000
0100
0000
0000
0100
0000
0010
0000
0000
0000
0100
0000
0010
0001
,
0000
0010
0000
0100
0000
0000
1000
0000
0000
0000
0000
1000
0100
1000
0100
1000
,
0000
0010
0000
0100
0000
0000
0000
0000
0000
0000
0010
0000
0100
0000
0000
0000
,
0010
0100
0000
0000
0000
0000
0010
0100
,
0010
0001
0100
0000
0000
0000
1000
0000
,
0100
2002
0000
3003
0000
0000
0100
0000
,
0100
0000
0010
0100
0010
0000
0100
0000
,
0100
0020
0030
0100
0000
0010
0000
0001
,
0000
0020
0000
0000
0030
0000
0100
0000
,
0010
0200
0000
0000
0300
0000
0010
0100
,
0010
0001
0100
1000
0100
0000
0100
0010
,
0100
0010
0001
0100
1000
0100
0010
0001
,
0100
1000
0100
0010
0001
0100
1000
0100
,
0000
0100
0000
0100
0000
0010
0000
0100
,
0000
0010
0000
0100
0010
0000
0200
0000
,
0000
0000
0000
0000
,
0300
0000
0000
0010
,
0100
0000
0010
0000
0001
0100
0000
1000
,
0000
0100
0000
0010
0100
0000
0020
0000
,
0000
0000
0000
0000
,
0030
0000
0000
0200
,
0000
0000
0300
0020
,
0000
0000
0030
0002
,
0000
0000
0003
2000
,
0000
0000
3000
0200
,
0000
0000
0300
0020
,
0000
0000
0000
0000
0000
0000
0000
0000
0000
0000
0000
0000
0000
0000
0000
0000
0000
0000
0000
0000
0000
0000
0000
0000
0000
0000
0000
0000
0000
0000
0000
0000
0000
0000
0000
0000
0000
0000
0000
0000
0000
0000
0000
0000
0000
0000
0000
0000
0000
0000
0000
0000
0000
0000
0000
0000
0000
0000
0000
0000
0000
0000
0000
0000
0000
0000
0000
0000
0000
0000
0000
0000
0000
0000
0000
0000
0000
0000
0000
0000
0000
0000
0000
0000
0000
0000
0000
0000
0000
0030
0000
0000
0000
0000
0000
0000
0100
0000
0000
0000
0000
0000
0000
0000
0000
0000
0000
0000
0000
0000
0000
0000
0000
0000
0000
0000
0000
0000
0000
0000
0000
0000
0000
0000
0000
0000
0000
0000
0000
0000
0000
0000
0000
0000
0000
0000
0000
0000
0000
0000
0000
0000
0000
0000
0100
0000
0000
0000
0000
0000
0000
0000
0000
0000
0000
0000
0000
0000
0000
0000
0000
0000
0000
0000
0000
0000
0000
0000
0010
0000
0000
0000
0000
0000
0000
0000
0000
0000
0000
0000
0100
0000
0000
0000
0000
0000
0000
0000
0000
0000
0000
0000
,
0000
0100
0000
1000
0000
0100
0000
0000
0000
0000
0000
0010
0100
0010
0100
0010
,
0000
0100
0000
0010
0000
0000
0000
0000
0000
0000
0010
0000
0001
0000
0000
0000
,
0010
0100
0000
1000
0100
0000
0100
0010
,
0001
0100
0010
0000
0000
0000
0200
0300
,
1000
0000
0100
0000
0000
0000
0010
0000
0100
0000
0000
0000
0010
0000
0100
0010
,
0000
0100
0000
0010
0000
0000
0100
0000
0010
0000
0000
0000
0100
0000
0000
0000
,
1000
0000
0100
0000
0000
0000
0010
0000
0100
0000
0000
0000
0100
0001
0000
0010
,
0000
0100
0000
0010
0000
0000
0100
0000
0010
0000
0000
0000
0100
0000
0010
0001
,
0000
0100
0000
0010
0000
0000
0100
0000
0000
0000
0000
0010
0001
0010
0001
0010
,
0000
0100
0000
0010
0000
0000
0000
0000
0000
0000
0100
0000
0010
0000
0000
0000
,
0100
0010
0000
0100
0010
0000
0001
0100
,
1000
0100
0110
0000
;

//--------------- dance-single - ----------------
#NOTES:
     dance-single:
     :
     Hard:
     10:
     0,0,0,0,0:
0000
0000
0000
0000
,
0000
0000
0000
0000
,
0000
0000
0000
0000
,
0000
0000
0000
0000
,
0000
0000
0000
0000
,
1000
0000
0100
0000
0010
0100
0000
0001
0000
0200
0000
0300
0000
0000
0010
0100
,
0010
0000
0100
0010
0000
0100
0000
0020
0000
0030
0000
0000
0000
0000
0000
0000
,
0001
1000
0000
0001
0000
0010
0000
0100
0000
1000
0000
0200
0000
0300
0000
0001
,
0010
0100
0000
0100
0000
0010
0000
0200
0000
0300
0010
0000
0110
0000
0000
0000
,
0100
0010
0000
0100
0000
0010
0000
0100
0000
1000
0000
0200
0000
0300
0000
0000
,
0100
0000
0010
0000
0100
0010
0000
0200
0000
0300
0010
0000
0110
0000
0000
0000
,
0010
0100
0000
0001
0000
0100
0000
1000
0000
0100
0000
0000
0010
0000
0001
0000
,
0100
0000
0010
0000
0100
0010
0000
0001
0110
0000
1000
0000
1100
0000
0100
0000
,
0010
0000
0100
0010
0000
1000
0000
0100
0000
0020
0000
0030
0000
0000
0100
0000
,
0010
0000
0100
0010
0000
0100
0000
2000
0000
3000
0100
0000
0010
0000
0000
0000
,
1000
0000
0100
0000
1000
0100
0000
1000
0000
0100
0000
0010
0000
0000
0000
0010
,
0100
0000
0010
0000
0100
0010
0000
0002
0000
0003
1000
0000
0100
0000
0000
0000
,
0010
0000
0100
0000
0100
1000
0000
0100
0000
0010
0000
0200
0000
0300
0010
0000
,
0100
0000
0010
0100
0000
0010
0000
0200
0000
0300
0010
0000
0110
0000
0000
0000
,
0100
0010
0100
0010
0000
0100
0000
1000
0000
0100
0000
0020
0000
0030
0000
0001
,
0100
0000
0000
0000
0000
0000
0000
0000
0000
0000
0000
0000
1000
0000
0000
0000
0000
0000
0000
0000
0000
0000
0000
0000
0000
0000
0000
0000
0000
0000
0000
0000
0000
0000
0000
0000
1000
0000
0000
0000
0000
0000
0000
0000
0000
0000
0000
0000
0000
0000
0000
0000
0000
0000
0000
0000
0000
0000
0000
0000
0010
0000
0000
0000
0000
0000
0000
0000
0000
0000
0000
0000
0000
0000
0000
0000
0000
0000
0000
0000
0000
0000
0000
0000
0000
0000
0000
0000
0000
0000
0000
0000
0000
0000
0000
0000
0220
0000
0000
0000
0000
0000
0000
0000
0000
0000
0000
0000
0000
0000
0000
0000
0000
0000
0000
0000
0000
0000
0000
0000
0000
0000
0000
0000
0000
0000
0000
0000
0000
0000
0000
0000
0330
0000
0000
0000
0000
0000
0000
0000
0000
0000
0000
0000
1001
0220
0000
0000
0000
0000
0000
0000
0000
0000
0000
0000
0000
0000
0000
0000
0000
0000
0000
0000
0000
0000
0000
0000
0330
0000
0000
0000
0000
0000
0000
0000
0000
0000
0000
0000
0000
0000
0000
0000
0000
0000
0000
0000
0000
0000
0000
0000
,
0100
0000
0020
0000
0030
0000
0100
0000
0020
0000
0030
0000
0100
0000
0010
1000
,
0000
0100
0000
0020
0000
0030
0001
0000
1000
0000
0000
0000
0220
0000
0330
0000
,
1000
0000
0002
0000
0003
0000
0110
0000
2000
0000
3000
0000
0100
0000
0010
0100
,
0000
0100
0000
0020
0000
0030
0100
0000
0001
0000
0000
0000
0100
0000
0010
0100
,
0000
0010
0000
0200
0000
0300
2000
0000
3000
0000
0000
1000
0001
1000
0001
1000
,
0000
0100
0000
0020
0000
0030
0100
0000
0010
0000
0001
0000
0020
0000
0030
0000
,
0100
0002
0003
0100
1010
0000
0100
0011
,
0010
0000
0100
0000
2200
0000
3300
0000
0100
0010
0000
0000
0200
0000
0000
0300
,
0010
0000
0200
0000
0000
0300
0010
0000
0100
0000
0010
0000
1000
0000
0100
0000
,
0010
0000
0001
0000
0100
0000
0010
0000
2000
0000
3000
0000
0200
0000
0000
0300
,
0010
0220
0330
0202
0303
2002
3003
2020
,
3030
0202
0303
0110
1001
0000
0220
0330
,
0100
2020
3030
0100
0011
0000
0100
0010
,
0100
1000
0100
0010
0002
0003
0110
0000
,
0100
0010
0001
1000
0100
0010
0100
0010
,
0001
0100
0010
0000
0100
0010
0101
0202
,
0303
2002
3003
0220
0330
0220
0330
2002
,
3003
2020
3030
1001
0110
0000
2020
0000
,
0000
0000
3030
1001
0220
0000
0000
0000
,
0330
1000
0001
0110
0011
0000
2002
3003
,
2200
3300
0220
0330
0011
2020
3030
2002
,
3003
0202
0303
0110
2002
3003
0220
0000
,
0000
0000
0330
0011
2200
0000
0000
0000
,
3300
0000
0000
0000
0000
0000
1100
0000
0110
0000
0000
0010
0200
0000
0000
0000
,
0000
0300
0020
0000
0000
0030
0200
0000
,
0000
0300
0220
0000
0000
0330
0010
0100
,
0010
0000
0100
0000
0000
0000
0010
0000
0100
0000
0000
0000
0010
0100
0000
0010
,
0000
0001
0000
1000
0100
0000
0000
0000
0100
0000
0000
0000
0100
0000
0000
0000
,
0010
0000
0000
0000
0000
0000
0010
0000
0001
0000
0000
0000
0100
0010
0000
0100
,
0000
1000
0000
0100
0000
0000
0010
0000
0220
0000
0330
0000
0100
0010
0000
0100
,
0000
0010
0000
0001
0000
0200
0000
0300
0000
0000
0000
0010
0100
0010
0000
0100
,
0000
0010
0000
2000
0000
3000
0000
0000
0000
0000
1000
0000
0220
0000
0330
0000
,
0001
0202
0303
0110
1001
0000
0000
0100
,
0010
0001
0010
0000
0200
0000
0300
0000
0010
0001
0010
0000
0200
0000
0300
0000
,
0010
0000
1000
0000
0100
1000
0100
1000
0110
0000
0000
0000
0010
0100
0010
0100
,
0000
1000
0000
0002
0000
0003
0100
0000
0011
0000
0000
0000
0200
0000
0300
0000
,
0010
0000
0100
0010
1000
0100
1000
0010
0110
0000
0000
0000
0100
0010
0000
0100
,
0000
0010
0000
0100
0000
0000
0010
0000
0011
0000
0000
0000
0100
0000
0010
1000
,
0000
0010
0000
0100
0000
0000
0010
0000
0101
0000
0000
0010
1000
0010
1000
0010
,
0000
0100
0000
0020
0000
0030
0100
0000
0110
0000
0001
0000
0020
0000
0030
0000
,
0100
2000
3000
0100
0010
0000
0100
0010
,
0001
0000
0100
0000
1000
0000
0000
0000
0100
0010
0100
0010
0110
0000
0000
0000
;

//--------------- dance-single - Metamorphosis ----------------
#MUSIC:Why Not (Metamorphosis).ogg;
#NOTES:
     dance-single:
     Metamorphosis:
     Edit:
     10:
     0.441166,0.46991,0.456448,0.748861,0.460014,433,369,64,105,0,0,0,0,0,0.441166,0.46991,0.456448,0.748861,0.460014,433,369,64,105,0,0,0,0,0:
0000
0000
0000
0000
,
0000
0000
0000
0000
,
0000
0000
0000
0000
,
0000
0000
0000
0000
,
0000
0000
0000
0000
,
1000
0000
0100
0000
0010
0100
0000
0001
0000
0200
0000
0300
0000
0000
0010
0100
,
0010
0000
0100
0010
0000
0100
0000
0020
0000
0030
0000
0000
0100
0000
0001
0010
,
0001
1000
0000
0001
0000
0010
0000
0100
0000
1000
0000
0200
0000
0300
0010
0001
,
0010
0100
0000
0100
0000
0010
0000
0200
0000
0300
0010
0000
0110
0000
0000
0000
,
0100
0010
0000
0100
0000
0010
0000
0100
0000
1000
0000
0200
0000
0300
0000
0100
,
0010
0100
0010
0100
0000
0010
0000
0200
0000
0300
0010
0000
0110
0000
0000
0000
,
0010
0100
0000
0001
0000
0100
0000
1000
0000
0100
0000
0010
0000
0000
0000
0000
,
0100
0010
0000
0100
0000
0010
0000
0002
0000
0003
0000
0000
1001
0000
0100
0000
,
0010
0000
0100
0010
0000
1000
0000
0100
0000
0020
0000
0030
0000
0000
0100
0000
,
0010
0000
0100
0010
0000
0100
0000
2000
0000
3000
0100
0000
0010
0000
0000
0000
,
1000
0000
0100
0000
1000
0100
0000
1000
0000
0100
0000
0010
0000
0000
0000
0010
,
0100
0000
0010
0000
0100
0010
0000
0002
0000
0003
1000
0000
0100
0000
0000
0000
,
0010
0000
0100
0000
0100
1000
0000
0100
0000
0010
0000
0200
0000
0300
0010
0000
,
0100
0000
0010
0000
0100
0010
0000
0200
0000
0300
0010
0000
0110
0000
0000
0000
,
0100
0010
0100
0010
0000
0100
0000
1000
0000
0100
0000
0020
0000
0030
0000
0100
,
0010
0000
0000
0000
0000
0000
0000
0000
0000
0000
0000
0000
0000
0000
0000
0000
0000
0000
0000
0000
0000
0000
0000
0000
0000
0000
0000
0000
0000
0000
0000
0000
0000
0000
0000
0000
0001
0000
0000
0000
0000
0000
0000
0000
0000
0000
0000
0000
0000
0000
0000
0000
0000
0000
0000
0000
0000
0000
0000
0000
0100
0000
0000
0000
0000
0000
0000
0000
0000
0000
0000
0000
0000
0000
0000
0000
0000
0000
0000
0000
0000
0000
0000
0000
0000
0000
0000
0000
0000
0000
0000
0000
0000
0000
0000
0000
0220
0000
0000
0000
0000
0000
0000
0000
0000
0000
0000
0000
0000
0000
0000
0000
0000
0000
0000
0000
0000
0000
0000
0000
0000
0000
0000
0000
0000
0000
0000
0000
0000
0000
0000
0000
0330
0000
0000
0000
0000
0000
0000
0000
0000
0000
0000
0000
1001
0220
0000
0000
0000
0000
0000
0000
0000
0000
0000
0000
0000
0000
0000
0000
0000
0000
0000
0000
0000
0000
0000
0000
0330
0000
0000
0000
0000
0000
0000
0000
0000
0000
0000
0000
0000
0000
0000
0000
0000
0000
0000
0000
0000
0000
0000
0000
,
0100
0000
0020
0000
0030
0000
0100
0000
0020
0000
0030
0000
0100
0000
0010
1000
,
0000
0100
0000
0020
0000
0030
0001
0000
1000
0000
0000
0000
0220
0000
0330
0000
,
1000
0000
0002
0000
0003
0000
0110
0000
2000
0000
3000
0000
0100
0000
0010
0100
,
0000
0100
0000
0020
0000
0030
0100
0000
0001
0000
0000
0000
0100
0000
0010
0100
,
0000
0010
0000
0200
0000
0300
2000
0000
3000
0000
0000
1000
0001
1000
0001
1000
,
0000
0100
0000
0020
0000
0030
0100
0000
0010
0000
0001
0000
0020
0000
0030
0000
,
0100
0002
0003
0100
1010
0000
0100
0011
,
0010
0000
0100
0000
2200
0000
3300
0000
0100
0010
0000
0000
0200
0000
0000
0300
,
0010
0000
0200
0000
0000
0300
0010
0000
0100
0000
0010
0000
1000
0000
0100
0000
,
0010
0000
0001
0000
0100
0000
0010
0000
2000
0000
3000
0000
0200
0000
0000
0300
,
0010
0220
0330
0202
0303
2002
3003
2020
,
3030
0202
0303
0110
1001
0000
0220
0330
,
0100
2020
3030
0100
0011
0000
0100
0010
,
0100
1000
0100
0010
0002
0003
0110
0000
,
0100
0010
0001
1000
0100
0010
0100
0010
,
0001
0100
0010
0000
0100
0010
0101
0202
,
0303
2002
3003
0220
0330
0220
0330
2002
,
3003
2020
3030
1001
0110
0000
2020
0000
,
0000
0000
3030
1001
0220
0000
0000
0000
,
0330
1000
0001
0110
0011
0000
2002
3003
,
2200
3300
0220
0330
0011
2020
3030
2002
,
3003
0202
0303
0110
2002
3003
0220
0000
,
0000
0000
0330
0011
2200
0000
0000
0000
,
3300
0000
0000
0000
0000
0000
1100
0000
0110
0000
0000
0010
0200
0000
0000
0000
,
0000
0300
0020
0000
0000
0030
0200
0000
,
0000
0300
0220
0000
0000
0330
0010
0100
,
0010
0000
0100
0000
0000
0000
0010
0000
0100
0000
0000
0000
0010
0100
0000
0010
,
0000
0001
0000
1000
0100
0000
0000
0000
0100
0000
0000
0000
0100
0000
0000
0000
,
0010
0000
0000
0000
0000
0000
0010
0000
0001
0000
0000
0000
0100
0010
0000
0100
,
0000
1000
0000
0100
0000
0000
0010
0000
0220
0000
0330
0000
0100
0010
0000
0100
,
0000
0010
0000
0001
0000
0200
0000
0300
0000
0000
0000
0010
0100
0010
0000
0100
,
0000
0010
0000
2000
0000
3000
0000
0000
0000
0000
1000
0000
0220
0000
0330
0000
,
0001
0202
0303
0110
1001
0000
0000
0100
,
0010
0001
0010
0000
0200
0000
0300
0000
0010
0001
0010
0000
0200
0000
0300
0000
,
0010
0000
1000
0000
0100
1000
0100
1000
0110
0000
0000
0000
0010
0100
0010
0100
,
0000
1000
0000
0002
0000
0003
0100
0000
0011
0000
0000
0000
0200
0000
0300
0000
,
0010
0000
0100
0010
1000
0100
1000
0010
0110
0000
0000
0000
0100
0010
0000
0100
,
0000
0010
0000
0100
0000
0000
0010
0000
0011
0000
0000
0000
0100
0000
0010
1000
,
0000
0010
0000
0100
0000
0000
0010
0000
0101
0000
0000
0010
1000
0010
1000
0010
,
0000
0100
0000
0020
0000
0030
0100
0000
0110
0000
0001
0000
0020
0000
0030
0000
,
0100
2000
3000
0100
0010
0000
0100
0010
,
0001
0000
0100
0000
1000
0000
0000
0000
0100
0010
0100
0010
0110
0000
0000
0000
;
