#VERSION:0.83;
#TITLE:Who Owns My Heart;
#SUBTITLE:;
#ARTIST:Miley Cyrus;
#TITLETRANSLIT:;
#SUBTITLETRANSLIT:;
#ARTISTTRANSLIT:;
#GENRE:Pop;
#CREDIT:Wrland;
#MUSIC:Who Owns My Heart.ogg;
#BANNER:Who Owns My Heart.png;
#BACKGROUND:BG.png;
#PREVIEWVID:preview.mp4;
#LYRICSPATH:Who Owns My Heart.lrc;
#CDTITLE:Can't Be Tamed.png;
#SAMPLESTART:56.506;
#SAMPLELENGTH:12.000;
#SELECTABLE:YES;
#OFFSET:-0.035;
#BPMS:0.000=136.000
,30.000=68.000
,31.000=136.000
;
#STOPS:;
#DISPLAYBPM:136.000;
#METERTYPE:DDR X;
#JACKET:Who Owns My Heart-jacket.png;
#CDIMAGE:Who Owns My Heart-cd.png;
#BGCHANGES:0.000=Who Owns My Heart.avi=0.000=0=0=0=StretchNoLoop====,
99999.000=-nosongbg-=1.000=0=0=0=StretchNoLoop====
;
#FGCHANGES:;

//--------------- dance-single - Wrland ----------------
#NOTEDATA:;
#STEPSTYPE:dance-single;
#DESCRIPTION:Wrland;
#DIFFICULTY:Beginner;
#METER:3;
#RADARVALUES:0,0,0,0,0;
#NOTES:
0000
0000
0000
0000
,
0000
0000
0000
0000
,
0000
0000
0000
0000
,
0000
0000
0000
0000
,
0000
0000
0000
0000
,
0000
0000
0000
0000
,
0000
0000
0000
0000
,
0000
0000
0000
0100
,
0000
0100
0000
0100
,
0000
0010
0000
0001
,
0000
0010
0000
0100
,
0000
1000
0000
1000
,
0000
0100
0000
1000
,
0000
0100
0000
0010
,
0000
0001
0000
0010
,
0000
0100
0000
1000
,
0000
1000
0000
0100
,
0000
0010
0000
0001
,
0000
0010
0000
0100
,
0000
0010
0000
0100
,
0000
0010
0000
0001
,
0000
0010
0000
0100
,
0000
1000
0000
0100
,
0000
0010
0000
0001
,
0000
0001
0000
1000
,
0000
1000
0000
0100
,
0000
1000
0000
0100
,
0000
0010
0000
1000
,
0000
0100
0000
0010
,
0000
0100
0000
0010
,
0000
0001
0000
2002
,
0000
0000
3003
1000
,
0000
0100
0000
1000
,
0000
0100
0000
0010
,
0000
0001
0000
0100
,
0000
0010
0000
0100
,
0000
1000
0000
0100
,
0000
0010
0000
0001
,
0000
0010
0000
0100
,
0000
1000
0000
0100
,
0000
1000
0000
0100
,
0000
0010
0000
0001
,
0000
1000
0000
0100
,
0000
1000
0000
0100
,
0000
0010
0000
0001
,
0000
0010
0000
0100
,
0000
1000
0000
0100
,
0000
0010
0000
2002
,
0000
3003
0000
2002
,
0000
3003
0000
2002
,
0000
3003
0000
2002
,
0000
3003
0000
0000
;

//--------------- dance-single - Wrland ----------------
#NOTEDATA:;
#STEPSTYPE:dance-single;
#DESCRIPTION:Wrland;
#DIFFICULTY:Easy;
#METER:5;
#RADARVALUES:0,0,0,0,0;
#NOTES:
0000
0000
0000
0000
,
0000
0000
0000
0000
,
0000
0000
0000
0000
,
0000
0000
0000
0000
,
0000
0000
0000
0000
,
0000
0000
0000
0000
,
0000
0000
0000
0000
,
0000
0000
0000
1000
,
0100
1000
0000
0100
,
0001
0100
0000
0001
,
0010
0001
0000
0001
,
1000
0001
0000
1000
,
0001
1000
0000
0100
,
0010
0100
0000
0001
,
0100
0010
0000
0100
,
1000
0100
0000
1000
,
0100
0010
0001
0100
,
0010
0100
0000
0010
,
0100
0010
0001
0100
,
0010
0100
0000
1000
,
0100
1000
0100
1000
,
0100
0010
0100
0010
,
0001
0100
0010
0110
,
0000
1001
0000
1000
,
0100
1000
0000
0010
,
0001
0100
0000
0100
,
0010
0001
0000
0010
,
0100
1000
0000
1000
,
0100
0010
0000
0100
,
0001
0100
0000
0001
,
0010
0100
1000
2002
,
3003
2200
3300
0100
,
0010
0000
0100
0000
0010
0200
0000
0300
,
0001
0010
0100
1000
,
0100
0000
1000
0000
0100
2000
0000
3000
,
1000
0100
0010
0001
,
0100
0010
0001
0100
,
0001
0100
0001
0100
,
1000
0000
0100
0000
1000
0200
0000
0300
,
0100
0010
0001
0100
,
0010
0000
0001
0000
0100
0002
0000
0003
,
0100
0010
0100
1000
,
0100
0000
1000
0000
0100
2000
0000
3000
,
0100
0010
0001
0100
,
0010
0100
0000
0010
0000
0001
0100
0000
,
0100
0010
0100
1000
,
0100
0000
1000
0000
0100
1000
0000
0000
,
0100
0010
0001
0200
,
0000
0000
0000
0310
,
0000
0000
0000
0200
,
0000
0000
0000
0310
;

//--------------- dance-single - Wrland ----------------
#NOTEDATA:;
#STEPSTYPE:dance-single;
#DESCRIPTION:Wrland;
#DIFFICULTY:Medium;
#METER:7;
#RADARVALUES:0,0,0,0,0;
#NOTES:
0000
0000
0000
0000
,
0000
0000
0000
0000
,
0000
0000
0000
0000
,
0000
0000
0000
0000
,
0000
0000
0000
0000
,
0000
0000
0000
0000
,
0000
0000
0000
0000
,
0000
0000
0000
0000
0000
0000
0000
0000
0000
0000
0000
0100
2000
0000
3000
0000
,
0100
0020
0030
0200
0300
0020
0030
0002
,
0003
2000
3000
0001
0010
0100
0020
0030
,
0001
0200
0300
0020
0030
0200
0300
2000
,
3000
0200
0300
0020
0030
0000
0200
0300
,
1000
0200
0300
2000
3000
0200
0300
2000
,
3000
0200
0300
0010
0100
0020
0000
0030
,
0002
0003
0200
0300
0020
0030
0100
0000
,
0100
0000
2000
3000
0100
1000
0200
0300
,
1000
0200
0300
0020
0030
0200
0300
0020
,
0030
0002
0003
0100
0010
0000
0200
0300
,
0010
0200
0300
0020
0030
0002
0003
0200
,
0300
0020
0030
0200
0300
1000
0200
0300
,
1000
0200
0300
0020
0030
0200
0300
0010
,
0200
0300
0010
1000
0001
0000
0100
0010
,
0001
0000
0100
0010
1000
0000
0100
0010
,
1000
0000
0100
0010
0100
0010
0002
0003
,
0200
0300
2000
3000
0010
0000
2000
3000
,
0200
0300
2000
3000
0100
0000
0020
0030
,
0002
0003
0200
0300
0010
0000
0200
0300
,
0020
0030
0002
0003
0100
0000
2000
3000
,
0200
0300
2000
3000
0100
0000
0020
0030
,
0002
0003
2000
3000
0100
0000
2000
3000
,
0100
0100
0010
0220
,
0330
2002
3003
1100
,
0100
0000
0010
0000
0001
0200
0300
0000
,
0100
0000
0010
0000
0100
0010
0002
0003
,
0200
0300
1000
0000
0100
2000
3000
0000
,
0100
1000
0100
0010
,
0001
0200
0300
0020
0030
0100
0020
0030
,
0001
0200
0300
0020
0000
0030
1000
0000
,
0100
0000
1000
0000
0100
2000
0000
3000
,
0100
0010
0001
0100
,
0010
0000
0100
0000
1000
0200
0000
0300
,
1000
0000
0100
0000
1000
0100
0020
0030
,
0200
0300
0020
0030
0001
0200
0000
0300
,
0010
0000
0100
0000
1000
0100
2000
3000
,
0100
0020
0030
0001
0100
0010
0200
0300
,
0010
0002
0003
0100
0010
1000
0100
0000
,
1000
0000
0100
0000
0010
0200
0000
0300
,
0010
0000
0001
0000
0100
2000
0000
0000
,
3000
0000
0100
0000
1000
0200
0000
0000
,
0300
0000
0001
0000
0100
0020
0000
0000
,
0030
0000
1000
0000
0100
2000
0000
0000
,
3000
0000
0000
0000
;

//--------------- dance-single - Wrland ----------------
#NOTEDATA:;
#STEPSTYPE:dance-single;
#DESCRIPTION:Wrland;
#DIFFICULTY:Hard;
#METER:11;
#RADARVALUES:0,0,0,0,0;
#NOTES:
0000
0000
0000
0000
,
0000
0000
0000
0000
,
0000
0000
0000
0000
,
0000
0000
0000
0000
,
1000
0000
0100
1000
0100
0000
0010
0000
0100
0000
0010
0100
0010
0000
0001
0000
,
0100
0000
0001
0100
0001
0000
0100
0000
1000
0000
0100
0010
0001
0000
0010
0000
,
1000
0000
0100
1000
0100
0000
0010
0000
0100
0000
0001
0010
0001
0000
0100
0000
,
1000
0000
0100
1000
0100
0000
0010
0000
0100
0000
0000
0010
0200
0000
0300
0000
,
1000
0200
0300
0020
0030
0200
0300
0020
,
0030
0002
0003
0200
0000
0300
0020
0030
,
0100
0020
0030
0002
0003
0200
0300
2000
,
3000
0200
0300
2000
3000
0000
2000
3000
,
0100
2000
3000
0200
0300
0020
0000
0030
,
0000
0000
0001
0100
0001
0200
0000
0300
,
0020
0000
0030
0000
0200
0000
0300
0000
2000
0000
3000
0000
0100
0000
1000
0100
,
0010
0000
0001
0000
0100
0000
0001
0100
0001
0000
0100
0000
2000
0000
3000
0000
,
0100
2000
3000
0200
0300
2000
3000
0200
,
0300
0020
0030
0200
0000
0300
0200
0300
,
0010
0200
0300
0020
0030
0002
0003
0200
,
0300
2000
3000
0200
0300
0001
0020
0030
,
0100
0020
0030
0002
0003
0200
0300
2000
,
3000
0100
0010
0001
0100
0010
0100
0010
,
0200
0000
0300
0000
0020
0000
0030
0000
0200
0000
0300
0000
0010
0000
0100
0010
,
0001
0000
1000
0000
0100
0000
0010
0001
0010
0000
0200
0000
0300
0000
0010
0000
,
0200
0300
0020
0030
0002
0003
0010
0100
,
2000
3000
0100
0010
0001
0200
0300
0020
,
0030
0200
0300
1000
0100
1000
0200
0300
,
0020
0030
0001
0100
0001
0100
0001
0100
,
0020
0030
0200
0300
2000
3000
0200
0300
,
0010
0200
0300
0010
0001
0100
0002
0000
,
0003
2000
3000
0200
0300
0010
0101
0010
,
0100
0000
0010
0000
1100
0000
0100
0000
0010
0100
0010
0100
0020
0000
0030
0000
,
0202
0303
0020
0030
0100
2000
0000
3000
,
0100
0000
1000
0100
1000
0100
0020
0030
,
0200
0300
0020
0030
0001
0200
0000
0300
,
0010
0100
0010
0001
0100
0001
0200
0300
,
0001
0200
0300
0020
0030
0100
2000
3000
,
0100
2000
3000
0100
0001
0010
0100
1000
,
0010
0100
0020
0030
0001
0200
0300
0001
,
0010
1000
0100
0010
0100
0010
0202
0303
,
2200
3300
0220
0330
0001
0200
0000
0300
,
0010
0100
1000
0100
0010
0001
0200
0300
,
0020
0030
0200
0300
1000
0200
0300
1000
,
0100
0010
0001
0100
0010
1000
0200
0300
,
1000
0200
0300
0010
0100
0010
0200
0300
,
0010
0002
0003
0100
0010
0200
0300
0010
,
0100
0010
0001
1000
0100
0010
0002
0003
,
0100
0010
0020
0030
0100
2000
0000
3000
,
0100
1000
0200
0300
1000
0200
0300
0000
,
0100
0010
0002
0003
0100
0020
0000
0030
,
0100
0010
0002
0003
0100
0020
0000
0030
;
