#TITLE:웨딩 크래셔스;
#SUBTITLE:;
#ARTIST:SHK;
#TITLETRANSLIT:Wedding Crashers;
#SUBTITLETRANSLIT:;
#ARTISTTRANSLIT:;
#GENRE:Classical Remix;
#CREDIT:Wrland;
#MUSIC:Wedding Crashers.ogg;
#BANNER:Wedding Crashers.png;
#BACKGROUND:Wedding Crashers-bg.png;
#CDTITLE:Wrland Season 3 CITYGHT.png;
#SAMPLESTART:14.602;
#SAMPLELENGTH:12.000;
#SELECTABLE:YES;
#OFFSET:-2.966;
#BPMS:0.000=165.000
,128.000=41.250
,129.000=165.000
,289.000=82.500
;
#STOPS:;
#DISPLAYBPM:165.000;
#JACKET:Wedding Crashers-jacket.png;
#CDIMAGE:Wedding Crashers-cd.png;
#METERTYPE:DDR X;
#BGCHANGES:;
#FGCHANGES:;

//--------------- dance-single - Wrland ----------------
#NOTES:
     dance-single:
     Wrland:
     Beginner:
     1:
     0,0,0,0,0:
0000
0000
0000
0000
,
0000
0000
0000
0000
,
0000
0000
0000
0000
,
0000
0000
0000
0000
,
0100
0000
0000
0000
,
0000
0000
0000
0000
,
0100
0000
0000
0000
,
0000
0000
0000
0000
,
0010
0000
0000
0000
,
0000
0000
0000
0000
,
0001
0000
0000
0000
,
0000
0000
0000
0000
,
0010
0000
0000
0000
,
0000
0000
0000
0000
,
0001
0000
0000
0000
,
0000
0000
0000
0000
,
0200
0000
0000
0000
,
0310
0000
0000
0000
,
0002
0000
0000
0000
,
0013
0000
0000
0000
,
2000
0000
0000
0000
,
3100
0000
0000
0000
,
0200
0000
0000
0000
,
0301
0000
0000
0000
,
0010
0000
0000
0000
,
0000
0000
0000
0000
,
0010
0000
0000
0000
,
0000
0000
0000
0000
,
1000
0000
0000
0000
,
0000
0000
0000
0000
,
0001
0000
0000
0000
,
0000
0000
0000
0000
,
1001
0100
0000
0000
,
0000
0000
0000
0000
,
0000
0100
0000
0000
,
0000
0000
0000
0000
,
0000
0010
0000
0000
,
0000
0000
0000
0000
,
0000
0010
0000
0000
,
0000
0000
0000
0000
,
0000
0100
0000
0100
,
0000
0100
0000
0010
,
0000
0001
0000
0001
,
0000
0001
0000
0010
,
0000
0100
0000
0100
,
0000
0100
0000
1000
,
0000
1000
0000
1000
,
0000
0100
0000
0010
,
0000
0001
0000
0000
,
0000
0000
0000
0000
,
0000
0010
0000
0000
,
0000
0000
0000
0000
,
0000
0100
0000
0000
,
0000
0000
0000
0000
,
0000
1000
0000
0000
,
0000
0000
0000
0000
,
0000
0100
0000
0000
,
0000
0000
0000
0000
,
0000
0010
0000
0000
,
0000
0000
0000
0000
,
0000
0100
0000
0000
,
0000
0000
0000
0000
,
0000
1000
0000
0000
,
0000
0000
0000
0000
,
0000
0001
0000
0000
,
0000
0000
0000
0000
,
0000
0001
0000
0000
,
0000
0000
0000
0000
,
0000
0010
0000
0000
,
0000
0000
0000
0000
,
0000
0100
0000
0000
,
0000
0000
0000
0000
,
0000
1100
0000
0000
,
0000
0101
0000
0000
,
0000
0220
0000
0000
,
0000
0330
0000
0000
;

//--------------- dance-single - Wrland ----------------
#NOTES:
     dance-single:
     Wrland:
     Easy:
     3:
     0,0,0,0,0:
0000
0000
0000
0000
,
0000
0000
0000
0000
,
0000
0000
0000
0000
,
0000
0000
0000
0000
,
0100
0000
0000
0000
,
0100
0000
0000
0000
,
0010
0000
0000
0000
,
0001
0010
0001
0000
,
0010
0000
0000
0000
,
0100
0000
0000
0000
,
1000
0100
0010
0001
,
0010
0000
0000
0000
,
0010
0000
0000
0000
,
0100
0000
0000
0000
,
0001
0010
0100
1000
,
0100
0000
0110
0000
,
0010
0000
0000
0000
,
1000
0000
1000
0100
,
0010
0000
0000
0000
,
0001
0000
0010
0100
,
0010
0000
0000
0000
,
0100
0000
0100
1000
,
0100
0000
0000
0000
,
1000
0100
0010
0001
,
0010
0000
0000
0000
,
0100
0000
0000
0000
,
0010
0100
0010
0100
,
0010
0000
0000
0000
,
0001
0000
0000
0000
,
0010
0000
0000
0000
,
0100
1000
0100
0010
,
0001
0010
0100
0000
,
0110
0100
0000
0000
,
0000
0000
0000
0000
,
0000
0001
0000
0000
,
0000
0000
0000
0000
,
0000
0010
0000
0000
,
0000
0100
0000
0000
,
0000
1000
0000
0000
,
0000
0000
0000
0010
0100
0010
0100
0010
,
0100
0010
0000
0000
,
0000
0001
0000
0000
,
0000
0010
0000
0000
,
0000
0100
0000
0000
,
0000
1000
0000
0000
,
0000
0100
0000
0000
,
0000
1000
0000
0000
,
0000
0100
0000
0000
,
0000
1000
0000
1000
,
0000
1000
0000
0000
,
0000
0001
0000
0001
,
0000
0001
0000
0000
,
0000
0010
0000
0010
,
0000
0010
0000
0000
,
0000
0100
0000
0100
,
0000
0100
0000
0000
,
0000
0010
0000
0010
,
0000
0100
0000
0100
,
0000
0001
0000
0001
,
0000
1000
0000
1000
,
0000
1010
0000
1010
,
0000
1100
0000
1100
,
0000
0110
0000
0110
,
0000
0011
0000
0011
,
0000
0100
0000
0000
,
0000
0100
0000
0000
,
0000
0100
0010
0100
,
0010
0100
0000
0000
,
0000
0001
0000
0000
,
0000
0001
0000
0000
,
0000
0001
0010
0001
,
0010
0001
0000
0100
,
0000
0110
0000
1000
,
0000
0000
1000
0010
1000
0010
1000
0000
,
0000
2002
0000
0000
,
0000
3003
0000
0000
;

//--------------- dance-single - Wrland ----------------
#NOTES:
     dance-single:
     Wrland:
     Medium:
     6:
     0,0,0,0,0:
0000
0000
0000
0000
,
0000
0000
0000
0000
,
0000
0000
0000
0000
,
0000
0000
0000
0000
,
2002
0000
3003
0000
0200
0000
0300
0100
,
0010
0010
0001
0100
,
0020
0000
0000
0000
0030
0000
0000
0000
0100
0000
0000
0000
0010
0000
0000
0100
,
0020
0030
0020
0030
,
0002
0000
0003
0000
2000
0000
3000
0100
,
1000
0100
0010
0100
,
0002
0000
0000
0000
0003
0000
0000
0000
0001
0000
0000
0000
0010
0000
0000
0100
,
0020
0030
0010
0100
,
0020
0000
0030
0000
0002
0000
0003
0010
,
0100
1000
0100
0010
,
0002
0000
0000
0000
0003
0000
0000
0000
0010
0000
0000
0000
0100
0000
0000
0010
,
0200
0300
0020
0030
,
0100
0010
0100
0010
,
0001
0010
0100
1000
,
0100
0010
0001
0100
,
0010
0000
0100
0000
0010
0000
0100
0010
,
0100
0010
0001
0010
,
0100
1000
0100
0010
,
0001
0100
0010
0100
,
0100
0000
0000
0000
0010
0000
0000
0000
0100
0010
0100
0010
0100
0010
0100
0010
,
0200
0000
0300
0000
0020
0000
0030
0010
,
0100
0010
0100
0010
,
0002
0000
0000
0000
0003
0000
0000
0000
0010
0000
0000
0000
0100
0000
0000
1000
,
0100
0000
0100
0010
0100
0010
0100
0010
,
0002
0000
0003
0000
0020
0000
0030
0100
,
0010
0100
1000
0100
,
2000
0000
0000
0000
3000
0000
0000
0000
1000
0000
0000
0000
0100
0000
0000
0010
,
0200
0300
0020
0030
,
0110
0000
0100
0000
1000
0000
0100
1000
,
0100
0000
0010
0000
0001
0000
0100
0001
,
0100
0000
0010
0000
0100
0000
0010
0100
,
0010
0000
0100
0010
0100
0010
0001
0100
,
0010
1000
0100
0000
0010
0000
0100
0010
,
0100
0000
1000
0000
0100
0000
1000
0100
,
1000
0000
0100
0000
0010
0000
0100
0001
,
0100
0001
0000
0101
0101
1010
1010
0101
,
0101
0020
0030
0100
,
0010
0100
0010
0001
,
0100
0000
0010
0000
0100
0000
0010
0001
,
0100
0010
0100
0010
,
0001
0010
0100
1000
,
0100
1000
0100
0010
,
0100
0010
0100
0010
,
0001
0000
0010
0100
0010
0100
0001
1000
,
0100
0010
0100
0020
,
0030
0001
0100
0000
0010
0000
0100
0000
,
0010
0000
0001
0000
0010
1000
0100
0000
,
0010
0100
0010
0000
0001
0000
0100
0000
,
0010
0000
0100
0000
0010
0000
0100
0100
,
0000
1000
0100
0000
0010
0000
0100
0000
,
0010
0100
0010
1000
,
0100
0000
1000
0000
0100
0000
1000
0100
,
0010
0001
0100
0000
0010
1000
0100
0000
,
0010
0000
0001
0000
0100
0010
0200
0000
,
0300
0010
0100
0010
,
0001
0100
0010
0100
,
1000
0000
0100
0000
0100
0010
0200
0000
,
0300
0000
0001
0000
0100
0101
0200
0000
,
0300
0010
0100
1000
,
0100
0000
0000
0000
0010
0000
0000
0000
0001
0000
0000
0000
0100
0001
0100
0001
,
0100
0020
0030
0200
,
0300
0010
0100
0000
0010
0000
0001
0000
,
0100
2002
3003
0100
,
0010
0000
0000
0100
0010
0000
0000
0000
0100
0000
0010
0000
0100
0000
1000
0000
,
0100
0010
0002
0000
0003
0000
0020
0000
,
0030
0100
0010
0000
0100
0000
1000
0000
,
0100
2200
3300
0100
,
0010
0000
0000
0100
0020
0000
0000
0000
0030
0000
0000
0000
0001
1000
0010
0001
,
0100
0000
0000
0000
0020
0000
0030
0000
0200
0000
0300
0010
0100
0000
0010
0000
,
0001
0000
0000
0000
0010
0000
0000
0000
0220
0000
0000
0000
0330
0000
0000
0000
0100
0000
0000
0000
0010
0000
0001
0010
0220
0000
0000
0000
0000
0000
0000
0000
,
0330
2002
0000
0000
,
0000
3003
0000
0000
;

//--------------- dance-single - Wrland ----------------
#NOTES:
     dance-single:
     Wrland:
     Hard:
     10:
     0,0,0,0,0:
0000
0000
0000
0000
,
0000
0000
0000
0000
,
0000
0000
0000
0000
,
0000
0000
1000
0001
1000
0001
1000
0001
,
2020
0000
3030
0000
0220
0000
0330
0001
,
0020
0030
0200
0300
0020
0030
0002
0003
,
0100
0001
0100
0001
0100
0001
0100
0001
0200
0000
0300
0000
0001
0000
1000
0001
,
2000
0000
0000
0000
3000
0000
0000
0000
0100
0010
0100
0010
0001
0100
0010
0100
,
2020
0000
3030
0000
0220
0000
0330
0010
,
0022
0033
0020
0030
0200
0300
2000
3000
,
0100
0010
1000
0010
0100
0001
0100
0010
0002
0000
0003
0000
0200
0000
0300
0010
,
0200
0300
0010
0100
0010
0001
0100
0010
,
2200
0000
3300
0000
0022
0000
0033
0010
,
0200
0300
0020
0030
0002
0003
0020
0030
,
0100
0010
0100
0010
0100
0010
0100
0010
0200
0000
0300
0000
0020
0000
0030
0001
,
0100
0000
0000
0100
1000
0000
0000
0010
0001
0000
0100
0010
0100
1000
0010
0100
,
1001
0010
0100
0010
0100
0100
1000
0010
,
0100
1000
0100
0010
0001
0010
0100
0010
,
0001
0100
0010
1000
0100
0010
0100
0010
,
0100
0010
0001
0010
0100
0010
0001
0100
,
1001
0100
1000
0100
0010
0100
0010
0100
,
1000
0100
0010
0001
0100
0010
0100
1000
,
0100
0010
0001
1000
0010
0001
0010
0100
,
0010
0001
0010
0100
0010
0100
0001
0010
0100
0010
0100
0010
0001
0010
0100
0010
,
0220
0000
0330
0000
0202
0000
0303
0010
,
0200
0300
0020
0030
0002
0003
0020
0030
,
0100
0010
0100
0010
0100
0010
0100
0010
0002
0000
0003
0000
0020
0000
0030
0100
,
0020
0030
0100
1000
0100
0010
0001
0100
,
0022
0000
0033
0000
0202
0000
0303
0010
,
0200
0300
0020
0030
0002
0003
0200
0300
,
0010
0100
0010
0001
0010
0001
0010
0001
0020
0000
0030
0000
0200
0000
0300
0010
,
0100
0010
0100
1000
0100
0010
0001
0010
0110
0010
0001
0010
0100
0010
0001
0010
,
1001
0000
0000
0000
0100
0000
0010
0001
0000
1000
0100
0000
0010
0000
0001
0000
,
0100
0000
0010
0000
0100
0000
0001
0010
0000
0100
0010
0000
0001
0000
1000
0000
,
0001
0000
0100
0000
0010
0000
0001
0100
0000
0001
0010
0000
0010
0100
0010
0000
,
0100
0000
1000
0000
0001
0000
1000
0001
0000
1000
0001
0000
0001
1000
0000
1000
,
0001
0000
1001
0000
0100
0000
0010
0001
0000
0001
0010
0000
1000
0100
0000
0001
,
0010
0000
0100
0000
0010
0000
0001
0010
0000
0001
0010
0000
0100
1000
0000
0001
,
0100
0000
0010
0000
0100
0000
0010
0001
0000
0001
0010
0000
0100
0010
0000
0001
,
0100
0010
0000
0101
1010
0011
0110
0110
,
0110
0000
1000
0001
1000
0001
1000
0001
,
0000
1000
0001
1000
0001
0010
0100
0010
,
0001
0010
0100
0000
1100
0000
0100
0011
,
0000
0110
0010
0001
0010
0100
0010
0001
,
0010
0100
1000
0000
0100
0000
0010
0100
,
0000
0010
0000
0100
1000
0010
0100
0010
,
0100
0000
0000
0000
0010
0000
0000
0000
0011
0000
0000
1000
0001
0000
0010
0000
,
0000
0000
0110
0000
0010
0100
0010
0100
0010
0001
0010
0100
0010
0100
0010
0100
,
1000
0020
0030
0200
,
0300
0010
0200
0300
0020
0030
0001
0010
,
0100
1000
0022
0033
0100
0010
2200
3300
,
0010
0100
0022
0033
0001
0010
0100
1000
,
0100
0010
0002
0000
0003
0000
0200
0000
,
0300
1000
0200
0300
0020
0030
0002
0003
,
0020
0030
1100
0001
0010
0001
1100
0010
,
0100
0000
0010
0000
0001
1000
0001
1000
0001
1000
0001
0100
0010
0100
0010
0001
,
0010
0000
0202
0303
0010
0100
0020
0030
,
0010
0001
2002
3003
0100
0010
2200
3300
,
0200
0000
0300
0000
0220
0000
0330
0000
0001
0000
0010
0000
0002
0000
0003
0010
,
0000
0001
0020
0030
0100
0010
0200
0000
,
0300
0000
0022
0033
0010
0100
2020
3030
,
0100
1000
2200
3300
0100
0010
0202
0303
,
0020
0000
0030
0000
0100
0000
0010
0000
0001
0000
0100
0000
0010
0000
0001
0010
,
0000
0001
0010
0001
1000
0100
1000
0100
0010
0100
0010
0001
0010
0100
0010
0001
,
0220
0330
2002
0000
3003
0000
2200
0000
,
3300
0110
0202
0303
0220
0330
2020
3030
,
2002
0000
3003
0000
0001
0010
0100
0010
0001
0010
0100
0010
0200
0000
0300
0000
,
0020
0000
0030
0100
0020
0000
0030
0000
0001
0000
0010
0000
0100
0000
1000
0000
,
0100
0010
0022
0033
0002
0003
2002
3003
,
0100
0001
0020
0030
0200
0300
2000
3000
,
0200
0000
0300
0000
0010
1000
0100
0010
0100
0001
0010
0001
0020
0000
0030
0000
,
0200
0000
0300
0010
0200
0000
0000
0000
0300
0000
0000
0000
0002
0000
0000
0000
,
0003
0000
0000
0000
2002
0000
3003
0000
0220
0000
0330
1100
0022
0033
0220
0330
,
2002
0000
3003
0000
0220
0000
0330
0000
2020
0000
0000
0000
3030
0000
0000
0000
0200
0000
0300
0000
0020
0000
0030
0001
0200
0000
0000
0000
0000
0000
0000
0000
,
0300
2002
0000
0000
,
0000
3003
0000
0000
;
