#VERSION:0.83;
#TITLE:Viyella's Nightmare;
#SUBTITLE:;
#ARTIST:Laur;
#TITLETRANSLIT:;
#SUBTITLETRANSLIT:;
#ARTISTTRANSLIT:;
#GENRE:Hardcore;
#CREDIT:Wrland;
#MUSIC:Viyella's Nightmare.ogg;
#BANNER:Viyella's Nightmare.png;
#BACKGROUND:Viyella's Nightmare-bg.png;
#CDTITLE:Wrland Season 3 CITYGHT.png;
#SAMPLESTART:99.816;
#SAMPLELENGTH:12.000;
#SELECTABLE:YES;
#OFFSET:0.002;
#BPMS:0.000=110.000
,12.000=27.500
,13.000=110.000
,29.000=220.000
,88.000=55.000
,89.000=220.000
,102.000=55.000
,103.000=220.000
,163.000=55.000
,168.000=110.000
,206.000=220.000
,266.000=55.000
,267.000=220.000
;
#STOPS:167.500=0.545;
#DISPLAYBPM:110.000:220.000;
#METERTYPE:DDR X;
#JACKET:Viyella's Nightmare-jacket.png;
#CDIMAGE:Viyella's Nightmare-cd.png;
#BGCHANGES:0.000=Viyella's Nightmare.avi=1.000=0=0=1,
99999.000=-nosongbg-=1.000=0=0=0=StretchNoLoop====
;
#FGCHANGES:;

//--------------- dance-single - by Wrland ----------------
#NOTEDATA:;
#STEPSTYPE:dance-single;
#DESCRIPTION:by Wrland;
#DIFFICULTY:Beginner;
#METER:4;
#RADARVALUES:0,0,0,0,0;
#NOTES:
0000
0000
0000
0000
,
0000
0000
0000
0000
,
0000
0000
0000
0000
,
0000
0100
0010
0010
,
0001
0010
0100
0000
1000
0000
0200
0300
,
0000
1000
0200
0300
0000
0010
0200
0300
,
0000
0001
0020
0030
0000
0000
0010
0100
,
0010
0001
0100
0000
0000
0000
0100
0000
,
0000
0100
0000
0000
,
0000
0010
0000
0010
,
0000
0001
0000
0000
,
0000
0010
0000
0010
,
0000
0010
0000
0000
,
0000
1000
0000
1000
,
0000
1000
0000
0000
,
0000
0010
0000
0100
,
0000
0100
0000
0100
,
0000
1000
0000
1000
,
0000
0100
0000
0100
,
0000
0010
0000
0010
,
0000
0010
0000
0010
,
0000
0100
0000
0000
,
0100
0020
0000
0000
0000
0000
0000
0000
0000
0000
0000
0000
0000
0000
0000
0000
,
0000
0000
0000
0000
,
0000
0000
0000
0000
,
0000
0000
0030
0100
,
0000
0100
0000
0010
,
0000
0010
0100
0010
,
0000
0001
0000
0010
,
0100
1000
0100
0010
,
0000
0100
0000
0010
,
0000
0001
0100
0010
,
0000
0100
0010
0100
,
1000
0100
0010
0000
,
0000
0100
0000
0010
,
0000
0100
0000
0100
,
0010
0100
0000
0020
,
0000
0000
0030
0010
,
0001
0100
0100
1000
,
0100
0100
0010
0001
,
1000
0000
0000
0000
0001
0000
0000
0000
1000
0000
0002
0000
0000
0000
0000
0003
,
2002
0000
0000
0000
0000
0000
0000
0000
0000
0000
0000
0000
0000
0000
0000
0000
0000
0000
0000
0000
0000
0000
0000
0000
0000
0000
0000
0000
0000
0000
0000
0000
0000
0000
0000
0000
0000
0000
0000
0000
0000
0000
0000
0000
0000
0000
0000
0000
0000
0000
0000
0000
0000
0000
0000
0000
0000
0000
0000
0000
0000
0000
0000
0000
0000
0000
0000
0000
0000
0000
0000
0000
0000
0000
0000
0000
0000
0000
0000
0000
0000
0000
0000
0000
0000
0000
0000
0000
0000
0000
0000
0000
0000
0000
0000
0000
0000
0000
0000
0000
0000
0000
0000
0000
0000
0000
0000
0000
0000
0000
0000
0000
0000
0000
0000
0000
0000
0000
0000
0000
0000
0000
0000
0000
0000
0000
0000
0000
0000
0000
0000
0000
0000
0000
0000
0000
0000
0000
0000
0000
0000
0000
0000
0000
3003
0000
0000
0000
0000
0000
0000
0000
0000
0000
0000
0000
0000
0000
0000
0000
0000
0000
0000
0000
0000
0000
0000
0000
0000
0100
0000
0000
0000
0000
0000
0000
0000
0000
0000
0000
0000
0000
0000
0000
0000
0000
0000
0000
0000
0000
0000
0000
,
0010
0000
0100
0000
0010
0000
0001
0010
,
0001
0100
1000
0100
,
1000
0000
0100
1000
0100
0000
0100
0000
,
0010
0000
0100
0000
0010
0000
0100
0010
,
0100
0000
0002
0003
0010
1000
0010
0000
,
0200
0300
1000
0001
1000
0000
0200
0300
,
1000
0010
0100
0000
0020
0000
0000
0000
,
0030
0000
0000
0000
,
0200
0000
0300
0000
,
0000
0000
2000
0000
,
0000
0000
0000
0000
,
3000
0000
0000
0000
,
0000
0000
0000
0000
,
0000
0000
0002
0000
,
0000
0000
0000
0000
,
0003
0000
0000
0000
,
0000
0000
0000
0000
,
0000
0000
0100
0000
,
0100
0000
0010
0000
,
0010
0000
0001
0000
,
0001
0000
1000
0000
,
1000
0000
1000
0000
,
0001
0000
1000
0000
,
0001
0000
0010
0000
,
0000
0000
0100
0000
0020
0030
0100
0000
,
0000
0010
0000
0100
,
0010
0100
0010
0000
,
0100
0010
0000
0100
,
1000
0100
0010
0000
,
0100
0010
0000
0001
,
0100
0001
0100
0001
,
0100
0000
0010
0000
0100
0001
0000
1000
,
0010
0100
0000
0001
,
0000
0010
0000
0100
,
0010
0100
0010
0000
,
1000
0100
0000
1000
,
0100
1000
0100
0000
,
0001
0100
0000
0010
,
0100
0010
0100
1000
,
0100
0000
0100
0000
0001
0100
0000
0010
,
0001
1000
0000
2000
,
0000
3000
0000
0000
0000
0000
1000
0000
,
0001
1000
0001
1000
,
0000
0100
0000
0010
,
0100
0010
0100
0000
,
0001
0100
0000
0001
,
0100
0001
0100
0000
,
0010
0000
0100
0000
0010
0001
0000
1000
,
0100
0010
0000
0100
,
0000
0010
0000
0100
,
0010
0001
0100
0000
,
1000
0100
0000
0100
,
0010
0100
0010
0000
,
0010
0100
0000
0001
,
0100
0010
0100
0100
,
1000
0000
0100
0000
0010
0100
0000
0010
,
0001
0010
0100
2002
,
0000
0000
0000
0000
,
0000
0000
0000
0000
,
3003
0000
0000
2002
,
0000
0000
0000
0000
,
0000
0000
0000
0000
,
3003
0000
0000
0000
;

//--------------- dance-single - by Wrland ----------------
#NOTEDATA:;
#STEPSTYPE:dance-single;
#DESCRIPTION:by Wrland;
#DIFFICULTY:Easy;
#METER:6;
#RADARVALUES:0,0,0,0,0;
#NOTES:
0000
0000
0000
0000
,
0000
0000
0000
0000
,
0000
0000
0000
0000
,
0000
0100
0010
0100
,
0010
0000
0001
0000
0010
0001
0020
0030
,
0000
0000
0001
0010
0002
0000
0003
0000
0010
0000
0001
0000
0010
0000
0000
0010
,
0001
0010
0020
0030
0000
0100
0010
0100
,
0010
0100
0010
0000
0100
0000
1000
0000
,
0100
2000
0000
3000
,
0000
0100
0010
0100
,
0010
0200
0000
0300
,
0000
0001
0010
0001
,
0010
0002
0000
0003
,
0000
0010
0100
0010
,
0100
0020
0000
0030
,
0000
0100
0000
0100
,
0000
0100
0010
0100
,
0000
0010
0000
0010
,
0000
0010
1000
0010
,
0000
0001
0000
0001
,
0000
0001
1000
0001
,
0000
2000
0000
3000
,
0100
2000
0000
0000
3000
0000
0000
0000
0100
0000
0000
0000
0000
0000
0000
0000
,
0010
0000
0100
0000
,
0010
0000
0100
0010
,
0100
0010
0000
0100
,
0010
0100
0010
0100
,
0010
0002
0003
0010
,
0100
0010
0100
0020
,
0000
0030
0000
0010
,
0100
0010
0100
0010
,
0100
2000
3000
0100
,
0010
0100
0010
0200
,
0000
0300
0000
0001
,
0000
1000
0001
1000
,
0001
1000
0001
2000
,
3000
0001
1000
0002
,
0000
0003
0000
0100
,
0010
0100
0010
0100
,
0010
0000
0100
0000
0001
0000
1000
0001
,
1000
0000
0001
0000
1000
0001
0000
0000
,
0220
0000
0000
0000
0000
0000
0000
0000
0000
0000
0000
0000
0000
0000
0000
0000
0000
0000
0000
0000
0000
0000
0000
0000
0000
0000
0000
0000
0000
0000
0000
0000
0000
0000
0000
0000
0000
0000
0000
0000
0000
0000
0000
0000
0000
0000
0000
0000
0000
0000
0000
0000
0000
0000
0000
0000
0000
0000
0000
0000
0000
0000
0000
0000
0000
0000
0000
0000
0000
0000
0000
0000
0000
0000
0000
0000
0000
0000
0000
0000
0000
0000
0000
0000
0000
0000
0000
0000
0000
0000
0000
0000
0000
0000
0000
0000
0000
0000
0000
0000
0000
0000
0000
0000
0000
0000
0000
0000
0000
0000
0000
0000
0000
0000
0000
0000
0000
0000
0000
0000
0000
0000
0000
0000
0000
0000
0000
0000
0000
0000
0000
0000
0000
0000
0000
0000
0000
0000
0000
0000
0000
0000
0000
0000
0330
0000
0000
0000
0000
0000
0000
0000
0000
0000
0000
0000
0000
0000
0000
0000
0000
0000
0000
0000
0000
0000
0000
0000
0000
0001
0000
0000
0000
0000
0000
0000
0000
0000
0000
0000
0000
0000
0000
0000
0000
0000
0000
0000
0000
0000
0000
0000
,
0010
0000
0100
0010
0100
0000
0001
1000
,
0001
0100
0100
0010
,
0100
0000
0100
0010
0100
0000
0010
0000
,
0001
0000
0010
0000
0100
0000
1000
0100
,
1000
0000
2000
3000
1000
0001
1000
0001
,
0200
0300
0010
0001
1000
0001
0020
0030
,
0100
0010
0100
0010
0200
0300
0100
0020
,
0030
0000
0100
0020
0030
0001
0200
0300
,
1000
0200
0300
0010
0200
0300
0100
2000
,
3000
0100
0020
0030
0200
0000
0000
0000
,
0000
0000
0000
0000
,
0300
0000
0002
0000
,
0000
0000
0000
0000
,
0003
0000
2000
0000
,
0000
0000
0000
0000
,
3000
0000
0200
0000
,
0000
0000
0000
0000
,
0300
0000
0010
0000
,
0100
0000
0010
0000
,
0100
0000
0001
0000
,
0010
0000
0100
0000
,
1000
0000
1000
0100
,
1000
0000
0010
0100
,
0010
0000
0002
0000
,
0003
0000
1000
0000
0002
0003
0100
0000
,
0010
0000
0010
0000
1000
0001
1000
0000
,
0001
0100
0010
0000
,
0001
0000
1000
0000
0000
0000
0001
1000
,
0001
0001
0100
0000
,
0010
0000
0100
0000
0000
0000
0010
1000
,
0100
0010
0001
0001
,
0010
0000
0100
0000
1000
0100
0000
1000
,
0100
0001
0010
0000
0001
0000
0100
0000
,
0010
0100
0010
0000
0000
0000
0010
0001
,
0100
0010
0001
0000
,
0001
0000
0010
0000
0000
0000
0100
0001
,
0010
0100
1000
0000
,
0100
0000
0100
0000
0000
0000
1000
0100
,
1000
0100
0010
0001
,
0100
0000
0010
0000
0100
0010
0000
0100
,
0010
0100
0001
0100
,
0010
0100
0002
0000
0003
0000
1000
0000
,
0001
1000
0001
1000
,
0001
0000
0100
0000
0000
0000
0100
0001
,
0010
0100
0010
0000
,
0001
0000
0010
0000
0000
0000
0100
0010
,
1000
0100
0010
1000
,
0010
0000
0100
0000
0010
0100
0000
0010
,
0100
0010
0001
0100
,
0010
0000
0100
0000
0000
0000
0010
0100
,
0010
0001
0010
0000
,
0100
0000
1000
0000
0000
0000
0100
1000
,
0100
0100
0010
0000
,
0010
0000
0100
0000
0000
0000
0010
0100
,
0010
0001
0100
0010
,
1000
0000
0100
0000
1000
0100
0000
0001
,
0010
0100
0010
2002
,
0000
0000
0000
0000
,
0000
0000
0000
0000
,
3003
0000
0000
0220
,
0000
0000
0000
0000
,
0000
0000
0000
0000
,
0330
0000
0000
0000
;

//--------------- dance-single - by Wrland ----------------
#NOTEDATA:;
#STEPSTYPE:dance-single;
#DESCRIPTION:by Wrland;
#DIFFICULTY:Medium;
#METER:8;
#RADARVALUES:0,0,0,0,0;
#NOTES:
0000
0000
0000
0000
,
0000
0000
0000
0000
,
0000
0000
0000
0000
,
0000
0000
0000
0000
2000
0000
3000
0000
1000
0000
0100
0000
2000
0000
3000
1000
,
0100
1000
0200
0300
0100
0010
0200
0300
,
0000
0000
0100
0010
0200
0000
0300
0000
0001
0000
1000
0000
0002
0000
0003
0100
,
0010
0100
0020
0030
0000
1000
0100
1000
,
0100
0010
0100
0000
0010
0000
0100
0000
,
0010
0001
0010
0100
,
0010
0001
0010
0100
,
1000
0000
0100
0000
1000
0100
1000
0000
,
0100
0010
0100
0000
0010
0000
0001
0000
,
0010
0000
0100
0000
1000
0100
1000
0000
,
0010
0100
0010
0000
0001
0000
0010
0000
,
0100
0000
1000
0000
0100
0001
0010
0000
,
0100
0010
0100
0010
1000
0001
1000
0000
,
0010
0000
0001
0100
0001
0100
0001
0000
,
0001
0000
0100
0010
0100
0010
0100
0000
,
0100
0000
0010
0001
0010
0001
1000
0000
,
0100
0000
1000
0100
1000
0100
0010
0000
,
0001
0000
0001
0100
0001
0100
0001
0000
,
0010
0200
0300
0000
,
0010
0202
0000
0000
0303
0000
0000
0000
0010
0000
0000
0000
0100
0000
0000
0000
,
0010
0100
0010
0100
,
0010
0100
0010
0100
,
0010
0000
0000
0000
0002
0000
0000
0000
0000
0000
0000
0003
0100
0000
0000
0000
,
0010
0100
0010
0100
,
0010
0000
0001
0000
0010
0001
0010
0000
,
0100
1000
0100
0010
,
0100
0010
0100
0010
,
0100
0010
0100
0010
,
0001
0000
0100
0000
0100
0001
0100
0000
,
0010
0100
1000
0100
,
1000
0100
1000
2002
,
3003
0100
0010
0100
,
0010
0100
0010
0100
,
0100
0001
0100
0000
0010
0000
0100
0010
,
0001
0000
0001
0010
0100
0000
1000
0000
,
0100
0010
0100
0010
,
0100
0000
0001
0000
0100
0000
0001
0010
,
1000
0000
0000
0000
0001
0000
0000
0000
1000
0000
0002
0000
0000
0000
0000
0003
,
0220
0000
0000
0000
0000
0000
0000
0000
0000
0000
0000
0000
0000
0000
0000
0000
0000
0000
0000
0000
0000
0000
0000
0000
0000
0000
0000
0000
0000
0000
0000
0000
0000
0000
0000
0000
0000
0000
0000
0000
0000
0000
0000
0000
0000
0000
0000
0000
0000
0000
0000
0000
0000
0000
0000
0000
0000
0000
0000
0000
0000
0000
0000
0000
0000
0000
0000
0000
0000
0000
0000
0000
0000
0000
0000
0000
0000
0000
0000
0000
0000
0000
0000
0000
0000
0000
0000
0000
0000
0000
0000
0000
0000
0000
0000
0000
0000
0000
0000
0000
0000
0000
0000
0000
0000
0000
0000
0000
0000
0000
0000
0000
0000
0000
0000
0000
0000
0000
0000
0000
0000
0000
0000
0000
0000
0000
0000
0000
0000
0000
0000
0000
0000
0000
0000
0000
0000
0000
0000
0000
0000
0000
0000
0000
0330
0000
0000
0000
0000
0000
0000
0000
0000
0000
0000
0000
0000
0000
0000
0000
0000
0000
0000
0000
0000
0000
0000
0000
0000
1001
0000
0000
0000
0000
0000
0000
0000
0000
0000
0000
0100
0000
0000
0000
0000
0000
0000
0000
0000
0000
0000
0000
,
0010
0000
0100
0000
0010
0000
0001
0000
2000
0000
0000
3000
0001
0000
1000
0000
,
0002
0000
0000
0003
0100
0000
0010
0000
0100
0000
0010
0000
0100
0000
1000
0000
,
0200
0000
0000
0300
0100
0000
0010
0000
0200
0000
0000
0300
0001
0000
0100
0000
,
0010
0000
1000
0000
0100
0000
0010
0000
2000
0000
0000
3000
1000
0000
0100
0000
,
0020
0000
0000
0030
0200
0000
0300
0010
0100
0010
0100
0000
0010
0000
0001
0000
,
0200
0000
0300
1000
0100
1000
0100
0000
0010
0000
0100
0000
0020
0000
0030
0001
,
1000
0001
1000
0000
0010
0000
0100
0000
0010
0000
0001
0000
0010
0000
0100
0000
,
0010
0001
0010
0100
0100
1000
0100
0010
,
0100
0100
0010
1000
0100
0010
0001
0100
,
0010
0100
1000
0100
2000
0000
0000
0000
,
0000
0000
0000
0000
0000
0000
0000
3000
,
0100
0010
0200
0000
,
0000
0000
0000
0000
0000
0000
0000
0300
,
0100
0010
0002
0000
,
0000
0000
0000
0000
0000
0000
0000
0003
,
0001
0010
0200
0000
,
0000
0000
0000
0000
,
0000
0000
0000
0300
1000
0100
0010
0100
,
1000
0000
0100
0000
0001
0010
0100
0001
,
0010
0000
0100
0000
0010
0100
0010
0100
,
0010
0000
0001
0000
0100
0010
0001
0010
,
0100
0000
1000
0000
0100
0010
0001
0010
,
0100
0000
0010
0000
0001
0010
0100
1000
,
0010
0200
0000
0000
,
0300
0000
0100
0000
0020
0030
0100
0000
,
0010
0000
0001
0000
0100
0000
0001
0100
,
0001
0000
0100
0000
0020
0000
0000
0030
,
1000
0000
0020
0000
0000
0030
0100
0010
,
0100
0000
0100
0000
2000
0000
0000
3000
,
0100
0000
0020
0000
0000
0030
0100
0010
,
0100
0100
0010
0010
,
0001
0000
0100
0000
0001
0100
0000
0001
,
0100
0001
0100
0001
0100
0001
0100
0000
,
1000
0000
0010
0000
0001
0000
0010
0100
,
0010
0000
0001
0000
0200
0000
0000
0300
,
1000
0000
0200
0000
0000
0300
1000
0100
,
1000
0000
1000
0000
0200
0000
0000
0300
,
0100
0000
0020
0000
0000
0030
0001
0100
,
0001
0010
0100
0010
,
0100
0000
0010
0000
0100
0010
0000
0100
,
0010
1000
0100
0000
0100
0000
0020
0000
,
0000
0000
0000
0000
0000
0030
1000
0000
,
0001
0000
1000
0000
0001
1000
0001
0000
,
0100
0000
0020
0000
0000
0030
0100
0001
,
0010
0000
0010
0000
2000
0000
0000
3000
,
0100
0000
0020
0000
0000
0030
0001
0100
,
0001
0010
0100
0010
,
0100
0000
1000
0000
0100
0010
0000
0100
,
0010
0100
0010
0100
0010
0100
0010
0000
,
0001
0000
2000
0000
0000
3000
0100
0010
,
0100
0000
0100
0000
0020
0000
0000
0030
,
0001
0000
0200
0000
0000
0300
0010
0100
,
0010
0000
1000
0000
0200
0000
0000
0300
,
0010
0000
0002
0000
0000
0003
0100
0001
,
0100
0010
0100
0010
,
0001
0000
0010
0000
0100
1000
0000
0100
,
0010
0100
0010
0000
0100
0000
2002
0000
,
0000
0000
0000
0000
,
0000
0000
0000
0000
,
3003
0000
0000
0220
,
0000
0000
0000
0000
,
0000
0000
0000
0000
,
0330
0000
0000
0000
;

//--------------- dance-single - by Wrland ----------------
#NOTEDATA:;
#STEPSTYPE:dance-single;
#DESCRIPTION:by Wrland;
#DIFFICULTY:Hard;
#METER:10;
#RADARVALUES:0,0,0,0,0;
#NOTES:
0000
0000
0000
0000
,
0000
0000
0000
0000
,
0000
0000
0000
0000
,
0000
0000
0000
0000
0000
0000
0000
0010
0200
0000
0000
0000
0300
0000
0000
0000
0001
0000
0000
0000
0010
0000
0000
0000
0002
0000
0000
0000
0003
0000
0010
0000
,
0001
0000
0010
0000
0200
0000
0300
0010
0100
0000
0010
0000
0002
0000
0000
0000
,
0003
0000
1000
0100
2000
0000
3000
0000
0100
0000
0010
0000
0200
0000
0300
0100
,
0010
0100
0020
0000
0030
0001
0100
0001
,
0100
0001
1000
0000
0100
0000
0000
0000
0010
0000
0000
0000
0100
0000
0000
0000
,
0010
0000
0100
0000
0010
0100
0010
0000
,
0100
0010
0100
0000
0001
0000
0100
0000
,
0001
0000
0100
0000
0001
0100
0001
0000
,
0100
0001
1000
0000
0010
0000
1000
0000
,
0010
0000
1000
0000
0010
1000
0010
0000
,
1000
0010
1000
0000
0100
0000
1000
0000
,
0100
0000
1000
0000
0100
1000
0100
0000
,
1000
0100
0010
0000
0100
0010
0100
0000
,
0010
0000
0100
0000
0010
0100
0010
0000
,
0100
0000
0010
0000
0100
0010
0100
0000
,
0010
0000
0100
0000
0100
0010
0100
0000
,
0100
0000
0001
0000
1000
0001
1000
0000
,
0001
0000
1000
0000
0001
1000
0001
0000
,
2000
0000
0000
3000
,
0100
0020
0000
0000
0030
0000
0000
0000
0100
0000
0000
0000
0010
0000
0000
0000
,
0100
0010
0100
0010
,
0100
0000
0000
0010
0100
0000
0000
0000
0100
0000
0010
0000
0100
0000
0010
0000
,
0100
0000
0010
0000
0100
0000
0020
0000
0000
0000
0000
0030
0100
0000
0000
0000
,
1000
0100
1000
1000
,
0100
0000
0000
0000
0010
0000
0000
0000
0001
0000
0000
0010
0100
0000
0000
0000
,
0010
0000
0100
0000
0010
0000
0001
1000
,
0001
1000
0001
0000
1000
0010
0100
0000
,
0010
0100
0010
0001
,
0010
0000
0000
0000
0100
0000
0000
0000
0100
0000
0000
0010
0100
0000
0000
0000
,
1000
0000
0100
0000
1000
0000
1000
0100
,
0010
0001
0010
0000
0100
0000
0020
0000
,
0030
0100
0010
0100
,
0010
0100
0010
0100
,
0010
0000
0000
1000
0001
0000
0000
0000
0001
0000
0000
0000
0100
0000
0010
0000
,
0200
0300
0010
0100
0020
0030
0001
0000
,
0010
0100
0010
0100
,
0010
0000
0100
0000
0010
0100
0010
0100
,
0010
0000
0000
0000
0000
0000
0000
0000
0000
0000
0000
0000
0000
0000
0000
0000
0100
0000
0000
0000
0000
0000
0000
0000
0000
0000
0000
0000
0000
0000
0000
0000
0010
0000
0000
0000
0000
0000
0000
0000
0200
0000
0000
0000
0000
0000
0000
0000
0000
0000
0000
0000
0000
0000
0000
0000
0300
0000
0000
0000
0100
0010
0100
0010
,
2002
0000
0000
0000
0000
0000
0000
0000
0000
0000
0000
0000
0000
0000
0000
0000
0000
0000
0000
0000
0000
0000
0000
0000
0000
0000
0000
0000
0000
0000
0000
0000
0000
0000
0000
0000
0000
0000
0000
0000
0000
0000
0000
0000
0000
0000
0000
0000
0000
0000
0000
0000
0000
0000
0000
0000
0000
0000
0000
0000
0000
0000
0000
0000
0000
0000
0000
0000
0000
0000
0000
0000
0000
0000
0000
0000
0000
0000
0000
0000
0000
0000
0000
0000
0000
0000
0000
0000
0000
0000
0000
0000
0000
0000
0000
0000
0000
0000
0000
0000
0000
0000
0000
0000
0000
0000
0000
0000
0000
0000
0000
0000
0000
0000
0000
0000
0000
0000
0000
0000
0000
0000
0000
0000
0000
0000
0000
0000
0000
0000
0000
0000
0000
0000
0000
0000
0000
0000
0000
0000
0000
0000
0000
0000
3003
0000
0000
0000
0000
0000
0000
0000
0000
0000
0000
0000
0000
0000
0000
0000
0000
0000
0000
0000
0000
0000
0000
0000
0000
0010
0000
0000
0000
0000
0000
0000
0000
0000
0000
0000
1000
0000
0000
0000
0000
0000
0000
0000
0000
0000
0000
0000
,
0100
0000
0010
0000
0100
0000
0010
0100
0010
0000
0100
0000
0010
0001
0010
0000
,
0200
0000
0300
0000
0010
0000
0100
0000
0010
0100
0010
0000
0100
0000
0010
0100
,
0010
0000
0001
0000
0010
0001
0010
0000
0002
0000
0003
0000
0001
0000
0010
0100
,
0010
0100
0010
0000
0100
1000
0100
1000
0100
0000
1000
0100
1000
0100
1000
0000
,
0200
0000
0300
0000
0200
0000
0300
0100
0010
0100
0020
0030
0100
0000
0010
0000
,
0002
0000
0003
0000
0001
0100
0001
0000
0200
0300
0000
0100
0002
0000
0003
0000
,
0001
0100
0001
0000
0001
0000
0010
0000
0101
0000
0100
0000
0010
0000
0100
0000
,
1000
0000
0100
0000
1100
0000
0100
0000
0010
0000
0100
0000
0010
0001
0010
0000
,
0110
1000
0100
1000
0100
0010
1100
0010
,
0100
0000
0011
0000
0001
0010
0100
0000
0010
0000
0100
0000
0010
0000
0001
0000
,
0100
0000
0010
0100
0010
0100
0010
0000
,
1000
0000
0200
0000
0000
0300
1000
0000
,
0200
0000
0000
0300
0100
0010
0100
0000
,
0010
0001
0100
0000
0010
0000
0100
0001
,
0020
0000
0000
0030
0100
0010
0100
0000
,
1000
0000
0100
0000
0010
0000
0100
0010
,
0200
0000
0000
0300
0001
0000
0100
0001
,
0200
0300
1000
0000
0100
0000
0010
0100
,
0010
0000
0101
0000
0001
0000
0100
0010
,
0001
0000
1001
0000
0100
0000
0010
0100
,
0010
0000
0110
0000
0100
0000
1000
0100
,
1000
0000
1100
0000
0100
0000
0010
0100
,
0010
0000
0110
0000
0010
0000
0010
0001
,
0010
0011
0220
0000
,
0330
0000
1000
0000
2002
3003
0100
0010
,
0100
0010
0100
0000
0010
0100
0010
0100
,
0010
0000
0002
0003
0200
0000
0000
0300
,
1000
0000
0200
0000
0000
0300
1000
0100
,
1000
0000
0100
0010
0100
0000
0010
0000
,
0001
0100
0001
0000
0010
0000
0100
0010
,
0100
1000
0100
0100
,
0010
0100
0010
0100
0010
0001
0000
0001
,
0100
0010
0100
0010
0100
0010
0100
0000
,
0100
0010
0100
0000
0010
0001
0010
0100
,
0010
0000
0002
0003
0200
0000
0000
0300
,
0010
0000
0200
0000
0000
0300
1000
0100
,
1000
0000
1000
0100
1000
0000
0100
0000
,
0010
0100
0010
0000
1000
0010
0001
0100
,
0001
0001
0100
0001
,
0100
0000
0001
0100
0001
0100
0000
0010
,
0001
0100
0010
0000
0100
0000
1000
0000
,
0100
1000
0100
0000
0010
0100
0010
0000
,
0100
0010
0001
0100
,
0001
0100
0001
0000
0010
0100
0010
0100
,
0010
0000
0100
0000
0020
0000
0000
0030
,
0100
0000
2000
0000
0000
3000
1000
0100
,
1000
0100
0010
0001
,
0100
0000
0010
0100
0010
0100
0000
0010
,
0100
0010
0100
0010
0100
0010
0001
0000
,
0100
0010
1000
0000
0001
0100
0010
0100
,
0010
0001
2000
0000
3001
0000
0100
0000
,
0010
0100
0010
0000
0001
0010
0100
0010
,
0100
0020
0130
1000
,
0100
1000
0100
0000
0010
0100
0010
0100
,
0010
0200
0310
0001
,
0010
0100
1000
0001
0100
0010
0000
0100
,
0010
0100
0010
0000
1001
0000
0220
0000
,
0000
0000
0000
0000
,
0000
0000
0000
0000
,
0330
0000
0000
0220
,
0000
0000
0000
0000
,
0000
0000
0000
0000
,
0330
0000
0000
0000
;

//--------------- dance-single - by Wrland ----------------
#NOTEDATA:;
#STEPSTYPE:dance-single;
#DESCRIPTION:by Wrland;
#DIFFICULTY:Challenge;
#METER:11;
#RADARVALUES:0,0,0,0,0;
#NOTES:
0000
0000
0000
0000
,
0000
0000
0000
0000
,
0000
0000
0000
0000
,
0000
0000
0000
0000
0000
0000
0000
0100
0020
0000
0000
0000
0000
0000
0030
0000
0001
0000
0000
0000
0010
0000
0000
0000
0200
0000
0000
0000
0300
0000
0100
0000
,
0010
0000
0100
0000
2000
0000
3000
0001
0100
0000
0010
0000
0200
0000
0000
0000
,
0000
0300
0100
0010
0200
0000
0000
0300
0010
0000
0001
0000
0020
0000
0030
0100
,
2000
3000
0100
0000
0020
0000
0000
0000
0000
0030
0001
0000
0010
0000
0100
0000
,
0010
0001
0100
0000
0022
0000
0033
0000
0100
0000
0000
0000
0010
0000
0000
0000
,
0100
0000
1000
0000
0100
1000
0100
0000
,
1000
0000
2200
3300
0100
0000
0010
0000
,
0100
0000
0100
0000
0010
0100
0010
0000
,
0100
0010
0220
0330
0010
0000
0001
0000
,
0010
0000
0001
0000
0010
0001
0010
0000
,
0001
0010
2002
3003
0100
0000
0010
0000
,
0100
0000
0010
0000
0100
0010
0100
0000
,
0010
0100
0010
0000
0100
0010
0100
0000
,
0100
0000
1000
0100
0010
0001
0100
0000
,
0010
0000
0100
0010
1000
0100
1000
0000
,
1000
0000
0100
0010
0100
0010
0100
0000
,
0010
0000
0001
0100
0001
0100
0001
0010
,
0100
0001
0010
1000
0010
1000
0010
0100
,
1000
0010
0100
1000
0010
0100
0001
0010
,
0100
0220
0000
0000
0330
0000
0000
0000
0100
0000
0000
0000
0010
0000
0000
0000
,
0100
0010
0001
0010
,
0100
0000
0000
0010
1000
0000
0000
0000
0100
0000
0010
0000
0100
0000
0010
0000
,
0100
0000
0000
0000
0010
0000
0000
0000
0100
0000
0000
0000
0010
0000
0000
0000
0000
0001
0000
1000
0010
0000
0100
0000
0022
0000
0000
0000
0033
0000
0000
0000
,
0100
0010
0100
0010
,
0100
0000
0010
0000
1000
0010
0202
0303
,
0010
0000
0100
0000
0010
0000
0001
0100
,
0001
0100
0001
0000
0010
0001
2200
3300
,
0010
0100
0010
0001
,
1000
0000
0000
0000
0001
0000
0000
0000
1000
0000
0100
0001
0022
0000
0033
0000
,
0100
0000
0010
0000
0001
0000
0100
0010
,
0100
0010
0100
0000
0010
0000
0002
0000
,
0000
0003
2200
3300
0010
0000
0100
0000
,
0010
0100
1000
0100
,
1000
0000
0001
0010
0220
0000
0330
0000
0010
0000
0000
0000
0010
0000
0100
0000
,
0010
0000
0000
0000
0010
0000
0100
0000
0010
0000
0000
0000
0011
1000
0010
0001
,
1000
0010
0100
0001
0010
1000
0100
0001
,
0010
0000
0100
0000
0001
0000
0010
0000
0100
0000
0001
0000
0100
0010
0100
0010
,
0100
0000
0000
0000
0000
0000
0000
0000
0000
0000
0000
0000
0000
0000
0000
0000
0010
0000
0000
0000
0000
0000
0000
0000
0000
0000
0000
0000
0000
0000
0000
0000
0100
0000
0000
0000
0000
0000
0000
0000
0010
0000
0000
0000
0000
0000
0000
0000
0000
0000
0100
0000
0000
0000
0010
0000
0100
0000
0000
0000
0010
0001
0010
0001
,
0440
0000
0000
0000
0000
0000
0000
0000
0000
0000
0000
0000
0000
0000
0000
0000
0000
0000
0000
0000
0000
0000
0000
0000
0000
0000
0000
0000
0000
0000
0000
0000
0000
0000
0000
0000
0000
0000
0000
0000
0000
0000
0000
0000
0000
0000
0000
0000
0000
0000
0000
0000
0000
0000
0000
0000
0000
0000
0000
0000
0000
0000
0000
0000
0000
0000
0000
0000
0000
0000
0000
0000
0000
0000
0000
0000
0000
0000
0000
0000
0000
0000
0000
0000
0000
0000
0000
0000
0000
0000
0000
0000
0000
0000
0000
0000
0000
0000
0000
0000
0000
0000
0000
0000
0000
0000
0000
0000
0000
0000
0000
0000
0000
0000
0000
0000
0000
0000
0000
0000
0000
0000
0000
0000
0000
0000
0000
0000
0000
0000
0000
0000
0000
0000
0000
0000
0000
0000
0000
0000
0000
0000
0000
0000
0330
0000
0000
0000
0000
0000
0000
0000
0000
0000
0000
0000
0000
0000
0000
0000
0000
0000
0000
0000
0000
0000
0000
0000
0000
1001
0000
0000
0000
0000
0000
0000
0000
0000
0000
0000
0100
0000
0000
0000
0000
0000
0000
0000
0000
0000
0000
0000
,
0010
0000
0100
0000
0010
0000
0001
0100
0001
0000
0100
0001
0001
0100
0001
0000
,
0200
0000
0300
0000
0100
0000
1000
0100
0100
1000
0100
0000
0100
1000
0100
1000
,
0100
0000
0100
1000
0100
1000
0100
0000
2000
0000
3000
0000
0100
0000
0010
0001
,
0100
0010
0100
0000
0010
0100
0010
0100
0010
0000
0001
0100
0001
0100
1000
0000
,
0020
0000
0030
0000
2002
0000
3003
0100
0010
0001
0100
0000
0010
0000
0100
0001
,
0020
0000
0030
0001
1000
0001
1000
0000
0100
0000
0010
0001
0200
0000
0300
0010
,
0100
0010
0100
0000
0010
0000
0001
0000
0110
0000
0010
0000
0100
0000
1001
0000
,
0100
0000
0010
0000
1010
0000
0001
0000
0010
0000
1100
0000
0100
0000
0010
0100
,
1010
0100
1000
0101
0010
0100
0110
0010
,
0001
0000
1011
0000
0100
0000
0010
0100
0020
0000
1000
0000
0100
0000
1000
0000
,
0100
0000
1000
0100
1000
0100
0100
0000
,
1000
0000
0130
0000
2000
0000
0001
0010
,
0001
0000
0001
0010
0001
0010
0001
0000
,
0010
0001
3010
0000
0020
0000
1000
0100
,
1000
0000
0100
1000
0100
1000
0100
0000
,
1000
0000
0130
0000
0002
0000
0100
1000
,
0100
0000
0000
0000
1000
0000
0100
1000
,
0100
0000
1003
0000
0100
0000
0010
0100
,
0020
0030
0002
0003
1000
0000
0100
1000
,
0200
0300
2000
3000
0100
0000
0010
0100
,
0020
0030
0200
0300
0002
0003
0100
0001
,
0200
0300
0010
0000
0100
0010
0010
1010
,
0100
0010
0010
0001
0100
1000
0010
0100
,
0010
0100
0001
0010
0010
0001
0100
0010
,
0100
0000
0000
0000
0000
0000
0000
0000
0010
0000
0000
0000
0000
0000
0000
0000
0010
0000
0000
0000
0000
0000
0000
0000
0000
0000
0000
0000
0000
0000
0000
0000
2002
0000
0000
0000
0000
0000
0000
0000
3003
1000
0001
1000
0001
0000
0000
0000
1001
0000
0000
0000
0000
0000
0000
0000
0100
0000
0000
0000
0000
0000
0000
0000
,
1000
0100
2000
3000
0100
0010
0001
0010
,
0200
0300
2000
3000
0200
0300
2020
3030
,
0100
0010
0200
0300
0020
0030
0100
0010
,
0020
0030
0001
0010
0200
0300
0022
0033
,
0100
0010
0200
0300
1000
0100
1000
0100
,
2000
3000
0200
0300
0020
0030
0220
0330
,
0100
0010
0100
0010
0100
0020
0030
0100
,
0010
0100
0010
0100
0010
0100
2MM2
3003
,
0100
0010
0200
0300
1000
0100
0010
0001
,
0020
0030
2000
3000
0200
0300
2020
3030
,
0100
0010
0200
0300
0020
0030
0100
0010
,
0001
0010
0001
0100
2000
3000
0220
0330
,
0100
1000
0200
0300
0010
0001
0100
0001
,
0020
0030
0200
0300
2000
3000
0202
0303
,
0200
0300
1000
0100
1000
0200
0300
0010
,
0220
0330
0022
0033
2200
3300
2002
3003
,
0100
0010
0200
0300
0010
0001
0200
0300
,
2000
3000
0202
0303
2020
3030
2200
3300
,
0100
0010
0002
0003
1000
0001
0100
0010
,
0100
0010
1000
0001
0020
0030
0220
0330
,
0100
1000
0100
0010
0001
0010
0100
0001
,
2000
3000
0200
0300
0020
0030
0202
0303
,
0010
0100
1000
0100
0010
0200
0300
0100
,
0010
0100
0001
1000
0001
0010
2020
3030
,
0100
0010
0200
0300
0100
1000
0100
0010
,
0200
0000
0302
0000
1003
0000
0220
0330
,
0100
0010
0002
0003
0100
0010
0100
0010
,
0020
0000
2030
0000
3002
0003
0202
0303
,
0010
0100
2000
3000
0100
0010
0100
0010
,
0200
0300
0002
0000
2003
3000
1010
0100
,
0010
0100
1000
0001
0010
0200
0300
0101
,
0010
0100
0010
0100
0020
0030
4004
0000
,
0000
0000
0000
0000
,
0000
0000
0000
0000
,
3003
0000
0000
0000
0000
0000
0000
0000
0100
0010
0100
0001
0220
0000
0000
0000
,
0000
0000
0000
0000
,
0000
0000
0000
0000
,
0330
0000
0000
0000
;

//--------------- dance-double - by Wrland ----------------
#NOTEDATA:;
#STEPSTYPE:dance-double;
#DESCRIPTION:by Wrland;
#DIFFICULTY:Beginner;
#METER:4;
#RADARVALUES:0,0,0,0,0;
#NOTES:
00000000
00000000
00000000
00000000
,
00000000
00000000
00000000
00000000
,
00000000
00000000
00000000
00000000
,
00000000
01000000
00100000
01000000
,
01000000
00000000
00100000
00000000
01000000
00100000
02000000
00000000
,
03000000
01000000
00200000
00000000
00300000
00010000
00100000
00000000
,
00010000
00000000
00002000
00000000
00003000
00000100
00000010
00000100
,
00000010
00000100
00000002
00000000
00000000
00000000
00000000
00000000
,
00000000
00000000
00000003
00000000
,
00000000
00000200
00000000
00000000
,
00000000
00000000
00000300
00000000
,
00000000
00002000
00000000
00000000
,
00000000
00000000
00003000
00000000
,
00000000
00000200
00000000
00000000
,
00000000
00000000
00000300
00000000
,
00000000
00000100
00000000
00000100
,
00000000
00000010
00000000
00000010
,
00000000
00000001
00000000
00000001
,
00000000
00001000
00000000
00001000
,
00000000
00000100
00000000
00000100
,
00000000
00000010
00000000
00000010
,
00000000
00000000
00000000
00000000
,
00000000
00000220
00000000
00000000
00000000
00000000
00000000
00000000
00000330
00000000
00000000
00000000
00000000
00000000
00000000
00000000
,
00000000
00000000
00000000
00000000
,
00000000
00000000
00000000
00000000
,
00000000
00000000
00000000
00000100
,
00000000
00000100
00000000
00001000
,
00000000
00010000
01000000
00100000
,
00000000
01000000
00000000
01000000
,
00010000
10000000
01000000
10000000
,
00000000
01000000
00000000
10000000
,
00000000
01000000
00100000
00100000
,
00000000
01000000
10000000
00100000
,
01000000
00010000
00100000
01000000
,
00000000
00100000
00000000
01000000
,
00000000
00100000
00000000
01000000
,
00010000
00100000
00000000
02000000
,
00000000
00000000
03000000
00000000
00000000
00000000
00100000
01000000
,
00100000
01000000
00100000
01000000
,
00100000
00000000
00010000
00000000
00010000
00000000
00100000
00010000
,
00100000
00000000
00010000
00000000
00100000
00020000
00000000
00030000
,
00022000
00000000
00000000
00000000
00000000
00000000
00000000
00000000
00000000
00000000
00000000
00000000
00000000
00000000
00000000
00000000
00000000
00000000
00000000
00000000
00000000
00000000
00000000
00000000
00000000
00000000
00000000
00000000
00000000
00000000
00000000
00000000
00000000
00000000
00000000
00000000
00000000
00000000
00000000
00000000
00000000
00000000
00000000
00000000
00000000
00000000
00000000
00000000
00000000
00000000
00000000
00000000
00000000
00000000
00000000
00000000
00000000
00000000
00000000
00000000
00000000
00000000
00000000
00000000
00000000
00000000
00000000
00000000
00000000
00000000
00000000
00000000
00000000
00000000
00000000
00000000
00000000
00000000
00000000
00000000
00000000
00000000
00000000
00000000
00000000
00000000
00000000
00000000
00000000
00000000
00000000
00000000
00000000
00000000
00000000
00000000
00000000
00000000
00000000
00000000
00000000
00000000
00000000
00000000
00000000
00000000
00000000
00000000
00000000
00000000
00000000
00000000
00000000
00000000
00000000
00000000
00000000
00000000
00000000
00000000
00000000
00000000
00000000
00000000
00000000
00000000
00000000
00000000
00000000
00000000
00000000
00000000
00000000
00000000
00000000
00000000
00000000
00000000
00000000
00000000
00000000
00000000
00000000
00000000
00033000
00000000
00000000
00000000
00000000
00000000
00000000
00000000
00000000
00000000
00000000
00000000
00000000
00000000
00000000
00000000
00000000
00000000
00000000
00000000
00000000
00000000
00000000
00000000
00000000
00000100
00000000
00000000
00000000
00000000
00000000
00000000
00000000
00000000
00000000
00000000
00000000
00000000
00000000
00000000
00000000
00000000
00000000
00000000
00000000
00000000
00000000
00000000
,
00001000
00000000
00000100
00000000
00000010
00000000
00000001
00000100
,
00000010
00000100
00001000
00000010
,
00000100
00000000
00000010
00000100
00000010
00000000
00000001
00000000
,
00000010
00000000
00000100
00000000
00000001
00000000
00000100
00001000
,
00000100
00000000
00000020
00000030
00000100
00001000
00000100
00000000
,
00000020
00000030
00000100
00001000
00000100
00000000
00000002
00000003
,
00000010
00000100
00001000
00010000
00200000
00000000
00000000
00000000
,
00300000
00000000
00000000
00000000
,
02000000
00000000
03000000
00000000
,
00000000
00000000
00200000
00000000
,
00000000
00000000
00000000
00000000
,
00300000
00000000
00000000
00000000
,
00000000
00000000
00000000
00000000
,
00000000
00000000
00020000
00000000
,
00000000
00000000
00000000
00000000
,
00030000
00000000
00000000
00000000
,
00000000
00000000
00000000
00000000
,
00000000
00000000
00000100
00000000
,
00001000
00000000
00000100
00000000
,
00001000
00000000
00000100
00000000
,
00000010
00000000
00000100
00000000
,
00000010
00000000
00000001
00000000
,
00000010
00000000
00000001
00000000
,
00000010
00000000
00000000
00000000
,
00000000
00000000
00000100
00000000
00000220
00000330
00000100
00000000
,
00000000
00001000
00000000
00100000
,
01000000
10000000
01000000
00000000
,
00100000
01000000
00000000
01000000
,
00100000
01000000
10000000
00000000
,
01000000
00100000
00000000
10000000
,
01000000
00100000
01000000
00100000
,
01000000
00000000
00100000
00000000
01000000
00100000
00000000
00010000
,
10000000
00010000
00000000
01000000
,
00000000
00100000
00000000
01000000
,
00100000
00010000
00010000
00000000
,
00001000
00000100
00000000
00000010
,
00000001
00000010
00000100
00000000
,
00000100
00000010
00000000
00000100
,
00000010
00000100
00000010
00000001
,
00000010
00000000
00000100
00000000
00001000
00000100
00000000
00001000
,
00000100
00000010
00000000
00000200
,
00000000
00000300
00000000
00001000
,
00000001
00001000
00000001
00001000
,
00000000
00001000
00000000
00010000
,
00100000
01000000
00100000
00000000
,
01000000
00100000
00000000
01000000
,
10000000
01000000
00100000
00010000
,
00010000
00000000
01000000
00000000
00100000
01000000
00000000
00100000
,
01000000
00100000
00000000
01000000
,
00000000
00100000
00000000
01000000
,
00100000
10000000
01000000
00000000
,
01000000
00100000
00000000
00010000
,
01000000
00100000
01000000
00000000
,
00010000
00100000
00000000
00010000
,
00001000
00000100
00000010
00000001
,
00000010
00000000
00000100
00000000
00000010
00000001
00000000
00000100
,
00001000
00000100
00000010
00002002
,
00000000
00000000
00000000
00000000
,
00000000
00000000
00000000
00000000
,
00003003
00000000
00000000
00002002
,
00000000
00000000
00000000
00000000
,
00000000
00000000
00000000
00000000
,
00003003
00000000
00000000
00000000
;

//--------------- dance-double - by Wrland ----------------
#NOTEDATA:;
#STEPSTYPE:dance-double;
#DESCRIPTION:by Wrland;
#DIFFICULTY:Easy;
#METER:6;
#RADARVALUES:0,0,0,0,0;
#NOTES:
00000000
00000000
00000000
00000000
,
00000000
00000000
00000000
00000000
,
00000000
00000000
00000000
00000000
,
00000000
00000000
00000000
00000000
01000000
00000000
00000000
00000000
00100000
00000000
00000000
00000000
01000000
00000000
00000000
01000000
,
00100000
01000000
00100000
00000000
10000000
01000000
00200000
00000000
,
00300000
00000000
01000000
00100000
01000000
00000000
00000000
00000000
01000000
00000000
00100000
00000000
01000000
00000000
00000000
01000000
,
00100000
01000000
20000000
00000000
30000000
01000000
00100000
00100000
,
00010000
00001000
00000100
00000000
00000001
00000000
00000001
00000000
,
00000010
00000020
00000000
00000030
,
00000000
00000100
00000010
00000100
,
00000010
00000200
00000000
00000300
,
00000000
00001000
00000100
00001000
,
00000100
00002000
00000000
00003000
,
00000000
00000100
00000010
00000100
,
00000010
00000200
00000000
00000300
,
00000000
00000010
00000000
00000010
,
00000000
00000100
00000010
00000100
,
00000000
00000001
00000000
00000001
,
00000000
00000001
00000100
00000001
,
00000000
00000010
00000000
00000100
,
00000000
00001000
00010000
00200000
,
00000000
00300000
00000000
00000000
,
01000000
02200000
00000000
00000000
00000000
00000000
00000000
00000000
03300000
00000000
00000000
00000000
00000000
00000000
00000000
00000000
,
00000000
00000000
00000000
00000000
,
00000000
00000000
01000000
00100000
,
01000000
00200000
00300000
01000000
,
10000000
01000000
10000000
01000000
,
10000000
02000000
03000000
00100000
,
01000000
00100000
02000000
03000000
,
00000000
00000000
00000000
00010000
,
00100000
00010000
00100000
00010000
,
00100000
00020000
00030000
00100000
,
01000000
01000000
02000000
03000000
,
00000000
00000000
00000000
20000000
,
30000000
10000000
01000000
10000000
,
01000000
10000000
00100000
20000000
,
30000000
10000000
00010000
20000000
,
30000000
00000000
00000000
01000000
,
00100000
00010000
00001000
00000100
,
00000010
00000000
00000001
00000000
00000001
00000000
00000010
00000100
,
00000010
00000000
00000100
00000000
00000001
00000010
00000000
00000000
,
00000220
00000000
00000000
00000000
00000000
00000000
00000000
00000000
00000000
00000000
00000000
00000000
00000000
00000000
00000000
00000000
00000000
00000000
00000000
00000000
00000000
00000000
00000000
00000000
00000000
00000000
00000000
00000000
00000000
00000000
00000000
00000000
00000000
00000000
00000000
00000000
00000000
00000000
00000000
00000000
00000000
00000000
00000000
00000000
00000000
00000000
00000000
00000000
00000000
00000000
00000000
00000000
00000000
00000000
00000000
00000000
00000000
00000000
00000000
00000000
00000000
00000000
00000000
00000000
00000000
00000000
00000000
00000000
00000000
00000000
00000000
00000000
00000000
00000000
00000000
00000000
00000000
00000000
00000000
00000000
00000000
00000000
00000000
00000000
00000000
00000000
00000000
00000000
00000000
00000000
00000000
00000000
00000000
00000000
00000000
00000000
00000000
00000000
00000000
00000000
00000000
00000000
00000000
00000000
00000000
00000000
00000000
00000000
00000000
00000000
00000000
00000000
00000000
00000000
00000000
00000000
00000000
00000000
00000000
00000000
00000000
00000000
00000000
00000000
00000000
00000000
00000000
00000000
00000000
00000000
00000000
00000000
00000000
00000000
00000000
00000000
00000000
00000000
00000000
00000000
00000000
00000000
00000000
00000000
00000330
00000000
00000000
00000000
00000000
00000000
00000000
00000000
00000000
00000000
00000000
00000000
00000000
00000000
00000000
00000000
00000000
00000000
00000000
00000000
00000000
00000000
00000000
00000000
00000000
00000100
00000000
00000000
00000000
00000000
00000000
00000000
00000000
00000000
00000000
00000000
00000000
00000000
00000000
00000000
00000000
00000000
00000000
00000000
00000000
00000000
00000000
00000000
,
00001000
00000000
00000100
00000000
00001000
00000000
00000100
00001000
,
00000100
00000100
00001000
00010000
,
00100000
00000000
01000000
10000000
01000000
00000000
00100000
00000000
,
01000000
00000000
00100000
00000000
00010000
00000000
01000000
00010000
,
01000000
00000000
00200000
00300000
01000000
01000000
01000000
01000000
,
20000000
30000000
10000000
10000000
10000000
10000000
02000000
03000000
,
00100000
01000000
00100000
01000000
00200000
00300000
01000000
00200000
,
00300000
00000000
01000000
00200000
00300000
00010000
02000000
03000000
,
00100000
00020000
00030000
00001000
00000200
00000300
00000010
00000002
,
00000003
00000010
00000200
00000300
00000020
00000000
00000000
00000000
,
00000000
00000000
00000000
00000000
,
00000030
00000000
00002000
00000000
,
00000000
00000000
00000000
00000000
,
00003000
00000000
00000200
00000000
,
00000000
00000000
00000000
00000000
,
00000300
00000000
00000002
00000000
,
00000000
00000000
00000000
00000000
,
00000003
00000000
00000010
00000000
,
00000100
00000000
00000010
00000000
,
00000001
00000000
00000010
00000000
,
00000100
00000000
00001000
00000000
,
00000100
00000000
00001000
00010000
,
00100000
00000000
01000000
10000000
,
10000000
00000000
00020000
00000000
,
00030000
00000000
10000000
00000000
20020000
30030000
01000000
00000000
,
00100000
00000000
01000000
00000000
00100000
01000000
00100000
00000000
,
00010000
01000000
00100000
00000000
,
00010000
00000000
10000000
00000000
00000000
00000000
01000000
00100000
,
01000000
00100000
01000000
00000000
,
00100000
00000000
01000000
00000000
00000000
00000000
10000000
01000000
,
00100000
00010000
00100000
00010000
,
00001000
00000000
00000100
00000000
00000010
00000001
00000000
00000010
,
00000100
00000001
00000010
00000000
00000001
00000000
00000100
00000000
,
00000010
00000100
00000010
00000000
00000000
00000000
00000010
00000001
,
00000010
00000100
00001000
00000000
,
00000100
00000000
00001000
00000000
00000000
00000000
00001000
00000100
,
00001000
00000100
00000010
00000000
,
00000010
00000000
00000010
00000000
00000000
00000000
00000100
00000010
,
00000100
00000100
00001000
00000100
,
00000010
00000000
00000100
00000000
00000010
00000100
00000000
00000100
,
00000010
00000001
00000100
00002002
,
00000000
00000000
00003003
00001000
,
00000001
00001000
00000001
00000100
,
00000100
00000000
00000001
00000000
00000000
00000000
00000100
00000010
,
00000100
00001000
00000100
00000000
,
00000010
00000000
00000100
00000000
00000000
00000000
00000001
00000010
,
00000100
00000010
00000010
00000100
,
00001000
00000000
00000100
00000000
00000010
00000100
00000000
00000010
,
00000100
00000010
00000100
00001000
,
00010000
00000000
00100000
00000000
00000000
00000000
01000000
00100000
,
01000000
01000000
10000000
00000000
,
10000000
00000000
01000000
00000000
00000000
00000000
00100000
01000000
,
00100000
01000000
00100000
00000000
,
00100000
00000000
01000000
00000000
00000000
00000000
00100000
01000000
,
00100000
00100000
01000000
00100000
,
01000000
00000000
00100000
00000000
01000000
00100000
00000000
00010000
,
10000000
00010000
10000000
20020000
,
00000000
00000000
00000000
00000000
,
00000000
00000000
00000000
00000000
,
30030000
00000000
00000000
02200000
,
00000000
00000000
00000000
00000000
,
00000000
00000000
00000000
00000000
,
03300000
00000000
00000000
00000000
;

//--------------- dance-double - by Wrland ----------------
#NOTEDATA:;
#STEPSTYPE:dance-double;
#DESCRIPTION:by Wrland;
#DIFFICULTY:Medium;
#METER:8;
#RADARVALUES:0,0,0,0,0;
#NOTES:
00000000
00000000
00000000
00000000
,
00000000
00000000
00000000
00000000
,
00000000
00000000
00000000
00000000
,
00000000
00000000
00000000
00000000
20000000
00000000
30000000
00000000
01000000
00000000
01000000
00000000
20000000
00000000
30000000
01000000
,
10000000
01000000
00200000
00300000
01000000
00100000
02000000
00000000
,
03000000
00000000
00100000
01000000
00200000
00000000
00300000
00000000
10000000
00000000
00010000
00000000
20000000
00000000
30000000
10000000
,
01000000
10000000
02000000
00000000
03000000
00100000
00010000
00100000
,
00010000
01000000
00100000
00000000
00010000
00000000
00001000
00000000
,
00000100
00000010
00000001
00000010
,
00000100
00001000
00000100
00000100
,
00001000
00000000
00000100
00000000
00001000
00000100
00001000
00000000
,
00000100
00001000
00000100
00000000
00000010
00000000
00000100
00000000
,
00000010
00000000
00000100
00000000
00000010
00000100
00000010
00000000
,
00000100
00000010
00000100
00000000
00000001
00000000
00000100
00000000
,
00000010
00000000
00000100
00000000
00000010
00000100
00000010
00000000
,
00000100
00000010
00000100
00000010
00000100
00000010
00000100
00000000
,
00000010
00000000
00000100
00000010
00000100
00000001
00000100
00000000
,
00000010
00000000
00000100
00001000
00000100
00001000
00000100
00000000
,
00001000
00000000
00000100
00001000
00000100
00001000
00000100
00000000
,
00000010
00000000
00000100
00000010
00000100
00000010
00000100
00000000
,
00000010
00000000
00000001
00001000
00000010
00000100
00000010
00000000
,
00000100
00000000
00000002
00000000
00000000
00000000
00000000
00000003
,
00000100
00000220
00000000
00000000
00000330
00000000
00000000
00000000
00000100
00000000
00000000
00000000
00000010
00000000
00000000
00000000
,
00000100
00000010
00001000
00000001
,
00001000
00000001
00000100
00000010
,
00001000
00000000
00000000
00000000
00000002
00000000
00000000
00000000
00000000
00000000
00000000
00000003
00000100
00000000
00000000
00000000
,
00000010
00000100
00000010
00000100
,
00000010
00000000
00000001
00000000
00000010
00000100
00000010
00000000
,
00000100
00000010
00000100
00001000
,
00001000
00000100
00001000
00000100
,
00000010
00000100
00000010
00000100
,
00000010
00000000
00000100
00000000
00000010
00000100
00000010
00000000
,
00000001
00000100
00000100
00000010
,
00000100
00000010
00000001
00000202
,
00000303
00000010
00000100
00000010
,
00000100
00001000
00000100
00001000
,
00000100
00001000
00000100
00000000
00000010
00000000
00000001
00000010
,
00000100
00000000
00000100
00000010
00000001
00000000
00000100
00000000
,
00000010
00000100
00001000
00000100
,
00000010
00000000
00000001
00000000
00000010
00000000
00000100
00000010
,
00000001
00000000
00000000
00000000
00001000
00000000
00000000
00000000
00000100
00000000
00002000
00000000
00000000
00000000
00000000
00003000
,
00002200
00000000
00000000
00000000
00000000
00000000
00000000
00000000
00000000
00000000
00000000
00000000
00000000
00000000
00000000
00000000
00000000
00000000
00000000
00000000
00000000
00000000
00000000
00000000
00000000
00000000
00000000
00000000
00000000
00000000
00000000
00000000
00000000
00000000
00000000
00000000
00000000
00000000
00000000
00000000
00000000
00000000
00000000
00000000
00000000
00000000
00000000
00000000
00000000
00000000
00000000
00000000
00000000
00000000
00000000
00000000
00000000
00000000
00000000
00000000
00000000
00000000
00000000
00000000
00000000
00000000
00000000
00000000
00000000
00000000
00000000
00000000
00000000
00000000
00000000
00000000
00000000
00000000
00000000
00000000
00000000
00000000
00000000
00000000
00000000
00000000
00000000
00000000
00000000
00000000
00000000
00000000
00000000
00000000
00000000
00000000
00000000
00000000
00000000
00000000
00000000
00000000
00000000
00000000
00000000
00000000
00000000
00000000
00000000
00000000
00000000
00000000
00000000
00000000
00000000
00000000
00000000
00000000
00000000
00000000
00000000
00000000
00000000
00000000
00000000
00000000
00000000
00000000
00000000
00000000
00000000
00000000
00000000
00000000
00000000
00000000
00000000
00000000
00000000
00000000
00000000
00000000
00000000
00000000
00003300
00000000
00000000
00000000
00000000
00000000
00000000
00000000
00000000
00000000
00000000
00000000
00000000
00000000
00000000
00000000
00000000
00000000
00000000
00000000
00000000
00000000
00000000
00000000
00000000
00001000
00000000
00000000
00000000
00000000
00000000
00000000
00000000
00000000
00000000
00000000
00010000
00000000
00000000
00000000
00000000
00000000
00000000
00000000
00000000
00000000
00000000
00000000
,
00100000
00010000
00010000
00100000
00020000
00030000
00010000
00100000
,
00020000
00030000
01000000
10000000
01000000
00100000
01000000
00100000
,
02000000
03000000
00010000
01000000
00020000
00030000
01000000
00100000
,
01000000
00100000
01000000
10000000
02000000
03000000
01000000
00100000
,
02000000
00000000
03000000
00000000
02000000
00000000
03000000
00100000
01000000
00100000
01000000
00000000
00100000
00000000
01000000
00000000
,
00020000
00000000
00030000
00010000
00100000
01000000
00100000
00000000
01000000
00000000
01000000
00000000
20000000
00000000
30000000
10000000
,
01000000
10000000
01000000
00000000
00100000
00000000
00010000
00000000
00100000
00000000
00010000
00000000
00100000
00000000
00010000
00000000
,
00100000
01000000
00100000
00010000
00010000
00100000
01000000
10000000
,
10000000
01000000
00100000
01000000
10000000
01000000
00100000
01000000
,
00100000
01000000
00100000
00100000
00020000
00000000
00000000
00000000
,
00000000
00000000
00000000
00000000
00000000
00000000
00000000
00030000
,
10000000
01000000
20000000
00000000
,
00000000
00000000
00000000
00000000
00000000
00000000
00000000
30000000
,
01000000
00100000
02000000
00000000
,
00000000
00000000
00000000
00000000
00000000
00000000
00000000
03000000
,
00100000
00010000
00200000
00000000
,
00000000
00000000
00000000
00000000
,
00000000
00000000
00000000
00300000
10000000
01000000
10000000
01000000
,
00200000
00300000
00020000
00030000
00100000
00010000
00100000
00010000
,
00200000
00300000
00200000
00300000
01000000
00100000
01000000
00100000
,
00020000
00030000
00002000
00003000
00010000
00001000
00010000
00001000
,
00000200
00000300
00000020
00000030
00000001
00000010
00000100
00000010
,
00000200
00000300
00000020
00000030
00001000
00000010
00001000
00000100
,
00002000
00003000
00000002
00000000
00000000
00000000
00000000
00000000
,
00000003
00000000
00000010
00000000
00000200
00000300
00000100
00000000
,
00000010
00000000
00000100
00000000
00000001
00000000
00000001
00000100
,
00000001
00000000
00000100
00000000
00000020
00000000
00000000
00000030
,
00000100
00000000
00002000
00000000
00000000
00003000
00000100
00001000
,
00000100
00000000
00000010
00000000
00000200
00000000
00000000
00000300
,
00000010
00000000
00000002
00000000
00000000
00000003
00000010
00000001
,
00000010
00000010
00000100
00000001
,
00000100
00000000
00000001
00000000
00000100
00000001
00000000
00000010
,
00000100
00001000
00000100
00000010
00000001
00000010
00000100
00000000
,
00000010
00000000
00000100
00000000
00000001
00000000
00000100
00000010
,
00000100
00000000
00000001
00000000
00000200
00000000
00000000
00000300
,
00000100
00000000
00002000
00000000
00000000
00003000
00000100
00001000
,
00000100
00000000
00000100
00000000
00000020
00000000
00000000
00000030
,
00000100
00000000
00002000
00000000
00000000
00003000
00010000
00100000
,
00010000
00100000
01000000
00100000
,
01000000
00000000
00100000
00000000
00010000
01000000
00000000
00100000
,
01000000
00010000
00100000
00000000
01000000
00000000
00020000
00000000
,
00000000
00000000
00000000
00000000
00000000
00030000
10000000
00000000
,
00010000
00000000
10000000
00000000
00010000
10000000
00010000
00000000
,
01000000
00000000
00200000
00000000
00000000
00300000
01000000
00100000
,
01000000
00000000
00100000
00000000
02000000
00000000
00000000
03000000
,
00100000
00000000
02000000
00000000
00000000
03000000
00100000
01000000
,
00100000
01000000
00010000
01000000
,
10000000
00000000
01000000
00000000
00100000
01000000
00000000
10000000
,
01000000
00100000
01000000
00100000
01000000
00000000
00100000
00000000
,
00010000
00000000
00200000
00000000
00000000
00300000
00010000
00100000
,
00010000
00000000
01000000
00000000
20000000
00000000
00000000
30000000
,
01000000
00000000
20000000
00000000
00000000
30000000
01000000
00100000
,
01000000
00000000
01000000
00000000
00200000
00000000
00000000
00300000
,
00010000
00000000
00002000
00000000
00000000
00003000
00000100
00000010
,
00000001
00000001
00000010
00000100
,
00000010
00000000
00000001
00000000
00000100
00000010
00000000
00001000
,
00000100
00001000
00000100
00000000
00000010
00000000
00002002
00000000
,
00000000
00000000
00000000
00000000
,
00000000
00000000
00000000
00000000
,
00003003
00000000
00000000
00000220
,
00000000
00000000
00000000
00000000
,
00000000
00000000
00000000
00000000
,
00000330
00000000
00000000
00000000
;

//--------------- dance-double - by Wrland ----------------
#NOTEDATA:;
#STEPSTYPE:dance-double;
#DESCRIPTION:by Wrland;
#DIFFICULTY:Hard;
#METER:10;
#RADARVALUES:0,0,0,0,0;
#NOTES:
00000000
00000000
00000000
00000000
,
00000000
00000000
00000000
00000000
,
00000000
00000000
00000000
00000000
,
00000000
00000000
00000000
00000000
00000000
00000000
00000000
00100000
02000000
00000000
00000000
00000000
03000000
00000000
00000000
00000000
00100000
00000000
00000000
00000000
01000000
00000000
00000000
00000000
00200000
00000000
00000000
00000000
00300000
00000000
01000000
00000000
,
00100000
10000000
02000000
03000000
01000000
00100000
02000000
03000000
,
00000000
00000000
01000000
10000000
02000000
00000000
03000000
00000000
01000000
00000000
10000000
00000000
00020000
00000000
00030000
01000000
,
00100000
00010000
00200000
00300000
00000000
01000000
00100000
01000000
,
00100000
01000000
00100000
00000000
20020000
00000000
30030000
00000000
00100000
00000000
00000000
00000000
01000000
00000000
00000000
00000000
,
10000000
00000000
01000000
00000000
00100000
01000000
00100000
00000000
,
01000000
00100000
00220000
00330000
00100000
00000000
01000000
00000000
,
00100000
00000000
01000000
00000000
00100000
01000000
00100000
00000000
,
01000000
00100000
22000000
33000000
00100000
00000000
00010000
00000000
,
00100000
00000000
10000000
00000000
01000000
00100000
00010000
00000000
,
00100000
01000000
00220000
00330000
01000000
00000000
10000000
00000000
,
01000000
00000000
00100000
00000000
00010000
01000000
00010000
00000000
,
01000000
00100000
01000000
00000000
00100000
00010000
00100000
00000000
,
00010000
00000000
00100000
00000000
00010000
00100000
00010000
00000000
,
00100000
00000000
00010000
00000000
00001000
00000100
00001000
00000000
,
00000010
00000000
00000001
00000000
00000010
00000001
00000010
00000000
,
00000100
00000000
00000010
00000000
00000100
00000001
00000100
00000000
,
00001000
00000000
00000100
00000000
00001000
00000100
00001000
00000000
,
00000020
00000000
00000000
00000030
,
00000100
00000020
00000000
00000000
00000030
00000000
00000000
00000000
00000100
00000000
00000000
00000000
00000010
00000000
00000000
00000000
,
00000001
00001000
00000001
00001000
,
00000001
00000000
00000000
00001000
00000001
00000000
00000000
00000000
00000100
00000000
00000010
00000000
00000100
00000000
00000010
00000000
,
00000100
00000000
00000010
00000000
00000100
00000000
00000020
00000000
00000000
00000000
00000000
00000030
00000100
00000000
00000000
00000000
,
00000010
00000100
00000100
00001000
,
00000100
00000000
00000000
00000000
00000010
00000000
00000000
00000000
00000100
00000000
00000000
00000010
00000001
00000000
00000000
00000000
,
00000010
00000000
00000100
00000000
00000010
00000000
00000001
00001000
,
00000001
00001000
00000001
00000000
00000100
00000010
00000010
00000000
,
00000001
00000100
00000010
00000100
,
00001000
00000000
00000000
00000000
00000100
00000000
00000000
00000000
00000010
00000000
00000000
00000010
00000001
00000000
00000000
00000000
,
00000100
00000000
00000010
00000000
00001000
00000000
00000010
00000100
,
00000010
00000001
00000100
00000000
00000010
00000000
00000200
00000000
,
00000300
00000010
00000100
00000010
,
00000100
00001000
00000100
00000010
,
00000001
00000000
00000000
00000010
00000100
00000000
00000000
00000000
00001000
00000000
00000000
00000000
00000100
00000000
00000010
00000000
,
00000200
00000300
00001000
00010000
00200000
00300000
00010000
00000000
,
00100000
00010000
00100000
00010000
,
01000000
00000000
00100000
00000000
00010000
00100000
00010000
00100000
,
00010000
00000000
00000000
00000000
00000000
00000000
00000000
00000000
00000000
00000000
00000000
00000000
00000000
00000000
00000000
00000000
01000000
00000000
00000000
00000000
00000000
00000000
00000000
00000000
00000000
00000000
00000000
00000000
00000000
00000000
00000000
00000000
10000000
00000000
00000000
00000000
00000000
00000000
00000000
00000000
02000000
00000000
00000000
00000000
00000000
00000000
00000000
00000000
00000000
00000000
00000000
00000000
00000000
00000000
00000000
00000000
03000000
00000000
00000000
00000000
01000000
10000000
01000000
10000000
,
20020000
00000000
00000000
00000000
00000000
00000000
00000000
00000000
00000000
00000000
00000000
00000000
00000000
00000000
00000000
00000000
00000000
00000000
00000000
00000000
00000000
00000000
00000000
00000000
00000000
00000000
00000000
00000000
00000000
00000000
00000000
00000000
00000000
00000000
00000000
00000000
00000000
00000000
00000000
00000000
00000000
00000000
00000000
00000000
00000000
00000000
00000000
00000000
00000000
00000000
00000000
00000000
00000000
00000000
00000000
00000000
00000000
00000000
00000000
00000000
00000000
00000000
00000000
00000000
00000000
00000000
00000000
00000000
00000000
00000000
00000000
00000000
00000000
00000000
00000000
00000000
00000000
00000000
00000000
00000000
00000000
00000000
00000000
00000000
00000000
00000000
00000000
00000000
00000000
00000000
00000000
00000000
00000000
00000000
00000000
00000000
00000000
00000000
00000000
00000000
00000000
00000000
00000000
00000000
00000000
00000000
00000000
00000000
00000000
00000000
00000000
00000000
00000000
00000000
00000000
00000000
00000000
00000000
00000000
00000000
00000000
00000000
00000000
00000000
00000000
00000000
00000000
00000000
00000000
00000000
00000000
00000000
00000000
00000000
00000000
00000000
00000000
00000000
00000000
00000000
00000000
00000000
00000000
00000000
30030000
00000000
00000000
00000000
00000000
00000000
00000000
00000000
00000000
00000000
00000000
00000000
00000000
00000000
00000000
00000000
00000000
00000000
00000000
00000000
00000000
00000000
00000000
00000000
00000000
00100000
00000000
00000000
00000000
00000000
00000000
00000000
00000000
00000000
00000000
00000000
00100000
00000000
00000000
00000000
00000000
00000000
00000000
00000000
00000000
00000000
00000000
00000000
,
10000000
00000000
01000000
00000000
10000000
00000000
01000000
00100000
01000000
00000000
00100000
00000000
00010000
00100000
00010000
00000000
,
00200000
00000000
00300000
00000000
01000000
00000000
00100000
00000000
01000000
00100000
01000000
00000000
10000000
00000000
01000000
10000000
,
01000000
00000000
01000000
00000000
00010000
00100000
01000000
00000000
00020000
00000000
00030000
00000000
01000000
00000000
10000000
00100000
,
01000000
00100000
00010000
00000000
00100000
01000000
00100000
00010000
00100000
00000000
01000000
00100000
01000000
00100000
00010000
00000000
,
00200000
00000000
00300000
00000000
02000000
00000000
03000000
10000000
01000000
10000000
02000000
03000000
10000000
00000000
01000000
00000000
,
00200000
00000000
00300000
00000000
00010000
00100000
00010000
00000000
00200000
00000000
00300000
00010000
00020000
00000000
00030000
00000000
,
00001000
00000100
00000010
00000000
00000100
00000000
00001000
00000000
00000110
00000000
00000010
00000000
00000001
00000000
00000010
00000000
,
00000100
00000000
00000010
00000000
00001001
00000000
00000100
00000000
00000010
00000000
00000001
00000000
00000100
00000010
00000001
00000000
,
00001100
00000100
00001000
00000100
00001000
00000100
00000110
00000100
,
00000010
00000000
00000011
00000000
00000100
00000001
00001000
00000000
00000100
00000000
00000001
00000000
00000010
00000000
00001000
00000000
,
00000010
00000000
00000100
00000010
00000100
00000010
00000100
00000000
,
00000001
00000020
00000030
00000010
,
00000002
00000000
00000003
00000000
00000010
00000001
00000010
00000000
,
00000100
00000010
00000100
00000000
00001000
00000000
00000100
00001000
,
00000200
00000000
00000300
00000000
00000001
00000010
00000001
00000000
,
00000010
00000000
00000100
00000000
00001000
00000000
00000100
00001000
,
00000200
00000000
00000300
00000000
00000100
00000000
00000010
00000100
,
00000020
00000030
00000001
00000000
00000100
00000000
00000010
00000100
,
00000010
00000000
00001100
00000000
00000100
00000000
00000100
00001000
,
00000100
00000000
00001001
00000000
00000100
00000000
00000010
00000100
,
00000010
00000000
00000110
00000000
00000001
00000000
00000010
00000001
,
00000010
00000000
00001100
00000000
00000010
00000000
00000100
00000010
,
00000100
00000000
00000011
00000000
00000100
00000000
00001000
00000100
,
00001000
00000011
00000220
00000000
,
00000330
00000000
00000100
00000000
00000202
00000303
00000010
00000100
,
00001000
00010000
00100000
00000000
00010000
00100000
00010000
00100000
,
00010000
00000000
00200000
00300000
02000000
00000000
00000000
03000000
,
10000000
00000000
02000000
00000000
03000000
00000000
00100000
01000000
,
00100000
00000000
01000000
00100000
01000000
00000000
00010000
00000000
,
01000000
00100000
00010000
00000000
01000000
00000000
00100000
01000000
,
00100000
10000000
01000000
01000000
,
00100000
01000000
00100000
01000000
00100000
10000000
00000000
10000000
,
01000000
00100000
00010000
00100000
01000000
10000000
01000000
00000000
,
00100000
01000000
00100000
00000000
00100000
00010000
00100000
01000000
,
00100000
00000000
00020000
00030000
02000000
00000000
00000000
03000000
,
00010000
00000000
00200000
00000000
00000000
00300000
10000000
01000000
,
10000000
00000000
10000000
01000000
10000000
00000000
01000000
00000000
,
00100000
01000000
00100000
00000000
10000000
01000000
00100000
00010000
,
01000000
00100000
01000000
00100000
,
01000000
00000000
00010000
01000000
00010000
01000000
00000000
00100000
,
00010000
01000000
00100000
00000000
01000000
00000000
10000000
00000000
,
01000000
00100000
00010000
00000000
00001000
00000100
00000010
00000000
,
00000001
00000100
00000001
00001000
,
00000100
00000010
00000100
00000000
00000001
00000010
00000001
00000010
,
00000001
00000000
00000200
00000300
00000020
00000000
00000000
00000030
,
00000200
00000300
00000020
00000000
00000000
00000030
00000100
00000001
,
00000100
00000010
00000100
00000010
,
00000100
00000000
00000010
00000001
00000010
00000001
00000000
00000100
,
00001000
00000100
00001000
00000100
00001000
00000100
00000010
00000000
,
00000001
00000100
00000010
00000000
00000010
00000100
00000010
00000100
,
00000010
00002000
00003001
00000100
,
00000010
00000100
00000010
00000000
00000001
00001000
00000001
00000010
,
00000100
00000020
00000031
00000100
,
00001000
00000100
00001000
00000000
00000100
00000010
00000100
00000010
,
00000100
00000020
00000130
00000001
,
00000100
00000001
00000001
00000100
00000001
00000100
00000000
00000010
,
00000001
00000100
00001000
00000000
00001001
00000000
00000220
00000000
,
00000000
00000000
00000000
00000000
,
00000000
00000000
00000000
00000000
,
00000330
00000000
00000000
00000220
,
00000000
00000000
00000000
00000000
,
00000000
00000000
00000000
00000000
,
00000330
00000000
00000000
00000000
;

//--------------- dance-double - by Wrland ----------------
#NOTEDATA:;
#STEPSTYPE:dance-double;
#DESCRIPTION:by Wrland;
#DIFFICULTY:Challenge;
#METER:11;
#RADARVALUES:0,0,0,0,0;
#NOTES:
00000000
00000000
00000000
00000000
,
00000000
00000000
00000000
00000000
,
00000000
00000000
00000000
00000000
,
00000000
00000000
00000000
00000000
00000000
00000000
00000000
00100000
02000000
00000000
00000000
00000000
00000000
00000000
03000000
00000000
00100000
00000000
00000000
00000000
10000000
00000000
00000000
00000000
02000000
00000000
00000000
00000000
03000000
00000000
00100000
00000000
,
01000000
00000000
00100000
00000000
02000000
00000000
03000000
00100000
00010000
00000000
00100000
00000000
02000000
00000000
00000000
00000000
,
03000000
00000000
01000000
10000000
02000000
00000000
03000000
00000000
02000000
03000000
00010000
00000000
00200000
00000000
00300000
00100000
,
00010000
00000000
00100000
00000000
02000000
00000000
00000000
00000000
00000000
03000000
00100000
00000000
01000000
00000000
00100000
00000000
,
01000000
00100000
01000000
00000000
00110000
00000000
00000000
00000000
00010000
00000000
00000000
00000000
00100000
00000000
00000000
00000000
,
01000000
00000000
10000000
00000000
01000000
00100000
00010000
00000000
,
01000000
10100000
10000000
01000000
,
00100000
00000000
00010000
00000000
00100000
01000000
10000000
00000000
,
01000000
00010000
01100000
00000000
01000000
00000000
10000000
00000000
,
01000000
00000000
00010000
00000000
01000000
00100000
01000000
00000000
,
00100000
00010000
00011000
00000000
00000100
00000000
00000010
00000000
,
00000001
00000000
00000100
00000000
00000010
00000100
00000010
00000000
,
00000100
00000010
00000001
00000000
00000010
00000100
00000010
00000000
,
00000001
00000000
00001000
00000100
00000010
00000001
00000010
00000000
,
00000100
00000000
00001000
00000100
00001000
00000100
00001000
00000000
,
00000100
00000000
00000100
00000010
00000100
00000010
00000100
00000000
,
00000010
00000000
00000001
00000100
00000001
00000100
00000001
00000010
,
00000100
00000001
00000010
00000100
00000010
00000001
00000100
00000010
,
00000001
00001000
00000100
00000010
00000100
00000001
00000100
00000010
,
00000100
00000220
00000000
00000000
00000330
00000000
00000000
00000000
00000100
00000000
00000000
00000000
00001000
00000000
00000000
00000000
,
00000100
00001000
00001000
00000100
,
00000100
00000000
00000000
00001000
00000100
00000000
00000000
00000000
00000010
00000000
00000100
00000000
00000010
00000000
00000100
00000000
,
00000010
00000000
00000000
00000000
00000100
00000000
00000000
00000000
00000010
00000000
00000000
00000000
00000100
00000000
00000000
00000000
00000000
00000001
00000000
00001000
00000100
00000000
00000010
00000000
00000202
00000000
00000000
00000000
00000303
00000000
00000000
00000000
,
00000010
00000100
00000010
00000001
,
00000100
00000000
00000010
00000000
00000100
00000010
00000100
00000000
,
00000010
00000000
00000100
00000000
00000010
00000000
00000100
00000010
,
00000100
00000010
00000100
00000000
00000001
00000100
00002200
00003300
,
00000100
00000010
00000001
00000100
,
00000010
00000000
00000000
00000000
00001000
00000000
00000000
00000000
00000010
00000000
00000100
00000010
00000001
00000000
00000000
00000000
,
00001000
00000000
00000100
00000000
00001000
00000000
00000100
00001000
,
00000100
00001000
00000100
00000000
00001000
00000000
00002000
00000000
,
00003000
00000000
00022000
00033000
00010000
00000000
00100000
00000000
,
01000000
10000000
01000000
00100000
,
00010000
00000000
00100000
00010000
02200000
00000000
03300000
00000000
00100000
00000000
00000000
00000000
00010000
00000000
10000000
00000000
,
01000000
00000000
00000000
00000000
00010000
00000000
10000000
00000000
01000000
00000000
00000000
00000000
01100000
01000000
00100000
01000000
,
00100000
01000000
00100000
01000000
10000000
01000000
00100000
00010000
,
01000000
00000000
00100000
00000000
01000000
00000000
10000000
00000000
01000000
00000000
00100000
00000000
00010000
10000000
00010000
10000000
,
00010000
00000000
00000000
00000000
00000000
00000000
00000000
00000000
00000000
00000000
00000000
00000000
00000000
00000000
00000000
00000000
01000000
00000000
00000000
00000000
00000000
00000000
00000000
00000000
00000000
00000000
00000000
00000000
00000000
00000000
00000000
00000000
00100000
00000000
00000000
00000000
00000000
00000000
00000000
00000000
00010000
00000000
00000000
00000000
00000000
00000000
00000000
00000000
00000000
00000000
00100000
00000000
00000000
00000000
01000000
00000000
10000000
00000000
00000000
00000000
01000000
00100000
01000000
10000000
,
40040000
00000000
00000000
00000000
00000000
00000000
00000000
00000000
00000000
00000000
00000000
00000000
00000000
00000000
00000000
00000000
00000000
00000000
00000000
00000000
00000000
00000000
00000000
00000000
00000000
00000000
00000000
00000000
00000000
00000000
00000000
00000000
00000000
00000000
00000000
00000000
00000000
00000000
00000000
00000000
00000000
00000000
00000000
00000000
00000000
00000000
00000000
00000000
00000000
00000000
00000000
00000000
00000000
00000000
00000000
00000000
00000000
00000000
00000000
00000000
00000000
00000000
00000000
00000000
00000000
00000000
00000000
00000000
00000000
00000000
00000000
00000000
00000000
00000000
00000000
00000000
00000000
00000000
00000000
00000000
00000000
00000000
00000000
00000000
00000000
00000000
00000000
00000000
00000000
00000000
00000000
00000000
00000000
00000000
00000000
00000000
00000000
00000000
00000000
00000000
00000000
00000000
00000000
00000000
00000000
00000000
00000000
00000000
00000000
00000000
00000000
00000000
00000000
00000000
00000000
00000000
00000000
00000000
00000000
00000000
00000000
00000000
00000000
00000000
00000000
00000000
00000000
00000000
00000000
00000000
00000000
00000000
00000000
00000000
00000000
00000000
00000000
00000000
00000000
00000000
00000000
00000000
00000000
00000000
30030000
00000000
00000000
00000000
00000000
00000000
00000000
00000000
00000000
00000000
00000000
00000000
00000000
00000000
00000000
00000000
00000000
00000000
00000000
00000000
00000000
00000000
00000000
00000000
00000000
01100000
00000000
00000000
00000000
00000000
00000000
00000000
00000000
00000000
00000000
00000000
01000000
00000000
00000000
00000000
00000000
00000000
00000000
00000000
00000000
00000000
00000000
00000000
,
00100000
00000000
01000000
00000000
10000000
00000000
01000000
10000000
01000000
00000000
00100000
01000000
00100000
01000000
00100000
00000000
,
02000000
00000000
03000000
00000000
01000000
00000000
00100000
01000000
00100000
01000000
00100000
00000000
00010000
00000000
01000000
00010000
,
01000000
00000000
10000000
01000000
00100000
10000000
01000000
00000000
00200000
00000000
00300000
00000000
10000000
00000000
01000000
10000000
,
01000000
10000000
01000000
00000000
00100000
01000000
00100000
01000000
00100000
00000000
00010000
01000000
00010000
01000000
00010000
00000000
,
02000000
00000000
03000000
00000000
20020000
00000000
30030000
01000000
10000000
01000000
01000000
00000000
00100000
00000000
01000000
00010000
,
00200000
00000000
00300000
10000000
00010000
10000000
00010000
00000000
01000000
00000000
01000000
10000000
02000000
00000000
03000000
01000000
,
00100000
00010000
00100000
00000000
01000000
00000000
00100000
00000000
01100000
00000000
01000000
00000000
00100000
00000000
01000000
00000000
,
00100000
00000000
00010000
00000000
10010000
00000000
00100000
00000000
10000000
00000000
01000000
00000000
00010000
10000000
00010000
00000000
,
01100000
00000000
01000000
00000000
00100000
00000000
10000000
00000000
01000000
00100000
00010000
00100000
11000000
01000000
00100000
01000000
,
10000000
00100000
10110000
01000000
00100000
00010000
01000000
10000000
00200000
00000000
10000000
00000000
01000000
00000000
10000000
00000000
,
01000000
00000000
10000000
01000000
10000000
01000000
10000000
00000000
,
01000000
00000000
10300000
00000000
02000000
00000000
00010000
00100000
,
00010000
00000000
00100000
00010000
00100000
00010000
00100000
00000000
,
00010000
00000000
03100000
00000000
00200000
10000000
01000000
10000000
,
01000000
00000000
10000000
01000000
10000000
01000000
10000000
00000000
,
01000000
00000000
10300000
00000000
00020000
00000000
01000000
10000000
,
01000000
00000000
00000000
00000000
10000000
00000000
01000000
00100000
,
01000000
00000000
10030000
00000000
01000000
00000000
00100000
01000000
,
00200000
00300000
00200000
00300000
00010000
00000000
00010000
00001000
,
00020000
00030000
00002000
00003000
00000100
00000000
00000010
00000001
,
00000020
00000030
00000200
00000300
00000020
00000030
00000100
00000010
,
00000200
00000300
00000010
00000000
00000100
00000010
00000001
00000110
,
00001000
00000100
00000010
00001000
00000100
00000010
00000001
00000010
,
00000100
00001000
00000100
00000010
00000001
00000100
00000010
00001000
,
00000100
00000000
00000000
00000000
00000000
00000000
00000000
00000000
00000001
00000000
00000000
00000000
00000000
00000000
00000000
00000000
00000010
00000000
00000000
00000000
00000000
00000000
00000000
00000000
00000000
00000000
00000000
00000000
00000000
00000000
00000000
00000000
00002002
00000000
00000000
00000000
00000000
00000000
00000000
00000000
00003003
00001000
00000001
00001000
00000001
00000000
00000000
00000000
00001001
00000000
00000000
00000000
00000000
00000000
00000000
00000000
00000100
00000000
00000000
00000000
00000000
00000000
00000000
00000000
,
00000010
00000100
00000020
00000030
00000010
00001000
00000100
00000010
,
00000002
00000003
00000200
00000300
00000020
00000030
00002200
00003300
,
00000100
00001000
00000200
00000300
00000010
00000100
00000010
00000100
,
00000200
00000300
00000001
00000100
00002000
00003000
00000220
00000330
,
00000010
00000100
00000020
00000030
00000001
00000100
00000010
00001000
,
00000200
00000300
00000020
00000030
00002000
00003000
00000202
00000303
,
00000100
00000001
00000010
00000100
00000010
00000200
00000300
00000010
,
00000100
00000010
00000100
00000010
00000001
00000010
0000M22M
00000330
,
00000100
00000100
00002000
00003000
00001000
00001000
00000100
00001000
,
00000200
00000300
00001000
00000100
00000200
00000300
00002200
00003300
,
00001000
00000100
00002000
00003000
00000100
00001000
00000100
00001000
,
00000200
00000300
00000010
00000100
00000020
00000030
00002020
00003030
,
00000010
00000100
00000020
00000030
00000100
00000001
00001000
00000001
,
00000200
00000300
00000020
00000030
00000200
00000300
00002002
00003003
,
00000010
00000100
00000010
00000001
00000100
00000020
00000030
00001000
,
00000220
00000330
00002002
00003003
00000220
00000330
00002000
00003000
,
00000100
00001000
00000200
00000300
00001000
00000100
00000200
00000300
,
00002000
00003000
00000110
00000000
00001100
00000000
00011000
00000000
,
00010000
00100000
02000000
03000000
00010000
01000000
00010000
10000000
,
00010000
00000000
01000000
00100000
02000000
03000000
02200000
03300000
,
00010000
00100000
01000000
00000000
10000000
00100000
01000000
00010000
,
20000000
30000000
00100000
01000000
00200000
00300000
20020000
30030000
,
01000000
00100000
01000000
00100000
10000000
00200000
00300000
01000000
,
00010000
01000000
00010000
01000000
00010000
01000000
00220000
00330000
,
00100000
01000000
00200000
00300000
00010000
00100000
10000000
00100000
,
00010000
02000000
23000000
00000000
30020000
00030000
02200000
03300000
,
01000000
10000000
02000000
03000000
00100000
01000000
00100000
01000000
,
00100000
00010000
00020000
00000000
20030000
30000000
01100000
01000000
,
00100000
10000000
01000000
00100000
01000000
00010000
00100000
01000000
,
10000000
01000000
02000000
00000000
03100000
00000000
00100000
01000000
,
00100000
10000000
00100000
01000000
00010000
20000000
30000000
01100000
,
01000000
00100000
01000000
00100000
02000000
03000000
04400000
00000000
,
00000000
00000000
00000000
00000000
,
00000000
00000000
00000000
00000000
,
03300000
00000000
00000000
00000000
00000000
00000000
00000000
00000000
01000000
00100000
01000000
00100000
20020000
00000000
00000000
00000000
,
00000000
00000000
00000000
00000000
,
00000000
00000000
00000000
00000000
,
30030000
00000000
00000000
00000000
;
