#VERSION:0.83;
#TITLE:The Climb;
#SUBTITLE:;
#ARTIST:Miley Cyrus;
#TITLETRANSLIT:;
#SUBTITLETRANSLIT:;
#ARTISTTRANSLIT:;
#GENRE:Pop;
#CREDIT:Wrland;
#MUSIC:The Climb.ogg;
#BANNER:The Climb.png;
#BACKGROUND:BG.png;
#LYRICSPATH:The Climb.lrc;
#PREVIEWVID:preview.mp4;
#CDTITLE:Hannah Montana The Movie.png;
#SAMPLESTART:42.471;
#SAMPLELENGTH:12.000;
#SELECTABLE:YES;
#OFFSET:0.013;
#BPMS:0.000=80.500;
#STOPS:;
#DISPLAYBPM:80.000;
#METERTYPE:DDR X;
#JACKET:The Climb-jacket.png;
#CDIMAGE:The Climb-cd.png;
#BGCHANGES:0.000=The Climb.avi=0.000=0=0=0=StretchNoLoop====,
99999=-nosongbg-=1.000=0=0=0 // don't automatically add -songbackground-
;
#FGCHANGES:;

//--------------- dance-single - Wrland ----------------
#NOTEDATA:;
#STEPSTYPE:dance-single;
#DESCRIPTION:Wrland;
#DIFFICULTY:Beginner;
#METER:2;
#RADARVALUES:0,0,0,0,0;
#NOTES:
0000
0000
0000
0000
,
0000
0000
0000
0000
,
0000
1000
0000
1000
,
0000
0100
0000
0010
,
0000
0001
0000
0010
,
0000
0100
0000
1000
,
0000
0100
0000
1000
,
0000
0100
0000
0010
,
0000
0001
0000
0001
,
0000
0100
0000
0010
,
0000
0100
0000
1000
,
0000
1000
0000
0100
,
0000
1000
0000
0010
,
0000
0000
2002
0000
0000
3003
0000
0000
1000
0000
0000
0000
0100
0000
0000
0000
,
1000
0100
0000
0100
,
0000
0010
0000
0010
,
0000
0001
0000
0100
,
0000
0010
0000
0100
,
0000
1000
0000
0100
,
0000
0010
0000
0001
,
0000
0100
0000
0100
,
0000
1000
0000
0100
,
0000
0010
0000
0100
,
0000
1000
0000
0100
,
0000
0010
0000
0001
,
0000
0100
0000
0010
,
0000
0100
0000
1000
,
0000
0100
0000
0010
,
0100
0010
0000
0001
,
0000
0010
0100
1000
,
0100
1000
0000
1000
,
0000
0100
0000
0010
,
0000
0001
0000
0100
,
0000
0010
0000
0100
,
0000
2002
0000
0000
,
3003
0000
0000
0000
;

//--------------- dance-single - Wrland ----------------
#NOTEDATA:;
#STEPSTYPE:dance-single;
#DESCRIPTION:Wrland;
#DIFFICULTY:Easy;
#METER:4;
#RADARVALUES:0,0,0,0,0;
#NOTES:
0000
0000
0000
0000
,
0000
0000
0000
0000
,
0000
1000
1000
1000
,
0100
0001
0010
0100
,
1000
0100
0010
0001
,
0010
0100
0010
0100
,
0010
0001
0010
0100
,
1000
0100
1000
0100
,
0010
0001
0010
0100
,
1000
0100
1000
0100
,
0010
0101
0010
1010
,
0100
1010
0100
0110
,
0010
0000
0001
0000
0010
0000
0001
0010
,
0000
0100
1000
0100
2000
3000
0100
0010
,
0100
0000
0100
1000
0100
0000
0100
0010
,
0001
0100
0000
0010
0100
0000
0001
0100
,
0001
0000
0010
0100
0010
0000
0001
0100
,
1000
0100
0000
1000
0100
1000
0100
0010
,
0100
0000
0100
0010
0100
0000
0010
0001
,
0010
0100
0000
0100
1000
0100
0010
0001
,
0100
0010
1010
0000
0100
0000
0101
0000
,
0010
0011
0001
1001
,
1000
0100
1000
0000
0100
0000
0010
0000
,
0100
0010
0001
0100
,
0010
0100
1000
0100
,
0010
0001
0100
0010
,
0100
0010
0001
0100
,
1000
0100
1000
0100
,
0010
0001
0100
0010
,
0100
1000
0100
0010
,
0001
0000
0100
0010
0100
0000
0001
0000
,
0100
0000
0001
0010
0100
0000
1000
0000
,
0100
0000
1000
0100
0010
0000
0001
0000
,
0010
0100
1000
0100
,
0010
2002
0000
0000
,
3003
0000
0000
0000
;

//--------------- dance-single - Wrland ----------------
#NOTEDATA:;
#STEPSTYPE:dance-single;
#DESCRIPTION:Wrland;
#DIFFICULTY:Medium;
#METER:7;
#RADARVALUES:0,0,0,0,0;
#NOTES:
0000
0000
0000
0000
,
0000
0000
0000
0000
,
0000
0000
1000
0100
1000
0100
0020
0030
,
0001
0000
0000
0000
0001
0000
0100
0000
0001
0000
0100
0000
0002
0000
0000
0003
,
0100
0000
0010
0100
0010
0100
1000
0100
,
1000
0100
0000
0010
0100
0010
0001
0100
,
0010
0000
0100
1000
0100
1000
0200
0300
,
0010
0000
0001
0100
0001
0100
0002
0003
,
0010
0100
0000
1000
0100
1000
0100
0010
,
0001
0000
0100
0000
0000
0000
0010
0000
0100
0000
0010
0000
0002
0000
0000
0003
,
0100
0000
1000
0000
0220
0000
0330
0000
0001
0000
0100
0000
0220
0000
0000
0330
,
0001
0010
0022
0033
1000
0100
2200
3300
,
0100
1000
0200
0300
0020
0030
0001
0100
,
0010
0220
0330
1000
0100
1000
0100
0010
,
0002
0000
0003
0000
0001
0000
0100
0001
0100
0000
0010
0000
0100
0000
1000
0000
,
0100
0000
2000
0000
3000
0000
1000
0100
1000
0000
0100
0000
0010
0000
0001
0000
,
0200
0000
0300
0000
0010
0000
0001
0100
0001
0000
0100
0000
0010
0000
0100
0000
,
0010
0000
0002
0003
1000
0000
0100
1000
0100
0000
0100
0000
1000
0000
0100
0000
,
0020
0000
0000
0030
0100
0000
1000
0100
1000
0000
0100
0000
0010
0000
0001
0000
,
0100
0000
0020
0000
0030
0000
0001
0010
0001
0000
0010
0000
0100
0000
0010
0000
,
0001
0000
0100
0000
0202
0000
0000
0303
0010
0000
0100
0000
2200
0000
3300
0000
,
1000
0000
0100
0000
0220
0000
0000
0330
0001
0000
0100
0000
0220
0000
0330
0000
,
0100
0000
0010
0100
0010
0000
0001
0000
0100
0000
0001
0000
0100
0000
0010
0000
,
1000
0100
1000
0100
0010
0001
0100
0010
,
0100
0010
0000
0001
0000
1000
0100
0000
1000
0000
0100
0000
0010
0000
0001
0000
,
0100
0010
0100
1000
0100
1000
0100
0010
,
0001
0000
0100
0000
2200
0000
3300
0000
0100
0000
0010
0000
0220
0000
0000
0330
,
0001
2200
3300
0100
0010
0001
0100
0010
,
0001
0100
0010
0100
0010
0001
0100
1000
,
0100
0000
1000
0100
0000
0000
0100
0010
0000
0000
0001
0100
0000
0000
0010
0100
,
0000
0000
0010
0100
0010
0000
0100
0000
0010
0000
0001
0000
0100
0000
1000
0000
,
0100
1000
0100
0010
0001
0100
0010
0001
,
0100
0010
0100
1000
0100
1000
0100
0010
,
0001
0000
0100
0000
0010
0000
0100
0010
0100
0000
0010
0001
0100
0000
0001
1000
,
0100
1000
2002
0000
0000
0000
0000
0000
,
3003
0000
0000
0000
;

//--------------- dance-single - Wrland ----------------
#NOTEDATA:;
#STEPSTYPE:dance-single;
#DESCRIPTION:Wrland;
#DIFFICULTY:Hard;
#METER:9;
#RADARVALUES:0,0,0,0,0;
#NOTES:
0000
0000
0000
0000
,
0000
0000
0000
0000
1000
0000
0100
0000
1000
0000
0100
0000
0010
0000
0001
0100
,
0001
0000
0010
0100
0010
0000
0100
0010
1001
0100
0100
0000
0020
0030
0200
0300
,
0220
0330
0001
0000
0100
0000
0010
0000
1000
0001
0200
0300
0020
0030
0200
0300
,
1000
0000
1100
0000
0100
0000
0010
0000
0001
0100
0001
0000
0010
0000
0100
0000
,
1000
0000
2200
0000
3300
0000
0100
0000
0001
0100
0001
0000
0010
0000
0100
0000
,
2200
3300
0100
0010
0001
0100
2200
3300
,
0022
0000
0033
0000
0001
0000
0100
0000
0010
0100
0010
0000
0002
0003
0200
0300
,
0020
0030
2200
0000
3300
0000
0100
0000
1000
0100
0001
0010
0200
0300
0020
0030
,
0200
0300
0020
0000
0030
0000
0001
0000
0010
0001
0010
0000
0100
0000
1000
0000
,
0010
0000
0100
0000
0220
0330
0001
0000
0202
0303
0010
0000
2200
3300
0100
0000
,
0220
0330
0001
0000
0202
0303
0010
0000
2200
3300
0100
0000
2200
3300
0100
0000
,
0220
0330
0001
0000
0202
0000
0303
0000
2020
0000
3030
0000
0101
0000
0220
0000
,
0330
0000
1000
0000
0100
0000
0010
0000
0001
0000
0100
0001
0100
0010
0100
0010
,
2002
0000
3003
0000
0100
0000
1000
0100
1000
0000
0100
0010
0002
0003
0200
0300
,
0020
0030
0002
0003
0100
0000
0010
0100
0010
0000
0001
0100
0002
0003
2000
3000
,
2200
3300
0100
0000
0010
0000
0100
0010
0001
0100
0010
1000
0200
0300
0020
0030
,
0100
0000
0220
0330
0001
0000
0100
0001
0100
0001
0010
0100
0020
0030
0200
0300
,
0220
0330
0010
0000
0001
0000
0100
0010
0100
0000
1000
0100
1000
0000
0100
0000
,
0001
0000
0101
0000
0010
0000
0100
0010
0100
0000
1000
0000
0100
0000
0010
1000
,
0001
0000
0100
0000
2200
3300
0010
0000
0220
0330
0001
0000
0202
0303
0001
0000
,
0220
0330
0100
0000
2200
3300
0010
0000
0220
0330
0100
0000
0022
0033
0100
0010
,
1000
0010
0100
1000
0010
0000
0100
0000
0010
0000
0001
0000
0100
0000
0010
1000
,
0010
0000
0100
0001
0100
0000
0001
1000
0010
0000
0100
0000
0010
0000
0100
0000
,
0010
0100
0000
0001
0000
0100
0001
0000
1000
0000
0010
0000
0100
0000
0010
1000
,
0010
0100
0100
1000
0010
0100
0001
0010
,
0001
0010
0000
0002
0003
0100
1000
0010
0001
0100
0010
0200
0300
0010
0100
0010
,
0001
1000
0200
0300
0001
1000
0020
0030
0100
0000
0020
0030
0100
0010
0001
0000
,
0020
0030
0100
0000
1100
0000
0100
0000
0110
0000
0001
0000
0101
0000
0010
0000
,
0110
0000
1000
0200
0000
0300
0010
0200
0000
0300
0001
0200
0000
0300
0010
0200
,
0000
0300
0001
0100
0010
0000
0100
0000
1000
0100
1000
0000
0100
0000
0001
0000
,
0100
0001
0100
0000
0010
0000
0100
0000
0010
0000
0001
0000
0100
0000
0010
0000
,
1000
0000
0100
0000
1100
0000
0101
0000
0101
0000
0010
0100
0010
0000
0001
0000
,
0100
0000
0010
1000
0100
0000
1000
0000
0100
0000
0010
0000
0001
0000
0100
0010
,
0100
0000
0010
0001
2002
0000
0000
0000
0000
0000
0000
0000
0000
0000
0000
0000
,
3003
0000
0000
0000
;
