#VERSION:0.83;
#TITLE:Te Quise Tanto;
#SUBTITLE:;
#ARTIST:Paulina Rubio;
#TITLETRANSLIT:;
#SUBTITLETRANSLIT:;
#ARTISTTRANSLIT:;
#GENRE:Latin;
#ORIGIN:;
#CREDIT:;
#BANNER:Te Quise Tanto.png;
#BACKGROUND:Te Quise Tanto-bg.png;
#PREVIEWVID:;
#JACKET:Te Quise Tanto-jacket.png;
#CDIMAGE:Te Quise Tanto-cd.png;
#DISCIMAGE:;
#LYRICSPATH:;
#CDTITLE:Wrland Season 3 CITYGHT.png;
#MUSIC:Te Quise Tanto.ogg;
#OFFSET:0.000000;
#SAMPLESTART:67.315002;
#SAMPLELENGTH:20.000000;
#SELECTABLE:YES;
#DISPLAYBPM:136.000000;
#BPMS:0.000=125.000,
1.000=140.000,
2.000=137.000,
3.000=254.000,
5.000=297.000,
6.000=136.000;
#STOPS:;
#DELAYS:;
#WARPS:;
#TIMESIGNATURES:0.000=4=4;
#TICKCOUNTS:0.000=4;
#COMBOS:0.000=1;
#SPEEDS:0.000=1.000=0.000=0;
#SCROLLS:0.000=1.000;
#FAKES:;
#LABELS:0.000=Song Start;
#BGCHANGES:0.000=Te Quise Tanto.avi=1.000=0=0=0=StretchNoLoop====,
99999.000=-nosongbg-=1.000=0=0=0=StretchNoLoop====,
99999=-nosongbg-=1.000=0=0=0 // don't automatically add -songbackground-
;
#KEYSOUNDS:;
#ATTACKS:
;

//---------------dance-single - by Wrland----------------
#NOTEDATA:;
#CHARTNAME:by Wrland;
#STEPSTYPE:dance-single;
#DESCRIPTION:by Wrland;
#CHARTSTYLE:;
#DIFFICULTY:Beginner;
#METER:7;
#RADARVALUES:0.325766,0.428537,0.046538,0.193908,0.197786,294.000000,288.000000,6.000000,25.000000,0.000000,0.000000,0.000000,0.000000,0.000000,0.325766,0.428537,0.046538,0.193908,0.197786,294.000000,288.000000,6.000000,25.000000,0.000000,0.000000,0.000000,0.000000,0.000000;
#CREDIT:by Wrland;
#DISPLAYBPM:136.000000;
#NOTES:
0000
0000
0000
0000
,
0000
0000
0000
0000
,
0000
0000
0000
0000
,
0000
0000
0000
0000
,
0000
0000
0000
0000
,
0000
0000
0000
0000
,
0000
0000
0000
0000
,
0000
0000
1000
0001
,
0100
0000
0010
0001
0200
0000
0300
0000
,
0100
0001
0010
1000
0100
0010
0001
0100
,
0010
0000
0100
0020
0000
0030
0000
0000
,
0010
0000
0100
0000
0010
0000
0100
0000
0010
0000
0000
0001
0000
0000
1000
0000
,
0100
0000
0000
0010
0000
0000
0100
0000
0010
0000
0000
0001
0000
0000
0100
0000
,
0010
0000
0000
0010
0000
0000
0100
0000
1000
0000
0000
0010
0000
0000
0100
0000
,
0000
0020
0000
0030
0010
0001
0010
0010
,
0001
0010
0010
1000
0001
0010
0100
0001
,
0020
0030
0100
0020
0000
0030
0100
0000
,
0010
0100
0010
0001
1000
0100
0010
0001
,
0020
0030
0100
0010
0020
0000
0030
0000
,
0100
0000
1000
0000
0010
0000
0100
0000
0001
0000
0000
0010
0000
0000
0100
0000
,
0010
0000
0000
0100
0000
0000
0010
0000
0100
0000
0000
0010
0000
0000
0001
0000
,
1000
0000
0000
0100
0000
0000
0010
0000
0100
0000
0000
1000
0000
0000
0100
0000
,
0020
0030
0110
0100
,
0010
0000
0001
0010
0000
0100
0000
1000
,
0100
0000
0000
0010
0000
0000
0100
0000
0010
0000
0000
0001
0000
0000
0100
0000
,
0010
0000
0000
0001
0000
0000
0001
0000
0010
0000
0000
0000
0200
0000
0000
0000
,
0300
0200
0300
0010
,
0100
0000
0010
0100
0000
0010
0000
0100
,
0010
0000
0000
0001
0000
0000
0100
0000
0010
0000
0000
1000
0000
0000
0100
0000
,
0010
0000
0000
0100
0000
0000
0001
0000
0000
0000
0020
0000
0000
0000
0030
0000
,
0000
0100
0010
0100
,
0010
0000
0001
0010
0000
0100
0000
1000
,
0100
0000
0000
0010
0000
0000
0001
0000
0100
0000
0000
0000
0010
0000
0000
0000
,
0100
0000
0000
0000
0010
0000
0000
0000
0010
0000
0000
0001
0000
0000
1000
0000
,
0100
0000
0000
0100
0000
0000
0001
0000
0010
0000
0000
0010
0000
0000
0001
0000
,
0100
0000
0000
0010
0000
0000
0001
0000
1000
0000
0000
0000
0010
0000
0001
0000
,
0100
0000
0000
0100
0000
0000
0010
0000
0100
0000
0000
0010
0000
0000
0100
0000
,
0010
0000
0000
0001
0000
0000
0020
0000
0030
0000
0100
0000
0001
0000
0010
0000
,
0002
0003
0010
0000
1001
0000
0010
0000
,
0100
0000
0010
0100
0000
0010
0000
1000
,
0100
0000
0000
0010
0000
0000
0100
0000
0010
0000
0000
0100
0000
0000
0001
0000
,
0100
0000
0000
0010
0000
0000
0100
0000
0001
0000
0000
0000
0020
0000
0000
0000
,
0030
0010
0001
0010
,
0001
0000
0010
0001
0000
0010
0000
0100
,
0010
0000
0000
0100
0000
0000
0010
0000
0100
0000
0000
0001
0000
0000
0010
0000
,
0010
0000
0000
1000
0000
0000
0100
0000
0000
0000
0001
0000
0010
0000
0001
0000
,
0020
0030
0020
0030
0100
0000
0010
0000
,
0100
0000
1000
0100
0000
1000
0000
0100
,
1000
0000
0000
0100
0000
0000
0010
0000
0100
0000
0000
0000
0010
0000
0000
0000
,
0001
0000
0000
0000
0010
0000
0000
0000
0100
0000
0000
0010
0000
0000
0100
0000
,
0010
0000
0000
0001
0000
0000
0010
0000
0100
0000
0000
1000
0000
0000
0100
0000
,
1000
0000
0000
0100
0000
0000
0010
0000
0100
0000
0000
0000
0100
0000
0010
0000
,
0010
0000
0000
0100
0000
0000
0010
0000
0001
0000
0000
0100
0000
0000
1000
0000
,
1000
0000
0000
0100
0000
0000
0200
0000
0300
0000
0000
0010
0000
0000
0000
0000
,
0200
0300
0001
0000
0011
0000
0000
0000
,
0100
0000
0000
0000
0100
0000
0000
0000
0010
0000
0000
0100
0000
0000
0010
0000
,
0100
0000
0000
1000
0000
0000
0100
0000
0010
0000
0000
0001
0000
0000
0100
0000
,
0010
0000
0000
0001
0000
0000
0200
0000
0300
0000
0000
0000
0200
0000
0300
0000
,
0020
0030
0110
0000
,
1000
0000
0000
0000
0001
0000
0000
0000
1000
0000
0000
0001
0000
0000
1000
0000
,
0001
0000
0000
1000
0000
0000
0100
0000
0010
0000
0000
0100
0000
0000
0010
0000
,
0100
0000
0000
0010
0000
0000
0200
0000
0300
0000
0000
0000
0020
0000
0030
0000
,
0100
0010
0001
0010
1000
0100
0010
0001
0220
0000
0000
0000
0000
0000
0000
0000
,
0000
0000
0000
0000
,
0000
0000
0000
0330
,
1001
0000
0000
0000
;

//---------------dance-single - by Wrland----------------
#NOTEDATA:;
#CHARTNAME:by Wrland;
#STEPSTYPE:dance-single;
#DESCRIPTION:by Wrland;
#CHARTSTYLE:;
#DIFFICULTY:Easy;
#METER:10;
#RADARVALUES:0.364547,0.453745,0.023269,0.186152,0.224933,329.000000,326.000000,3.000000,24.000000,0.000000,0.000000,0.000000,0.000000,0.000000,0.364547,0.453745,0.023269,0.186152,0.224933,329.000000,326.000000,3.000000,24.000000,0.000000,0.000000,0.000000,0.000000,0.000000;
#CREDIT:by Wrland;
#DISPLAYBPM:136.000000;
#NOTES:
0000
0000
0000
0000
,
0000
0000
0000
0000
,
0000
0000
0000
0000
,
0000
0000
0000
0000
,
0000
0000
0000
0000
,
0000
0000
0000
0000
,
0000
0000
0000
0000
,
0000
0000
0000
1000
0000
1000
0100
1000
,
0200
0300
0100
0020
0000
0030
0000
0000
,
0100
0010
0100
0010
0100
0010
0001
0010
,
0200
0300
1000
0200
0000
0300
0000
0000
,
0100
0000
1000
0000
0100
0000
0010
0000
0100
0000
0000
0010
0000
0000
0100
0000
,
0010
0000
0000
0100
0000
0000
0010
0000
0001
0000
0000
0100
0000
0000
0010
0000
,
0100
0000
0000
1000
0000
0000
0100
0000
0010
0000
0000
0100
0000
0000
0020
0000
,
0030
0200
0000
0300
0010
0010
0010
0100
,
0000
0100
0100
0010
0100
0010
0001
0100
,
0020
0030
1000
0200
0000
0300
0000
0000
,
0100
1000
0100
0010
0001
0100
0010
1000
,
0200
0300
1000
0200
0000
0300
0000
0000
,
0100
0000
0010
0000
1000
0000
0100
0000
0010
0000
0000
0001
0000
0000
0100
0000
,
0010
0000
0000
0100
0000
0000
0010
0000
0100
0000
0000
1000
0000
0000
0100
0000
,
1000
0000
0000
0100
0000
0000
0010
0000
0100
0000
0000
0010
0000
0000
0001
0000
,
0200
0300
1001
0100
,
0010
0000
0100
0010
0000
0100
0000
1000
,
0100
0000
0000
1000
0000
0000
0100
0000
0010
0000
0000
0001
0000
0000
0100
0000
,
0010
0000
0000
0100
0000
0000
0010
0000
0002
0000
0003
0000
0200
0000
0300
0000
,
0010
0100
0010
0100
0000
0000
0010
0000
,
0001
0000
0010
0100
0000
1000
0000
0100
,
0010
0000
0000
0100
0000
0000
0010
0000
0100
0000
0000
1000
0000
0000
0100
0000
,
0010
0000
0000
0001
0000
0000
0020
0000
0030
0000
0100
0000
0001
0000
0010
0000
,
0100
0010
0100
0010
0100
0000
0100
0000
,
0010
0001
1000
0010
0100
0000
0010
0000
0000
0000
0001
0000
0000
0000
0100
0000
,
0010
0000
0000
1000
0000
0000
0100
0000
1000
0000
0000
0000
0100
0000
0000
0000
,
0010
0000
0000
0000
0100
0000
0000
0000
0010
0000
0000
0100
0000
0000
0010
0000
,
0001
0000
0000
0010
0000
0000
0100
0000
1000
0000
0000
0100
0000
0000
0010
0000
,
0100
0000
0000
0010
0000
0000
0001
0000
0100
0000
0000
0000
1000
0000
0100
0000
,
0010
0000
0000
0100
0000
0000
0010
0000
0100
0000
0000
1000
0000
0000
0100
0000
,
1000
0000
0000
0100
0000
0000
0100
0000
0000
0000
0010
0000
1000
0000
0001
0000
,
0100
0010
0100
0010
0001
0100
1000
0010
,
0100
0000
1000
0200
0300
1000
0000
0100
,
0010
0000
0000
0100
0000
0000
0010
0000
0100
0000
0000
0010
0000
0000
0001
0000
,
1000
0000
0000
0100
0000
0000
0010
0000
0100
0000
0000
0000
0200
0000
0300
0000
,
1000
0100
1000
0100
0000
0000
0100
0000
,
0010
0000
0001
0100
0000
0010
0000
0100
,
0010
0000
0000
0100
0000
0000
1000
0000
0100
0000
0000
0010
0000
0000
0100
0000
,
0100
0000
0000
0010
0000
0000
0002
0000
0003
0000
0100
0000
0010
0000
0100
0000
,
0010
0001
0100
0010
1000
0010
0100
0001
,
0100
0010
0100
0010
0100
0000
0010
0000
0000
0000
0100
0000
0000
0000
0010
0000
,
0100
0000
0000
1000
0000
0000
0100
0000
1000
0000
0000
0000
0100
0010
0001
0010
,
1000
0000
0000
0000
0100
0000
0000
0000
0010
0000
0000
0001
0000
0000
0100
0000
,
0010
0000
0000
0100
0000
0000
0010
0000
1000
0000
0000
0100
0000
0000
0010
0000
,
0100
0000
0000
0010
0000
0000
0100
0000
0010
0000
0000
0000
0001
0000
0010
0000
,
0100
0000
0000
1000
0000
0000
0100
0000
0010
0000
0000
1000
0000
0000
0100
0000
,
0010
0000
0000
0100
0000
0000
0020
0000
0030
0000
0000
0000
0100
0010
1000
0001
,
0010
1000
0100
0010
0100
0010
0001
0100
,
1000
0000
0000
0000
0100
0000
0000
0000
0010
0000
0000
0100
0000
0000
0010
0000
,
0100
0000
0000
0010
0000
0000
1000
0000
0001
0000
0000
0100
0000
0000
0010
0000
,
1000
0000
0000
0100
0000
0000
0010
0000
0000
0000
0000
0000
0200
0000
0300
0000
,
0020
0030
0001
0010
0100
1000
0100
0010
,
0001
0000
0000
0000
0100
0000
0000
0000
0010
0000
0000
0100
0000
0000
0010
0000
,
0001
0000
0000
0100
0000
0000
1000
0000
0100
0000
0000
0010
0000
0000
0100
0000
,
0010
0000
0000
0001
0000
0000
0200
0000
0300
0000
0000
0000
0020
0000
0030
0000
,
0100
0010
0100
1000
0100
0010
0001
0100
2002
0000
0000
0000
0000
0000
0000
0000
,
0000
0000
0000
0000
,
0000
0000
0000
3003
,
1001
0000
0000
0000
;

//---------------dance-single - by Wrland----------------
#NOTEDATA:;
#CHARTNAME:by Wrland;
#STEPSTYPE:dance-single;
#DESCRIPTION:by Wrland;
#CHARTSTYLE:;
#DIFFICULTY:Medium;
#METER:13;
#RADARVALUES:0.477568,1.126219,0.054294,1.714148,0.457623,431.000000,424.000000,7.000000,221.000000,0.000000,0.000000,0.000000,0.000000,0.000000,0.477568,1.126219,0.054294,1.714148,0.457623,431.000000,424.000000,7.000000,221.000000,0.000000,0.000000,0.000000,0.000000,0.000000;
#CREDIT:by Wrland;
#DISPLAYBPM:136.000000;
#NOTES:
0000
0000
0000
0000
,
0000
0000
0000
0000
,
0000
0000
0000
0000
,
0000
0000
0000
0000
,
0000
0000
0000
0000
,
0000
0000
0000
1000
0001
1000
0001
0000
0010
0000
0000
0010
0200
0000
0300
0000
,
0010
0000
0100
0000
0010
0000
0200
0000
0000
0300
0000
0000
0000
0000
0100
0000
0010
0000
1000
0000
0100
0000
0010
0000
,
0001
0000
0100
0000
0010
0000
0100
0000
0010
0000
1000
0000
0010
0000
0000
0100
0000
0000
0010
0000
0000
0100
0000
0000
,
2000
3000
0100
0020
0000
0000
0030
0000
,
0100
0010
0001
0100
1000
0100
0010
0001
,
0200
0300
0010
0200
0000
0000
0300
0000
,
0100
0000
0010
0000
0001
0000
1000
0000
0200
0000
0300
0020
0000
0030
0200
0300
,
2000
0000
3000
0200
0000
0300
0020
0030
2000
0000
3000
0200
0000
0300
2000
3000
,
0200
0000
0300
0020
0000
0030
0002
0003
0200
0000
0300
2000
0000
3000
0200
0000
,
0000
0300
2000
0000
0000
0000
3000
0000
1000
0000
0001
0000
1000
0000
0200
0000
,
0300
0100
0010
0001
0100
1000
0100
0010
,
0002
0003
0100
0020
0030
0010
0200
0300
,
0100
0010
1000
0010
0100
0010
0001
0010
,
2000
3000
0100
0010
0001
0001
0100
0000
,
0010
0000
0100
0000
0010
0000
0001
0000
0200
0000
0300
2000
0000
3000
0200
0300
,
2000
0000
3000
0200
0000
0300
0020
0030
0200
0000
0300
0020
0000
0030
0002
0003
,
0200
0000
0300
2000
0000
3000
0200
0300
0020
0000
0030
0200
0000
0300
0020
0030
,
0001
0010
1000
0001
0010
0100
0010
0001
2002
0000
3003
0000
0200
0000
0300
0000
,
0010
0001
0100
0010
0200
0300
0020
0000
0030
0000
0200
0000
0300
0000
0020
0030
,
0200
0000
0300
0020
0000
0030
0002
0003
0020
0000
0030
2000
0000
3000
0200
0300
,
0020
0000
0030
0002
0000
0003
0200
0300
0020
0000
0000
0030
1000
0000
0100
0000
,
0010
0001
0100
1000
0001
1000
0200
0300
,
0020
0000
0030
0000
0200
0300
0020
0000
0000
0030
0002
0000
0000
0003
0200
0300
,
0020
0000
0030
2000
0000
3000
0100
0000
0200
0000
0300
2000
0000
3000
0200
0300
,
0020
0000
0030
0002
0000
0003
0200
0000
0000
0300
0020
0030
0002
0003
2000
0000
,
0000
3000
0100
0000
0010
0000
0001
0000
0100
0000
0010
0000
0100
0000
0001
0000
,
0010
0001
0100
0010
1000
0000
0200
0000
0000
0300
0020
0000
0000
0030
0200
0300
,
0020
0000
0030
0002
0000
0003
2000
3000
0200
0000
0000
0300
2000
0000
0000
3000
,
0200
0000
0000
0300
2000
0000
0000
3000
0200
0000
0300
0020
0000
0030
0200
0300
,
0020
0000
0030
0002
0000
0003
2000
3000
0200
0000
0300
0020
0000
0030
0200
0300
,
2000
0000
3000
0200
0000
0300
0020
0030
0002
0000
0000
0003
0200
0300
0020
0030
,
2000
0000
3000
0200
0000
0300
0020
0030
0002
0000
0003
0200
0000
0300
0020
0030
,
0200
0000
0300
0020
0000
0030
0020
0000
0000
0030
0100
0000
0010
0000
0100
0000
,
0010
0100
0010
0100
0001
0010
0100
0001
,
0010
0100
0010
0100
1000
0000
0200
0000
0000
0300
0020
0000
0000
0030
0200
0300
,
0020
0000
0030
0002
0000
0003
0200
0300
2000
0000
3000
0200
0000
0300
2000
3000
,
0200
0000
0300
0020
0000
0030
0002
0003
2000
0000
0000
3000
0200
0000
0000
0300
,
0010
0100
0010
0100
0010
0001
0010
0001
0020
0000
0000
0030
0200
0000
0000
0300
,
2000
0000
0000
3000
0200
0300
2000
0000
0000
3000
0200
0000
0000
0300
0200
0300
,
0020
0000
0030
0002
0000
0003
0020
0030
0200
0000
0300
2000
0000
3000
0200
0300
,
0020
0000
0030
0002
0000
0003
0200
0000
0000
0300
0020
0030
0200
0300
0020
0030
,
2000
3000
0002
0003
0200
0300
2000
3000
0200
0300
0020
0030
2000
0000
0000
3000
,
0100
0010
0001
0010
1000
0000
0200
0000
0000
0300
0020
0000
0000
0030
0020
0030
,
0200
0000
0300
2000
0000
3000
0200
0300
0020
0000
0000
0030
0002
0000
0000
0003
,
0200
0000
0000
0300
0020
0000
0000
0030
0200
0000
0300
0200
0000
0300
2000
3000
,
0200
0000
0300
0020
0000
0030
0002
0003
0200
0000
0300
0020
0000
0030
0200
0300
,
2000
0000
3000
0200
0000
0300
0020
0030
0200
0000
0000
0300
2000
3000
0200
0300
,
0020
0000
0030
0200
0000
0300
2000
3000
0200
0000
0300
0020
0000
0030
0002
0003
,
0200
0000
0300
0020
0000
0030
0200
0000
0000
0000
0300
0010
0200
0300
0001
0000
,
0010
0001
0100
0010
0110
0001
0010
0100
,
0020
0000
0000
0030
0200
0000
0000
0300
0022
0000
0033
0200
0000
0300
2000
3000
,
0200
0000
0300
0020
0000
0030
0002
0003
0200
0000
0300
0020
0000
0030
0200
0300
,
0200
0000
0300
2000
0000
3000
0200
0000
0000
0000
0300
1000
0200
0000
0000
0300
,
1000
0000
0001
0000
0100
0000
0010
0000
1001
0000
0100
0010
0001
0000
0100
0000
,
0020
0000
0000
0030
0002
0000
0000
0003
0200
0000
0300
0020
0000
0030
0200
0300
,
0020
0000
0030
0200
0000
0300
2000
3000
0200
0000
0300
0020
0000
0030
0200
0300
,
0020
0000
0030
0002
0000
0003
2000
0000
0000
3000
0001
0100
0001
0000
1000
0001
,
0100
0010
0100
0010
1000
0100
0010
0001
2002
0000
0000
0000
0000
0000
0000
0000
,
0000
0000
0000
0000
0000
0000
0000
0000
3003
0000
0000
0000
0000
0000
0000
0000
1000
0001
1000
0001
1000
0001
1000
0001
1000
0001
1000
0001
1000
0001
1000
0001
,
1000
0001
1000
0001
1000
0001
1000
0001
1000
0001
1000
0001
1000
0001
1000
0001
1000
0001
1000
0001
1000
0001
1000
0001
2002
0000
0000
0000
0000
0000
3003
0000
,
2002
0000
0000
0000
0000
0000
0000
0000
0000
0000
0000
0000
0000
0000
0000
0000
0000
0000
0000
0000
0000
0000
0000
0000
3003
0000
0000
0001
1000
0001
1000
0001
,
1000
0000
0000
0000
;

//---------------dance-single - by Wrland----------------
#NOTEDATA:;
#CHARTNAME:by Wrland;
#STEPSTYPE:dance-single;
#DESCRIPTION:by Wrland;
#CHARTSTYLE:;
#DIFFICULTY:Hard;
#METER:15;
#RADARVALUES:0.541835,1.023835,0.124101,2.140746,0.566212,489.000000,472.000000,16.000000,276.000000,0.000000,1.000000,0.000000,0.000000,0.000000,0.541835,1.023835,0.124101,2.140746,0.566212,489.000000,472.000000,16.000000,276.000000,0.000000,1.000000,0.000000,0.000000,0.000000;
#CREDIT:by Wrland;
#DISPLAYBPM:136.000000;
#NOTES:
// measure 0
0000
0000
0000
0000
,  // measure 1
0000
0000
0000
0000
,  // measure 2
0000
0000
0000
0000
,  // measure 3
0000
0000
0000
0000
,  // measure 4
0000
0000
0000
0000
,  // measure 5
0000
0000
0000
0000
1000
0001
1000
0000
0001
0000
0100
0010
0200
0000
0300
0000
,  // measure 6
0010
0000
0100
0000
0010
0000
0200
0000
0000
0300
0000
0000
0000
0000
0100
0000
0010
0000
0100
0000
0010
0000
0001
0000
,  // measure 7
1000
0000
0000
0000
0100
0000
0000
0000
0010
0000
0000
0000
0001
0000
0000
0000
1000
0000
0000
0000
0100
0000
0000
0000
0020
0000
0000
0030
0000
0000
0002
0000
0000
0003
0000
0000
2000
0000
0000
3000
0000
0000
0002
0000
0000
0003
0000
0000
,  // measure 8
2000
0000
3000
0000
0200
0300
0020
0000
0000
0000
0000
0000
0030
0000
0000
0000
,  // measure 9
0200
0300
0020
0030
0200
0300
0020
0030
0002
0003
0200
0300
2000
3000
0200
0300
,  // measure 10
0020
0000
0030
0000
0200
0300
0020
0000
0000
0000
0000
0000
0030
0000
0000
0000
,  // measure 11
0200
0300
0020
0030
0002
0003
0200
0300
0020
0000
0030
0200
0000
0300
2000
3000
,  // measure 12
0200
0000
0300
0020
0000
0030
0200
0300
0020
0000
0030
0002
0000
0003
0200
0300
,  // measure 13
0020
0000
0030
0200
0000
0300
2000
3000
0020
0000
0030
0002
0000
0003
0200
0000
,  // measure 14
0000
0300
0020
0000
0000
0000
0030
0000
0200
0300
0020
0030
0200
0300
0020
0000
,  // measure 15
0000
0030
0002
0003
0200
0300
2000
3000
0200
0300
0020
0030
0200
0300
0020
0030
,  // measure 16
0002
0000
0000
0003
0020
0030
0200
0300
0002
0003
0020
0030
0200
0000
0300
0000
,  // measure 17
0020
0030
0002
0003
0200
0300
2000
3000
0200
0300
0020
0030
0002
0003
0200
0300
,  // measure 18
2000
0000
3000
0000
0200
0300
2000
3000
0002
0003
2000
3000
0200
0000
0300
0000
,  // measure 19
0200
0300
2000
3000
0200
0300
0020
0030
0002
0000
0003
0200
0000
0300
0020
0030
,  // measure 20
0200
0000
0300
0020
0000
0030
0200
0300
0020
0000
0030
2000
0000
3000
0200
0300
,  // measure 21
2000
0000
3000
0200
0000
0300
2000
3000
0200
0000
0300
0020
0000
0030
0200
0300
,  // measure 22
0010
0001
2000
3000
0100
0010
0001
0010
2002
0000
0000
3003
0200
0000
0000
0300
,  // measure 23
1000
0100
0010
0001
0010
0100
0010
0100
2002
3003
0200
0000
0300
0000
0020
0030
,  // measure 24
0200
0000
0300
0020
0000
0030
0200
0300
0020
0000
0030
2000
0000
3000
0200
0300
,  // measure 25
0020
0000
0030
0002
0000
0003
2000
3000
0002
0000
0000
0003
0200
0000
0000
0300
,  // measure 26
0020
0030
0200
0300
0020
0030
0200
0300
0020
0030
2000
3000
0100
0010
0002
0003
,  // measure 27
0010
0100
0020
0030
0002
0003
0100
0010
0002
0003
0020
0000
0030
0000
2000
3000
,  // measure 28
0200
0000
0300
0020
0000
0030
0200
0300
2000
0000
3000
0002
0000
0003
0020
0030
,  // measure 29
0200
0000
0300
0020
0000
0030
0200
0000
0000
0300
0020
0030
0002
0003
2000
3000
,  // measure 30
0002
0003
0200
0300
0020
0030
0002
0003
2000
3000
0200
0300
0020
0030
0002
0003
,  // measure 31
1000
0100
0010
0001
0100
0010
0100
0010
0002
0003
0200
0000
0300
0000
0020
0030
,  // measure 32
0200
0000
0300
0020
0000
0030
0002
0003
0200
0000
0000
0300
2000
0000
3000
0000
,  // measure 33
0200
0000
0300
0000
0020
0000
0030
0000
0200
0000
0300
0020
0000
0030
0002
0003
,  // measure 34
0200
0000
0300
2000
0000
3000
0200
0300
0020
0000
0030
0002
0000
0003
0200
0300
,  // measure 35
0020
0000
0030
2000
0000
3000
0200
0300
0020
0000
0000
0030
0200
0300
0020
0030
,  // measure 36
0200
0000
0300
2000
0000
3000
0200
0300
0020
0000
0030
0200
0000
0300
0020
0030
,  // measure 37
0200
0000
0300
0020
0000
0030
0002
0000
0000
0003
0010
1000
0200
0300
0010
0001
,  // measure 38
0200
0300
0010
0000
0100
0000
0010
0000
0001
0000
0100
0000
0010
0000
0001
0000
,  // measure 39
0100
0010
0001
0010
0100
0001
0010
0100
0020
0030
0200
0000
0300
0000
0020
0030
,  // measure 40
0200
0000
0300
0020
0000
0030
2000
3000
0002
0000
0003
0200
0000
0300
0020
0030
,  // measure 41
0200
0000
0300
0020
0000
0030
0200
0300
0020
0000
0000
0030
0200
0000
0000
0300
,  // measure 42
0010
0100
0010
0100
0010
0001
0010
0001
0020
0000
0000
0030
0100
0010
0001
1000
,  // measure 43
0001
1000
0100
0010
0100
0001
0010
0001
2000
3000
0200
0000
0300
0000
2000
3000
,  // measure 44
0002
0000
0003
0200
0000
0300
0020
0030
0200
0000
0300
0020
0000
0030
0200
0300
,  // measure 45
0020
0000
0030
0002
0000
0003
0200
0000
0000
0300
2000
3000
0020
0030
2000
3000
,  // measure 46
0200
0300
0020
0030
0002
0003
0200
0300
0020
0030
0200
0300
0020
0030
0002
0003
,  // measure 47
0010
0001
0010
0000
0010
0100
0010
0100
0020
0030
0002
0000
0003
0000
2000
3000
,  // measure 48
0200
0000
0300
2000
0000
3000
0200
0300
2000
0000
0000
3000
0100
0010
0001
0010
,  // measure 49
0200
0000
0000
0300
0020
0000
0000
0030
0002
0000
0003
0020
0000
0030
0200
0300
,  // measure 50
0020
0000
0030
0002
0000
0003
0020
0030
0200
0000
0300
2000
0000
3000
0200
0300
,  // measure 51
0020
0000
0030
2000
0000
3000
0200
0300
0020
0000
0000
0030
2000
3000
0200
0300
,  // measure 52
0020
0000
0030
0200
0000
0300
0020
0030
0002
0000
0003
0200
0000
0300
0020
0030
,  // measure 53
0200
0000
0300
0020
0000
0030
0002
0000
0000
0000
0003
0100
0020
0000
0030
0100
,  // measure 54
0010
0100
0010
0100
1001
0110
1001
0110
,  // measure 55
2002
0000
0000
0000
0000
0000
0000
0000
0000
3003
0000
0000
0200
0000
0000
0000
0000
0000
0300
0000
0000
0000
0000
0000
0020
0000
0000
0000
0030
0000
0000
0000
0000
0200
0000
0000
0000
0000
0000
0300
0000
0000
0020
0000
0000
0030
0000
0000
,  // measure 56
0002
0000
0003
0020
0000
0030
0200
0300
2000
0000
3000
0200
0000
0300
0020
0030
,  // measure 57
0200
0000
0300
0020
0000
0030
0200
0000
0000
0300
0010
0200
0000
0000
0300
0001
,  // measure 58
2000
0000
0010
3001
0100
0000
0010
0000
0110
0000
1001
0000
0110
0000
1001
0000
,  // measure 59
0220
0000
0330
0000
0020
0000
0030
0000
1000
0010
1000
0100
0010
0001
0010
1000
,  // measure 60
0100
0010
0001
0010
0010
0100
0001
0010
0100
1000
0100
0010
0001
0010
0100
1000
,  // measure 61
0010
0100
0010
0001
0010
0100
2000
0000
0000
3000
0100
0010
0001
0000
0001
1000
,  // measure 62
0100
0010
0001
0010
0100
0010
0001
0010
2002
0000
0000
0000
0000
0000
0000
0000
,  // measure 63
0000
0000
0000
0000
0000
0000
0000
0000
0000
0000
0000
0000
3003
0000
0000
0000
1000
0100
0010
0001
0100
0010
0100
0010
0001
0100
0010
1000
0100
0100
0010
0001
,  // measure 64
0010
0100
0010
0001
0100
0010
0100
1000
0100
0010
0001
0100
0010
0001
0100
0010
0100
1000
0100
0010
2002
0000
0000
0000
0000
0000
0000
0000
3003
0000
0000
0000
,  // measure 65
2002
0000
0000
0000
0000
0000
0000
0000
0000
0000
0000
0000
0000
0000
0000
0000
0000
0000
0000
0000
0000
0000
0000
0000
3003
0000
0000
0001
1000
0001
1000
0001
,  // measure 66
1011
0000
0000
0000
;
