#VERSION:0.83;
#TITLE:すっごいFEVER!;
#SUBTITLE:;
#ARTIST:モーニング娘。'23;
#TITLETRANSLIT:Suggoi FEVER!;
#SUBTITLETRANSLIT:;
#ARTISTTRANSLIT:Morning Musume '19;
#GENRE:J-Pop;
#CREDIT:Wrland;
#MUSIC:Suggoi FEVER!.ogg;
#BANNER:Suggoi FEVER!.png;
#BACKGROUND:Suggoi FEVER!-bg.png;
#CDTITLE:Wrland Season 3 CITYGHT.png;
#SAMPLESTART:57.300;
#SAMPLELENGTH:12.000;
#SELECTABLE:YES;
#OFFSET:0.000;
#BPMS:0.000=135.000
,4.000=134.000
;
#STOPS:;
#DISPLAYBPM:134.000;
#CDIMAGE:Suggoi FEVER!-cd.png;
#JACKET:Suggoi FEVER!-jacket.png;
#BGCHANGES:0.000=Suggoi FEVER!.avi=1.000=0=0=0=StretchNoLoop====,
99999.000=-nosongbg-=1.000=0=0=0=StretchNoLoop====,
99999.000=-nosongbg-=1.000=0=0=0=StretchNoLoop====
;
#FGCHANGES:;

//--------------- dance-single - by Wrland ----------------
#NOTEDATA:;
#STEPSTYPE:dance-single;
#DESCRIPTION:by Wrland;
#DIFFICULTY:Beginner;
#METER:5;
#RADARVALUES:0,0,0,0,0;
#NOTES:
0000
0000
0000
0000
,
0000
0000
0000
0000
,
0000
0000
0000
0000
,
0000
0000
0000
0000
,
0000
0000
0000
0000
,
1000
0000
0001
0000
1000
0001
2000
3000
,
1000
0000
0001
0000
1000
0001
2000
3000
,
1000
0000
0001
0000
1000
0001
2000
3000
,
0001
0000
1000
0000
0001
1000
0002
0003
,
0100
0000
0010
0000
0100
0010
0200
0300
,
0100
0000
0010
0000
0100
0010
0200
0300
,
0100
0010
0010
0100
0010
0100
0020
0030
,
0100
0010
0100
1000
0002
0000
0003
0000
,
1001
0000
0110
0000
,
0110
0000
0011
0000
,
1010
0000
1000
0000
0100
0010
0001
0000
,
0010
0100
0010
0100
,
1100
0000
0110
0000
,
0101
0000
0110
0000
,
0010
0000
0100
0000
0010
0100
0010
1000
,
0002
0000
0003
0010
0200
0000
0300
0010
,
0200
0300
0010
0000
0100
0010
0200
0300
,
0001
0000
0100
0000
0010
0100
0020
0030
,
1000
0000
0100
0000
1000
0100
2000
3000
,
0100
0010
0100
0010
0001
1000
0010
0100
,
0010
0100
0010
0001
,
0010
0100
0010
0100
,
2000
0000
3000
0001
0200
0000
0000
0300
,
0020
0000
0000
0030
0100
0020
0000
0030
,
0100
0010
0001
0010
,
0100
1000
0100
0010
,
0200
0000
0300
0100
0020
0000
0000
0030
,
0011
1100
0011
1001
,
2002
0000
3003
0220
0000
0000
0330
0000
,
0100
0010
0100
0010
,
0001
1000
0001
0100
,
0010
1000
0010
0100
,
0220
0000
0330
2002
0000
0000
0000
3003
,
0110
0000
0000
1001
0000
0000
0000
0000
,
0110
0100
0010
0001
,
0010
0100
0010
0100
,
2020
0000
3030
0202
0000
0000
0000
0303
,
0100
0000
0000
0010
0000
0001
0000
0010
,
0100
0010
0100
0010
,
0001
0010
0100
0010
,
0022
0000
0033
0220
0000
0000
0000
0330
,
0100
1000
0000
0100
0000
0010
0000
0100
,
0010
0001
0010
0100
,
0010
0100
1000
0100
,
2000
0000
0000
3001
0000
0000
0000
0000
,
0010
0000
0100
0000
,
0020
0000
0030
0000
,
0200
0000
0300
0000
,
0002
0000
0000
1003
0000
0000
0000
0000
,
0100
0010
0001
0010
,
0200
0000
0000
0300
0100
0000
0010
0000
,
2002
0000
0000
3003
,
0220
0000
0000
0330
,
1001
0000
0100
0000
0010
0100
0020
0030
,
0100
0000
0010
0000
0001
0100
0020
0030
,
1000
0000
0100
0000
1000
0100
2000
3000
,
0100
0000
0010
0000
0100
0010
0200
0300
,
0001
0000
0100
0010
0100
0010
0200
0300
,
0010
0000
0001
0010
0100
0010
0200
0300
,
0100
1000
0100
0010
0001
0100
0020
0030
,
0100
0010
0001
0100
0010
0001
1000
0002
,
0003
2002
0000
0000
,
0000
0000
0000
0000
,
0000
0000
0000
0000
,
3003
0000
0000
0000
;

//--------------- dance-single - by Wrland ----------------
#NOTEDATA:;
#STEPSTYPE:dance-single;
#DESCRIPTION:by Wrland;
#DIFFICULTY:Easy;
#METER:8;
#RADARVALUES:0,0,0,0,0;
#NOTES:
0000
0000
0000
0000
,
0000
0000
0000
0000
,
0000
0000
0000
0000
,
0000
0000
0000
0000
,
0000
0000
0000
0000
,
1000
0000
0000
0000
0001
0000
0000
0000
1000
0001
0000
2000
0000
0000
3000
0000
,
0100
0000
0000
0000
0010
0000
0000
0000
0100
0010
0000
0200
0000
0000
0300
0000
,
0100
0000
0100
0000
0010
0000
0001
0000
0100
0010
0000
0002
0003
0000
1000
0001
,
0010
0000
0100
0000
1000
0000
0100
0010
0010
0000
0001
0000
0010
0000
0100
0000
,
0010
0000
0001
0000
0010
0000
0100
0000
0010
0100
0000
0020
0030
0000
0010
0001
,
0100
0000
0010
0000
0100
0000
1000
0000
0100
0010
0000
0200
0000
0000
0300
0000
,
0100
0000
0010
0000
0001
0000
0100
0000
0010
0001
0000
0200
0300
0000
0001
1000
,
0010
0000
0100
0000
0010
0000
0001
0100
0000
0010
2000
0000
3000
0000
0010
0200
,
0000
0000
0000
0000
0300
0000
0010
0200
0000
0000
0000
0000
0300
0000
0100
0020
,
0000
0000
0000
0000
0030
0000
0100
0020
0000
0000
0000
0000
0000
0000
0030
0000
,
0100
0000
0000
0000
0010
0000
0000
0000
0100
0010
0000
0200
0000
0000
0300
0000
,
0010
0000
0000
0000
0100
0000
0000
0000
0022
0000
0000
0000
0033
0000
0100
0020
,
0000
0000
0030
0000
0000
0000
0100
0020
0000
0000
0030
0000
0000
0000
1000
0002
,
0000
0000
0003
0000
0000
0000
1000
0002
0000
0000
0003
0000
0000
0000
0100
0010
,
0100
0000
0010
0000
0100
0000
0010
0000
0001
1000
0000
1000
0001
0000
0010
0100
,
0020
0000
0000
0000
0030
0000
0100
0010
0200
0000
0000
0000
0300
0000
0100
0010
,
0100
0000
0001
0000
1000
0000
0001
0000
1000
0001
0000
2000
0000
0000
3000
0000
,
0100
0000
0010
0000
0100
0000
0010
0000
0100
0010
0000
0200
0000
0000
0300
0000
,
0100
0000
0010
0000
0100
0000
0001
0000
1000
0010
0000
0002
0003
0000
0100
0010
,
0100
0000
0100
0000
0010
0000
0100
0010
0000
0100
0010
0000
1000
0001
0100
0010
,
0200
0000
0300
0000
0020
0000
0030
0000
0100
0000
0000
0010
0100
0000
0010
0000
,
0100
0020
0030
0002
0003
1000
0001
1000
,
0002
0000
0003
1000
0001
0100
0010
0100
,
0020
0030
0002
0003
0200
0300
0020
0030
,
0200
0000
0300
0000
0020
0000
0030
0000
0100
0000
0000
0010
0100
0000
0010
0000
,
0001
0200
0300
2000
3000
0100
0010
0001
,
0200
0000
0300
0010
0100
0010
0001
0100
,
0110
0110
1001
1001
,
0200
0000
0300
0020
0000
0000
0000
0030
,
0100
0010
0000
0100
0000
1000
0000
0100
,
0010
0100
0100
0010
,
0001
0010
0100
0010
,
0200
0000
0300
0200
0000
0000
0000
0300
,
0010
0100
0000
0010
0000
0100
0000
0010
,
0001
1000
0001
1000
,
0001
1000
0100
0010
,
0200
0000
0300
0200
0000
0000
0000
0300
,
0100
0100
0000
0010
0000
0001
0000
0100
,
1000
0000
0000
0000
0100
0000
0000
0000
0010
0000
0000
1000
0001
0000
0000
0000
,
0100
0000
0010
0000
0100
0000
0010
0000
0001
0000
0000
1000
0001
0000
0000
0000
,
0200
0000
0300
0020
0000
0000
0000
0030
,
0001
0010
0000
0100
0000
0010
0000
0100
,
0010
0000
0000
0000
0001
0000
0000
0000
0100
0000
0000
0010
0100
0000
0000
0000
,
0100
1000
0100
0010
,
0002
0000
0000
0000
0003
0000
2000
0000
0000
0000
3000
0000
0000
0000
0001
1000
,
0200
0300
0020
0030
0200
0300
0020
0030
,
0002
0000
0000
0000
0000
0000
0000
0003
,
2000
0000
0000
0000
3000
0100
0010
0100
,
0020
0000
0000
0000
0030
0000
0002
0000
0000
0000
0000
0000
0003
0000
0001
1000
,
0002
0003
0200
0300
0020
0030
0200
0300
,
0100
0020
0000
0000
0000
0000
0000
0030
,
2002
0000
0000
0000
0000
0000
0000
3003
,
0110
0000
1100
0110
0011
0000
1001
0000
,
0110
0000
0010
0000
0010
0000
0100
0000
0010
0100
0000
0020
0000
0000
0030
0000
,
0001
0000
0001
0000
1000
0000
0001
0000
1000
0001
0000
2000
0000
0000
3000
0000
,
0100
0000
0010
0000
0100
0000
0010
0000
0100
0010
0000
0002
0003
0000
0100
0010
,
0100
0000
1000
0000
0100
0000
0010
0100
0010
0000
0001
0000
0001
0000
1000
0000
,
0001
0000
1000
0000
0100
0000
0010
0000
0100
0010
0000
0200
0000
0000
0300
0000
,
0100
0000
0010
0000
0100
0000
0010
0000
0001
1000
0000
0220
0000
0000
0330
0000
,
0100
0000
0010
0000
0001
0000
0100
0000
0010
0001
0000
0110
0000
0000
0100
0010
,
0100
0000
0010
0000
0100
0000
0010
0100
0000
0001
0010
0000
0001
0000
2000
0000
,
3000
2002
0000
0000
,
0000
0000
0000
0000
,
0000
0000
0000
0000
,
3003
0000
0000
0000
;

//--------------- dance-single - by Wrland ----------------
#NOTEDATA:;
#STEPSTYPE:dance-single;
#DESCRIPTION:by Wrland;
#DIFFICULTY:Medium;
#METER:10;
#RADARVALUES:0,0,0,0,0;
#NOTES:
0000
0000
0000
0000
,
0000
0000
0000
0000
,
0000
0000
0000
0000
,
0000
0000
0000
0000
,
0000
0000
0000
0000
,
1000
0000
0001
0000
1000
0000
0001
0000
1000
0001
0000
2000
0000
0000
3000
0000
,
0100
0000
0010
0000
0100
0000
0010
0000
0100
0010
0000
0200
0000
0000
0300
0000
,
0001
0000
0100
0000
0001
0000
0100
0000
0001
0100
0000
0002
0003
0000
0100
0001
,
0100
0000
0010
0000
0100
0000
0010
0001
0010
0000
0010
0000
0100
0000
0010
0000
,
0100
0000
0010
0000
0100
0000
0100
0000
0010
0100
0000
0020
0030
0000
0001
0100
,
0001
0000
0010
0000
0100
0000
0010
0000
0100
0010
0000
0002
0000
0000
0003
0000
,
1000
0000
1000
0000
0100
0000
1000
0000
0100
1000
0000
0200
0300
0000
0010
0100
,
0010
0000
0001
0000
0100
0000
0001
0100
0000
0010
0001
0000
0000
0000
0100
0020
,
0000
0000
0000
0000
0030
0000
0100
0020
0000
0000
0000
0000
0030
0000
0100
0020
,
0000
0000
0000
0000
0030
0000
0100
0020
0000
0000
0000
0000
0030
0000
1000
0001
,
1000
0000
0100
0000
0010
0000
0100
0000
0010
0100
0000
0020
0030
0000
0010
0100
,
0020
0000
0000
0000
0030
0000
0001
0100
0002
0000
0000
0000
0003
0000
0010
0200
,
0000
0000
0000
0000
0300
0000
1000
0200
0000
0000
0000
0000
0300
0000
0100
0020
,
0000
0000
0000
0000
0030
0000
0010
0002
0000
0000
0000
0000
0003
0000
0010
0100
,
0010
0000
0100
0000
0010
0000
0100
0000
0010
1000
0000
0200
0000
0300
0001
0100
,
0020
0000
0000
0000
0030
0000
0100
0010
0200
0000
0000
0000
0300
0000
1000
0100
,
1000
0000
0100
0000
0010
0000
0001
0000
0100
0010
0000
0100
0000
0001
0010
0100
,
0010
0000
1000
0000
0100
0000
0010
0000
0100
0010
0000
0200
0300
0000
0100
0010
,
0100
0000
0010
0000
0100
0000
1000
0000
0100
0010
0000
0100
0000
0001
0100
0010
,
0001
0000
0100
0000
0010
0000
0100
0010
0000
0100
0010
0000
0001
0000
1000
0000
,
0200
0000
0300
0000
0020
0000
0030
0000
0100
0000
0000
0010
0100
0000
0010
0000
,
0001
2000
3000
0200
0300
0010
0100
0010
,
0100
0000
0000
0010
0100
0000
0010
0000
0001
0000
1000
0000
0001
0000
1000
0000
,
0200
0300
0020
0030
0200
0300
2000
3000
,
0200
0000
0300
0000
2000
0000
3000
0000
0100
0000
0000
0100
0010
0000
0001
0000
,
0010
0200
0300
2000
3000
0100
1000
0100
,
0020
0000
0000
0030
0100
0010
0100
1000
,
0101
1001
0110
0110
,
2002
0000
3003
2002
0000
0000
0000
3003
,
0100
0020
0030
0200
0300
0200
0300
1000
,
0200
0000
0300
0000
0002
0000
0003
0000
0100
0010
0000
0000
0020
0000
0030
0000
,
0200
0000
0300
0000
2000
0000
3000
0000
0100
1000
0000
0000
0200
0000
0300
0000
,
0220
0000
0330
0202
0000
0000
0000
0303
,
1000
0200
0300
2000
3000
0200
0300
0010
,
0200
0000
0300
0000
0020
0000
0030
0000
0100
0010
0000
0000
0200
0000
0300
0000
,
0020
0000
0030
0000
0002
0000
0003
0000
1000
0100
0000
0000
0200
0000
0300
0000
,
0022
0000
0033
2200
0000
0000
0000
3300
,
0110
0022
0033
0200
0300
0020
0030
0100
,
0020
0000
0030
0000
0002
0000
0003
0000
0100
0010
0000
0000
0200
0000
0300
0000
,
2000
0000
3000
0000
0200
0000
0300
0000
1000
0100
0000
0000
2000
0000
3000
0000
,
0220
0000
0330
0202
0000
0000
0000
0303
,
1000
0020
0030
0200
0300
0020
0030
0100
,
0020
0000
0030
0000
0002
0000
0003
0000
0100
0001
0000
0000
2000
0000
3000
0000
,
0200
0000
0300
0000
0020
0000
0030
0000
0100
0010
0000
0000
0200
0000
0300
0000
,
0200
0000
0000
0000
0300
0000
0020
0000
0000
0000
0000
0000
0030
0000
0100
0010
,
0200
0300
0020
0030
0002
0003
2000
3000
,
0002
0000
0003
0000
1000
0000
0000
0000
1000
0000
0000
0000
1000
0000
0100
0010
,
0100
0000
0010
0001
0000
0000
0010
0000
0001
0000
1000
0000
0001
0000
1000
0000
,
0002
0000
0000
0000
0003
0000
2000
0000
0000
0000
0000
0000
3000
0000
0010
0100
,
0020
0030
0002
0003
0020
0030
0200
0300
,
0020
0000
0000
0000
0000
0000
0000
0030
,
0100
0010
0100
0010
0100
0010
0100
0010
,
1001
0000
0100
0010
0200
0300
0020
0030
,
0100
0000
0010
0000
0001
0000
0100
0000
0010
0100
0000
0020
0030
0000
0100
0010
,
0100
0000
0010
0000
0100
0000
0010
0000
0001
0100
0000
0200
0000
0000
0300
0000
,
1000
0000
0100
0000
1000
0000
0100
0000
1000
0100
0000
2000
3000
0000
0100
1000
,
0100
0010
0001
0000
0010
0000
0100
0010
0100
1000
0010
0000
0100
0000
0010
0000
,
0100
0000
0010
0000
0110
0000
0001
0000
0010
0100
0000
0020
0030
0000
1000
0100
,
1000
0000
0100
0000
0010
0000
0001
0000
0010
0100
0000
0020
0000
0000
0030
0000
,
0100
0000
0010
0000
0100
0000
0010
0000
0001
1000
0000
0002
0003
0000
0100
0001
,
0010
1000
0100
0000
0010
0000
0100
0010
0001
0010
0100
0000
0010
0000
0002
0000
,
0003
2002
0000
0000
,
0000
0000
0000
0000
,
0000
0000
0000
0000
,
3003
0000
0000
0000
;

//--------------- dance-single - by Wrland ----------------
#NOTEDATA:;
#STEPSTYPE:dance-single;
#DESCRIPTION:by Wrland;
#DIFFICULTY:Hard;
#METER:12;
#RADARVALUES:0,0,0,0,0;
#NOTES:
0000
0000
0000
0000
,
0000
0000
0000
0000
,
0000
0000
0000
0000
,
0000
0000
0000
0000
,
0000
0000
0000
0000
,
0100
0000
0010
0000
0100
0000
0010
0000
0100
0010
0000
0200
0000
0300
0010
0100
,
0010
0000
0001
0000
1000
0000
0100
0000
1000
0100
0000
0020
0000
0030
0100
0010
,
0100
0000
0010
0000
0100
0000
0010
0000
0001
0100
0000
0002
0000
0003
0001
1000
,
0001
0010
0100
0010
0001
0010
0100
0010
0100
0010
0001
0010
0100
1000
0100
0010
,
0001
0000
0001
0000
0001
0000
0001
0000
0001
0001
0000
0002
0000
0003
0010
0100
,
1000
0000
1000
0000
1000
0000
1000
0000
1000
1000
0000
2000
0000
3000
0000
0000
,
0100
0000
0010
0000
0100
0000
0010
0001
0100
0010
0000
0200
0000
0300
0010
0100
,
0010
0001
0010
0100
0010
0001
0010
1000
0100
0010
1000
0000
0000
0000
0100
0020
,
0000
0000
0030
0000
0000
0000
0100
0020
0000
0000
0030
0000
0000
0000
0100
0020
,
0000
0000
0030
0000
0000
0000
0100
0020
0000
0000
0030
0000
0000
0000
0100
0010
,
0100
0000
0010
1000
0001
0000
1000
0000
0100
0010
0000
0200
0000
0300
0010
0100
,
0020
0000
0030
0000
0000
0000
0001
1000
0002
0000
0003
0000
0000
0000
0100
0020
,
0000
0000
0030
0000
1001
0000
0100
0020
0000
0000
0030
0000
0000
0000
0100
0020
,
0000
0000
0030
0000
1001
1001
0100
0020
0000
0000
0030
0000
0000
0000
0100
0010
,
0100
0000
0100
0000
0010
0000
0001
0000
0100
0010
0000
0200
0000
0300
0010
0100
,
0010
0000
0100
0000
0010
0000
0001
1000
0001
0000
0010
0000
0100
0000
0010
0100
,
0001
0000
1000
0000
0001
0000
1000
0000
0001
1000
0000
0002
0000
0003
0100
0010
,
0100
0000
0010
0000
0100
0001
0010
0000
0100
0010
0000
0002
0000
0003
0100
0010
,
0100
0000
0010
0000
0100
0000
0010
0000
0001
0100
0000
0010
0100
0000
1000
0010
,
1000
0100
0010
0001
0100
0010
0001
0010
0100
0010
1000
0100
0010
0001
0100
0010
,
0200
0000
0300
0000
0020
0000
0030
0000
0100
0000
0000
0010
0100
0000
0010
0000
,
0001
2000
3000
0200
0300
0010
0100
0010
,
0001
1000
0001
1000
0001
0000
0100
0000
0010
0000
0100
0000
0010
0000
0001
0000
,
0200
0000
0300
0000
0020
0000
0030
0000
0200
0000
0300
0001
0020
0000
0030
0000
,
0200
0000
0300
0000
2000
0000
3000
0000
0200
0000
0300
1000
0100
0000
0100
0000
,
0010
0002
0003
0200
0300
0010
0100
0010
,
0100
0000
0000
0000
0010
0000
0000
0000
0001
0000
0000
0000
1000
0000
0000
0000
0100
0000
0000
0000
0010
0000
0000
0000
0001
0000
0000
0000
0000
0000
1000
0000
0000
0000
0000
0000
0001
0000
0000
1000
0000
0000
0001
0000
0000
0000
0000
0000
,
2022
0000
3033
0000
2220
0000
3330
0000
0222
0000
0333
0000
2202
0000
3303
0010
,
0222
0000
0333
2022
0000
0000
0000
3033
,
0100
0020
0030
0002
0003
0100
0010
0100
,
1000
0000
0100
0000
0010
0000
0001
0000
0100
0010
0000
0200
0000
0300
1000
0100
,
0010
0000
0100
0000
0010
0000
0001
0000
0100
0010
0100
0010
1000
0100
0010
0001
,
2220
0000
3330
2202
0000
0000
0000
3303
,
0100
0020
0030
0002
0003
0200
0300
0010
,
0100
0000
0010
0000
0100
0000
0010
0000
0001
1000
0000
0100
0001
0000
0010
0100
,
0010
0001
0010
0100
1000
0100
0010
0001
0010
0100
0010
0001
0010
0100
1000
0100
,
0222
0000
0333
2220
0000
0000
0000
3330
,
0100
0020
0030
0200
0300
0020
0030
0001
,
0100
0000
0010
0000
0100
0000
0010
0000
0001
0100
0000
0010
0200
0000
0300
0100
,
0010
0100
0001
1000
0100
0010
0100
0010
0001
0010
0100
0010
0001
0010
0100
1000
,
0222
0000
0333
2202
0000
0000
0000
3303
,
1100
0200
0300
0200
0300
0020
0030
0100
,
0010
0000
0010
0000
0010
0000
0010
0000
0100
0010
0000
0100
0010
0000
0001
0010
,
0100
0010
0100
0010
0001
0100
1000
0100
0010
0100
0010
0001
0100
0010
0100
0010
,
0200
0000
0000
0000
0300
0000
0020
0000
0000
0000
0000
0000
0030
0000
0100
0001
,
0020
0030
0200
0300
2000
3000
0200
0300
,
0010
0100
0010
0000
0100
0000
0010
0100
0000
0000
0010
0000
0100
0000
0010
0100
,
0010
0000
0000
0100
0000
0000
0010
0000
0001
0000
0010
0000
0100
0000
1000
0000
,
0200
0000
0000
0000
0300
0000
0200
0000
0000
0000
0000
0000
0300
0000
0100
0010
,
0200
0300
0020
0030
0002
0003
2000
3000
,
2002
0000
0000
0000
0000
0000
0000
3003
,
0110
0010
0100
1000
0100
0010
0001
0100
0010
0100
0010
0001
0010
0100
1000
0100
,
0022
0000
0033
0000
0100
0000
0010
0000
2202
0000
3303
0000
0100
0010
0001
0010
,
0100
0000
1000
0000
0100
0000
1000
0000
0100
0010
0000
0200
0000
0300
0010
0100
,
0010
0000
0001
0000
0100
0000
0010
0000
1000
0010
0000
2000
0000
0000
3000
0000
,
0100
0000
0010
0000
0100
0001
1000
0010
0100
0010
0000
0200
0000
0300
0010
0100
,
0010
0001
0010
0100
1000
0100
0010
0100
0010
0001
0010
0100
0010
1000
0001
0010
,
0011
0000
0110
0000
1110
0000
0100
0000
0010
0100
0001
0010
2000
3000
0010
0100
,
0010
0000
0100
0000
0010
0000
0001
0000
0100
0010
0001
0100
2000
3000
0010
0100
,
0010
0100
0010
0001
0010
0100
1000
0100
0010
0100
0010
0001
0010
0100
1000
0100
,
0010
0100
0010
0001
0100
0010
0100
0010
0001
0010
0100
1000
0100
0010
0001
0100
,
0220
0330
4404
0000
0000
0000
0000
0000
,
0000
0000
0000
0000
,
0000
0000
0000
0000
,
3303
0000
0000
0000
;
