#VERSION:0.83;
#TITLE:Singularity;
#SUBTITLE:;
#ARTIST:xi;
#TITLETRANSLIT:;
#SUBTITLETRANSLIT:;
#ARTISTTRANSLIT:;
#GENRE:BEMANI;
#CREDIT:Wrland;
#MUSIC:Singularity.ogg;
#BANNER:Singularity.png;
#BACKGROUND:Singularity-bg.png;
#CDTITLE:Wrland Season 3 CITYGHT + last one night.png;
#SAMPLESTART:72.487;
#SAMPLELENGTH:12.000;
#SELECTABLE:YES;
#OFFSET:0.000;
#BPMS:0.000=197.000
,61.000=49.250
,63.000=197.000
,143.000=295.500
,161.000=591.000
,173.000=197.000
,374.000=98.500
,376.000=197.000
;
#STOPS:404.500=0.457;
#DISPLAYBPM:197.000;
#JACKET:Singularity-jacket.png;
#CDIMAGE:Singularity-cd.png;
#METERTYPE:DDR X;
#BGCHANGES:;
#FGCHANGES:;

//--------------- dance-single - Wrland ----------------
#NOTEDATA:;
#STEPSTYPE:dance-single;
#DESCRIPTION:Wrland;
#DIFFICULTY:Beginner;
#METER:3;
#RADARVALUES:0,0,0,0,0;
#NOTES:
0000
0000
0000
0000
,
0000
0000
0000
0000
,
0000
0000
0000
0000
,
0000
0000
0000
0000
,
0000
0000
0000
0000
,
0000
0000
0000
0000
,
0000
0000
0000
0000
,
0000
0100
0000
0000
,
0000
0000
0000
0000
,
0000
0100
0000
0000
,
0000
0000
0000
0000
,
0000
0000
0010
0000
,
0000
0000
0000
0000
,
0000
0100
0000
0000
,
0000
0000
0000
0000
,
0000
0010
0100
0010
,
0000
0000
0000
0000
,
0000
0000
0000
0001
,
0000
0000
0000
0000
,
0000
0000
0000
1000
,
0000
0000
0000
0000
,
0000
0000
0000
0100
,
0000
0000
0000
0000
,
0000
0000
0000
0010
,
0000
0000
0000
0000
,
0000
0000
0000
0100
,
0000
0000
0000
0000
,
0000
0000
0000
1000
,
0000
0000
0000
0000
,
0000
0000
0000
0100
,
0000
0000
0000
0000
,
0000
0000
0000
0010
,
0000
0000
0000
0000
,
0000
0000
0000
0100
,
0000
0000
0000
0000
,
0000
0000
0000
0220
,
0000
0000
0000
0000
,
0000
0000
0000
0000
,
0000
0000
0000
0000
,
0000
0000
0000
0330
,
0000
2002
0000
0000
,
0000
0000
0000
0000
,
0000
0000
0000
0000
,
3003
0100
0000
0000
,
0000
0000
0000
0000
,
0000
0000
0000
0000
,
0000
0000
0000
0010
,
0000
0000
0000
0000
,
0000
0000
0000
0000
,
0000
0000
0000
0000
,
0000
0000
1000
0000
,
0000
0000
0000
0000
,
0000
0000
0000
0000
,
0000
0000
0000
0000
,
0000
0000
0001
0000
,
0000
0000
0000
0000
,
0000
0000
0000
0000
,
0000
0000
0000
0000
,
0000
0000
0100
0000
,
0000
0000
0110
0000
,
0000
0000
0010
0000
,
0000
0000
1000
1001
,
0000
0000
0000
0000
,
0000
0000
0000
0110
0000
0000
0000
0000
,
0000
0000
0000
0000
,
1000
0000
0100
0110
,
0000
0000
0000
0000
,
0000
0000
0000
0101
0000
0000
0000
0000
,
0010
0000
0100
0000
,
0000
0000
1000
0000
,
0000
0000
0000
0000
,
0000
0000
0100
0000
,
0000
0000
0000
0000
,
0000
0000
1000
0000
,
0000
0000
0000
0000
,
0000
0000
0000
0000
0010
0100
0000
0010
,
0000
0100
0000
0010
0000
0000
0000
0000
,
0100
0000
0010
0110
,
0000
0000
0000
0000
,
0000
0000
0000
1100
0000
0000
0000
0000
,
0000
0000
0000
0000
,
0100
0000
0010
0110
,
0000
0000
0000
0000
,
0000
0000
1001
0000
,
0000
0000
0000
0000
,
0000
0000
0100
0000
,
0000
0000
0000
0000
,
0000
0000
1000
0000
,
0000
0000
0000
0000
,
0000
0000
0100
0000
,
0000
0000
0010
0000
,
0000
0000
0000
0000
0100
0010
0000
0100
,
0000
0000
0000
0000
,
0110
0000
1001
0000
,
0100
0000
0000
0000
,
0000
0000
0000
0000
,
1000
0000
0000
0000
,
0000
0000
0001
0000
,
0000
0000
0000
0000
,
0000
0010
0000
0000
,
0000
0000
0000
0000
,
0000
0000
0000
0000
0000
0000
0000
0000
0000
0000
0000
0000
0000
0000
0000
0000
0000
0000
0000
0000
0000
0000
0000
0000
0000
0220
0000
0000
0000
0000
0000
0000
0000
0000
0000
0000
0000
0000
0000
0000
0000
0000
0000
0000
0000
0000
0000
0000
0000
0000
0000
0000
0000
0000
0000
0000
0000
0000
0000
0000
0000
0000
0000
0000
0000
0000
0000
0000
0000
0000
0000
0000
0000
0000
0000
0000
0000
0000
0000
0000
0000
0000
0000
0000
0000
0000
0000
0000
0000
0000
0000
0000
0000
0000
0000
0000
0000
0000
0000
0000
0000
0000
0000
0000
0000
0000
0000
0000
0000
0000
0000
0000
0000
0000
0000
0000
0000
0000
0000
0000
0000
0000
0000
0000
0000
0000
0000
0000
0000
0000
0000
0000
0000
0000
0000
0000
0000
0000
0000
0000
0000
0000
0000
0000
0000
0000
0000
0000
0000
0000
0000
0000
0000
0000
0000
0000
0000
0000
0000
0000
0000
0000
0000
0000
0000
0000
0000
0000
0000
0000
0000
0000
0000
0000
0000
0000
0000
0000
0000
0000
0000
0000
0000
0000
0000
0000
0000
0000
0000
0000
0000
0000
,
0000
0000
0000
0000
,
0000
0000
0000
0000
,
0000
0000
0000
0000
,
0000
0000
0000
0000
,
0000
0000
0000
0000
,
0330
0000
0000
0000
;

//--------------- dance-single - Wrland ----------------
#NOTEDATA:;
#STEPSTYPE:dance-single;
#DESCRIPTION:Wrland;
#DIFFICULTY:Easy;
#METER:7;
#RADARVALUES:0,0,0,0,0;
#NOTES:
0000
0000
0000
0000
,
0000
0000
0000
0000
,
0000
0000
0000
0000
,
0000
0000
0000
0000
,
0000
0000
0000
0000
,
0000
0000
0000
0000
,
0000
0000
0000
0000
,
0000
0100
0000
0000
,
0000
0100
0000
0000
0000
0000
0000
0000
,
0000
0010
0000
0000
,
0000
0001
0000
0000
0000
0000
0000
0000
,
0000
0000
0010
0000
,
0000
1000
0000
0000
,
0000
0100
0000
0000
,
0000
0000
0000
0000
,
0000
0000
0020
0030
0200
0300
0010
0000
,
0000
0000
0000
0001
,
0000
0000
0000
1000
,
0000
0000
0000
0100
,
0000
0000
0000
1000
,
0000
0000
0000
0100
,
0000
0000
0000
0010
,
0000
0000
0000
0000
,
0100
0000
0000
0010
,
0000
0000
0000
0100
,
0000
0000
0000
0010
,
0000
0000
0000
0001
,
0000
0000
0000
1000
,
0000
0000
0000
0100
,
0000
0000
0000
0010
,
0000
0000
0000
0100
,
0000
0000
0000
0010
,
0000
0000
0000
0001
,
0000
0000
0000
1000
,
0000
0000
0000
0100
,
0000
0000
0000
0020
,
0000
0000
0000
0000
,
0000
0000
0000
0000
,
0000
0000
0030
2000
,
0000
0000
0000
0000
,
3000
0002
0000
0000
,
0000
0000
0000
0000
,
0000
0000
0000
0000
,
0003
0100
0000
0000
,
0000
0000
0000
0000
,
0000
0010
0000
0000
,
0000
0000
0000
1000
,
0000
0000
0000
0000
,
0000
0000
0000
0100
,
0000
0000
0000
0000
,
0000
0000
0100
0000
,
0000
0000
0010
0000
,
0000
0000
0001
0000
,
0000
0000
0100
0000
,
0000
0000
1000
0000
,
0000
0000
0100
0000
,
0000
0000
0010
0000
,
0000
0000
0100
0000
,
0000
0000
0110
0000
,
0000
0000
0000
0000
,
0000
0000
1001
0000
,
0000
0000
0110
1100
,
0000
0000
0010
0000
0010
0100
0000
0010
,
0000
0001
0000
0100
0000
0000
0000
0000
,
0100
0000
0000
0000
,
0100
0010
0001
0000
,
0000
0000
0010
0000
0100
0010
0000
0001
,
0000
0100
0000
0010
0000
0000
0000
0000
,
0100
0000
0000
0000
,
1000
0100
1000
0000
,
0100
0010
0001
0000
,
0100
0010
0100
0000
,
0010
0100
0010
0000
,
1000
0100
1000
0000
,
0100
0010
0100
0000
,
0010
0000
0001
0010
0100
0010
0000
0100
,
0000
0010
0000
0101
0000
0000
0000
0000
,
1100
0010
0100
0110
,
0000
0000
0010
0000
0100
0010
0000
0001
,
0000
0100
0000
0010
0000
0000
0000
0000
,
1000
0000
0000
0000
,
1000
0100
0010
0101
,
0000
0000
0010
0000
0100
0010
0000
0100
,
0010
0000
0010
0000
0100
0000
0010
0000
0000
0000
0000
0000
,
0010
0000
0000
0000
,
0100
0000
0110
0000
,
0000
0001
1000
0000
,
0100
1000
0100
0000
,
0010
0100
0010
0000
,
0001
0100
0001
0000
,
0010
0100
0010
0000
,
0100
0000
0000
0000
0010
0100
0000
0010
,
0000
0001
0000
0101
0000
0000
0000
0000
,
1010
0000
0000
0000
0220
0000
0000
0330
,
1001
0000
0000
0000
,
1000
0000
0000
0100
,
0000
0000
0000
0000
0000
0010
0000
0000
,
0000
0000
0100
0000
,
0000
0000
0000
0000
,
0000
0010
0000
0000
,
0000
0000
0000
0000
,
0000
0000
0000
0000
0000
0000
0000
0000
0000
0000
0000
0000
0000
0000
0000
0000
0000
0000
0000
0000
0000
0000
0000
0000
1000
2002
0000
0000
0000
0000
0000
0000
0000
0000
0000
0000
0000
0000
0000
0000
0000
0000
0000
0000
0000
0000
0000
0000
0000
0000
0000
0000
0000
0000
0000
0000
0000
0000
0000
0000
0000
0000
0000
0000
0000
0000
0000
0000
0000
0000
0000
0000
0000
0000
0000
0000
0000
0000
0000
0000
0000
0000
0000
0000
0000
0000
0000
0000
0000
0000
0000
0000
0000
0000
0000
0000
0000
0000
0000
0000
0000
0000
0000
0000
0000
0000
0000
0000
0000
0000
0000
0000
0000
0000
0000
0000
0000
0000
0000
0000
0000
0000
0000
0000
0000
0000
0000
0000
0000
0000
0000
0000
0000
0000
0000
0000
0000
0000
0000
0000
0000
0000
0000
0000
0000
0000
0000
0000
0000
0000
0000
0000
0000
0000
0000
0000
0000
0000
0000
0000
0000
0000
0000
0000
0000
0000
0000
0000
0000
0000
0000
0000
0000
0000
0000
0000
0000
0000
0000
0000
0000
0000
0000
0000
0000
0000
0000
0000
0000
0000
0000
0000
,
0000
0000
0000
0000
,
0000
0000
0000
0000
,
0000
0000
0000
0000
,
0000
0000
0000
0000
,
0000
0000
0000
0000
,
3003
0000
0000
0000
;

//--------------- dance-single - Wrland ----------------
#NOTEDATA:;
#STEPSTYPE:dance-single;
#DESCRIPTION:Wrland;
#DIFFICULTY:Medium;
#METER:10;
#RADARVALUES:0,0,0,0,0;
#NOTES:
0000
0000
0000
0000
,
0000
0000
0000
0000
,
0000
0000
0000
0000
,
0000
0000
0000
0000
,
0000
0000
0000
0000
,
0000
0000
0000
0000
,
0000
0000
0000
0000
,
0000
1000
0100
0010
,
0100
0020
0000
0000
0030
0000
0001
0000
,
1000
0001
1000
0001
,
1000
0000
2002
0000
0000
3003
0000
0000
0100
0000
1000
0000
0010
0000
0001
0000
,
0100
0010
0000
0000
1001
0000
0100
0000
,
0010
0101
1000
0110
,
1000
0000
0000
0100
0000
0010
0000
0100
0000
0010
0000
0001
,
0000
0100
0000
0010
0000
1000
0000
0100
0000
0010
0000
0100
,
0000
0000
0000
0000
0010
0000
0000
0000
0000
0000
0000
0000
2002
0000
0000
0000
0000
0000
0000
0000
0000
3003
0000
0000
0220
0000
0000
0000
0000
0000
0000
0000
0000
0330
0000
0000
1000
0000
0000
0000
0000
0000
0000
0000
0000
0000
0000
0000
,
0100
0000
1000
0100
0000
0010
0000
0001
,
0000
0100
0010
0100
0010
0000
0100
0000
,
1000
0000
0100
0100
0000
0010
0000
0100
,
0000
0010
0100
0010
0001
0000
0010
0000
,
0100
0000
1000
0100
0000
1000
0000
0100
,
0000
0001
0100
0001
0100
0000
0010
0000
,
0100
0000
0010
0100
0000
1000
0000
0100
,
0000
0010
0100
0010
0001
0000
0100
0000
,
0010
0000
0100
0010
0000
0001
0000
0100
,
0000
0010
0100
0010
0100
0000
1000
0000
,
0100
0000
1000
0100
0000
1000
0000
0100
,
0000
0010
0100
1000
0001
0000
0100
0000
,
0010
0000
0100
0010
0000
1001
0000
0100
,
0010
0000
0100
0000
0010
0000
0001
0000
0100
0000
0000
0000
0010
0000
0000
0100
,
0000
0000
0100
0000
0001
0000
0000
1000
0000
0000
0100
0000
0010
0000
0000
0100
,
0000
0011
0100
1000
0100
0010
0001
0000
,
0010
0000
1000
0010
0100
1000
0000
0100
,
0000
0001
0010
0100
1000
0000
0001
0000
,
0100
0000
0001
0100
0000
0010
0000
0100
,
1000
0100
0000
0010
0001
0100
0220
0000
,
0000
0330
0220
0000
,
0330
2002
0000
3003
,
2200
0000
3300
0220
,
0000
0330
2002
0000
,
3003
2002
0000
0000
,
0000
0000
0000
0000
,
0000
0000
0000
3003
,
0000
2002
0000
3003
,
0100
0010
0000
0100
,
0000
0010
0100
0010
,
0000
0100
0000
0000
0010
0000
0001
0000
,
0000
0010
0000
0000
0100
0000
1000
0000
,
0000
0100
0000
0000
0100
0000
0010
0000
,
0100
0010
0001
0000
0100
0010
1000
0000
,
0100
0010
0100
0000
0220
0330
0000
0001
,
0000
0000
1000
0000
0100
0000
0000
1000
,
0000
0000
0100
0000
0001
0000
0000
0010
,
0000
0000
0100
0000
1000
0000
0000
0100
,
0000
0001
0100
0010
,
0100
0010
0001
0010
,
0100
0000
0000
1000
0000
0000
0100
0000
0110
0000
0100
0000
,
0011
0000
0100
0000
1010
0000
0001
0000
0110
0000
0100
0000
,
1010
0000
0001
0000
1100
0000
0220
0000
0000
0000
0000
0000
,
0000
0330
2002
0000
,
0000
0000
0000
0000
3003
0000
0000
0000
0110
1000
0010
0001
0100
0000
0000
0000
,
0010
0100
0010
0001
0010
0000
0000
0000
0100
0000
0000
0000
0110
0000
0000
0000
,
0010
0000
0100
0000
0010
0001
0000
0100
,
0000
0010
0000
2200
0000
0000
3300
0100
,
0020
0030
0001
0100
,
0010
0100
0010
0100
0020
0030
0110
0000
,
1000
0000
0100
0000
1000
0100
0000
0010
,
0000
0001
0000
0200
0000
0000
0300
0010
,
0100
0000
0010
0000
0100
0010
0001
0000
,
0100
0010
1000
0100
0010
0000
0100
0000
,
0010
0001
0100
0000
0010
0000
0100
0000
,
1000
0100
0001
0100
,
0010
0100
1000
0000
0001
0010
0100
0010
,
1000
0100
0001
0000
0010
0001
0100
0010
,
0001
1000
0100
0010
1000
0100
0010
0001
,
0100
0000
0010
0000
0100
0000
0010
0000
0001
0000
0010
0000
1100
0000
0000
0101
0000
0000
0000
0000
0000
0110
0000
0000
,
0000
0011
0000
0202
0000
0303
0011
0110
,
1100
0100
0010
0110
,
0010
0001
1000
0000
0100
0010
0000
0001
,
0000
0100
0000
0020
0000
0030
0100
1000
,
0200
0300
0010
0000
0001
0000
0100
0000
,
0010
0100
0010
0100
0020
0030
0100
0000
,
1000
0000
0100
0000
0001
0100
0000
0110
,
0101
0000
0000
0000
1010
0000
0000
0000
0011
0000
0000
0000
0220
0000
0000
0000
0000
0000
0330
0000
0000
0010
0000
0000
,
0100
0000
0010
0000
0100
0010
0000
0001
,
1100
0000
0000
0000
0011
0000
0000
0000
1100
0000
0000
0000
0022
0000
0000
0033
0000
0000
0100
0000
0000
0000
0000
0000
,
1000
0000
0100
1000
0100
0000
0002
0003
,
0100
0010
0100
0010
0001
0000
0100
0001
,
0000
1000
0100
0000
0010
0000
0100
0000
,
0010
0000
0001
0000
0100
0000
0010
0100
,
0010
0001
0010
0000
0001
0010
1000
0010
,
0100
0000
0010
0000
0100
0000
0010
0000
0001
0000
0100
0000
0010
0000
0000
0200
0000
0000
0300
0000
0000
0020
0000
0000
,
0030
0200
0300
0220
0000
0330
0001
0100
,
1000
0000
0000
0000
0000
0000
0000
0000
0100
0000
0000
0000
0000
0000
0000
0000
0010
0000
0000
0000
0000
0000
0000
0000
0001
0000
0000
0000
0000
0000
0000
0000
0010
0000
0000
0000
0000
0000
0000
0000
0100
0000
0000
0000
0000
0000
0000
0000
2000
0000
0000
0000
0000
0000
0000
0000
0000
0000
0000
0000
3000
0000
0000
0000
0000
0000
0000
0000
0000
0000
0000
0000
0010
0000
0000
0001
0000
0000
0100
0000
0000
1000
0000
0000
0220
0000
0000
0000
0000
0000
0330
0000
0000
0000
0000
0000
,
0001
0000
0000
0100
0000
0000
0200
0000
0000
0000
0000
0000
0300
0000
0000
0000
,
0010
0000
0000
0000
0100
0000
0000
0000
0010
0000
0000
0000
0100
0000
0000
0010
,
0000
0200
0000
0000
0300
0000
0100
0000
,
1000
0000
0000
0000
0100
0000
0000
0000
0001
0000
0000
0100
0000
0000
0020
0000
,
0000
0030
0100
0000
0010
0000
0001
0000
,
0010
0000
0000
0000
1000
0000
0000
0100
0000
0000
0002
0000
0000
0000
0000
0000
,
0003
0000
0000
0000
0100
0000
1000
0000
0100
0010
0001
0010
0100
0001
0010
0100
,
1000
0000
0000
0000
0000
0000
0000
0000
0000
0000
0000
0000
0000
0000
0000
0000
0000
0000
0000
0000
0000
0000
0000
0000
0001
0220
0000
0000
0000
0000
0000
0000
0000
0000
0000
0000
0000
0000
0000
0000
0000
0000
0000
0000
0000
0000
0000
0000
0000
0000
0000
0000
0000
0000
0000
0000
0000
0000
0000
0000
0000
0000
0000
0000
0000
0000
0000
0000
0000
0000
0000
0000
0000
0000
0000
0000
0000
0000
0000
0000
0000
0000
0000
0000
0000
0000
0000
0000
0000
0000
0000
0000
0000
0000
0000
0000
0000
0000
0000
0000
0000
0000
0000
0000
0000
0000
0000
0000
0000
0000
0000
0000
0000
0000
0000
0000
0000
0000
0000
0000
0000
0000
0000
0000
0000
0000
0000
0000
0000
0000
0000
0000
0000
0000
0000
0000
0000
0000
0000
0000
0000
0000
0000
0000
0000
0000
0000
0000
0000
0000
0000
0000
0000
0000
0000
0000
0000
0000
0000
0000
0000
0000
0000
0000
0000
0000
0000
0000
0000
0000
0000
0000
0000
0000
0000
0000
0000
0000
0000
0000
0000
0000
0000
0000
0000
0000
0000
0000
0000
0000
0000
0000
,
0000
0000
0000
0000
,
0000
0000
0000
0000
,
0000
0000
0000
0000
,
0000
0000
0000
0000
,
0000
0000
0000
0000
,
0330
0000
0000
0000
;

//--------------- dance-single - Wrland ----------------
#NOTEDATA:;
#STEPSTYPE:dance-single;
#DESCRIPTION:Wrland;
#DIFFICULTY:Hard;
#METER:13;
#RADARVALUES:0,0,0,0,0;
#NOTES:
0000
0000
0000
0000
,
0000
0000
0000
0000
,
0000
0000
0000
0000
,
0000
0000
0000
0000
,
0000
0000
0000
0000
,
0000
0000
0000
0000
,
0000
0000
0000
0000
2002
0000
0000
0000
3003
0000
0000
0000
0100
0010
0001
0010
,
0100
1000
0100
0010
0001
0000
0010
0000
1000
0000
0100
0000
0010
0000
0001
0000
,
0010
0000
2200
0000
0000
0000
0000
0000
3300
0000
0000
0000
0100
0010
0001
0100
,
0020
0000
0030
0000
0001
0010
0100
1000
0200
0000
0300
0000
0020
0000
0030
0000
,
0100
0000
0020
0000
0000
0000
0030
0000
1000
0100
0010
0100
1000
0100
0010
0001
,
0010
0100
0010
0001
0020
0000
0030
0000
0100
0010
0001
0000
0100
1000
0100
0000
,
0010
0000
0000
0001
0000
0000
0010
0000
0000
0000
0000
0000
0010
0000
0000
0100
0000
0000
0010
0000
0000
0000
0000
0000
0001
0000
0000
0010
0000
0000
0100
0000
0000
0000
0000
0000
1001
0000
0000
0000
0000
0000
0000
0000
1100
0000
0000
0000
,
0000
0110
0000
0011
0000
0011
0000
0110
0000
1100
0000
1100
,
0000
0110
0000
0011
0000
0101
0000
1010
0000
0101
0000
1010
,
0000
0000
0000
0000
0000
0000
0000
0000
0000
0000
0000
0000
0000
0000
0000
0000
0101
0000
0000
0000
0000
0000
0000
0000
0000
0000
0000
0000
0000
0000
0000
0000
0000
0000
0000
0000
0000
0000
0000
0000
0000
0000
0000
0000
0000
0000
0000
0000
0110
0000
0000
0000
0000
0000
1000
0000
0000
0000
0000
0000
0001
0000
0000
0000
0000
0000
1000
0000
0000
0000
0000
0000
0001
0000
0000
0000
0000
0000
1000
0000
0000
0000
0000
0000
0001
0000
0000
0000
0000
0000
0010
0000
0000
0000
0000
0000
0100
0000
0000
0010
0000
0000
0100
0000
0000
0010
0000
0000
0001
0000
0000
0000
0000
0000
1000
0000
0000
0100
0000
0000
0010
0000
0000
0001
0000
0000
0010
0000
0000
1000
0000
0000
0100
0000
0000
0000
0000
0000
0010
0000
0000
0000
0000
0000
0100
0000
0000
0000
0000
0000
0000
0000
0000
0000
0000
0000
0001
0000
0000
0000
0000
0000
0000
0000
0000
0000
0000
0000
0100
0000
0000
0000
0000
0000
0000
0000
0000
0000
0000
0000
0000
0000
0000
0000
0000
0000
0000
0000
0000
0000
0000
0000
,
0010
0000
1000
0000
0100
0010
0001
0010
0100
0010
0001
0010
0001
0000
1000
0010
,
0001
0100
0010
0100
0010
0100
0010
0100
0010
0001
0010
0100
2002
0000
3003
0000
,
0100
0010
0100
1000
0100
0010
0001
0010
0100
0000
0001
0000
0100
1000
0010
0100
,
0010
0100
0010
0001
0100
0010
1000
0100
0100
0001
0010
0001
0020
0000
0030
0000
,
0010
0100
1000
0100
0010
0001
0010
0100
1000
0100
0010
0100
0010
0001
0100
0010
,
0100
1000
0010
0001
0100
0010
0100
1000
0010
0100
0010
0001
0200
0000
0300
0000
,
0100
0010
0100
0010
0001
0100
1000
0100
0001
0000
1000
0000
0100
0010
0001
0100
,
0010
0100
0010
0100
0010
0000
2000
0000
3000
0000
0100
0000
1001
0010
0001
0100
,
1000
0100
0010
0001
0100
0010
0100
0010
0001
0100
0010
0100
0010
0001
0010
0100
,
1000
0100
0010
0100
0010
0001
0010
0100
0020
0000
0030
0000
2002
0000
3003
0000
,
0100
1000
0100
0010
0001
0100
0000
0010
0100
0010
0001
0010
0100
0010
0001
1000
,
0100
0010
0001
0010
0100
0000
0020
0000
0030
0000
0100
0000
0022
0000
0033
0000
,
1000
0100
1000
0100
0010
0001
0100
0010
0100
0001
1100
0000
0001
0010
0001
0010
,
0100
0000
0000
0010
0000
0000
0001
0000
0000
0010
0000
0000
0100
0000
0000
0010
0000
0000
0001
0000
0000
0010
0000
0000
0100
0000
0000
0001
0000
0000
0010
0000
0000
0100
0000
0000
1001
0000
0000
0000
0000
0000
0000
0000
1001
0000
0000
0000
,
0000
0000
0000
0000
0000
0000
1001
0000
0000
0000
0000
0000
1001
0000
0000
0000
0000
0000
0000
0000
0000
1001
0000
0000
0000
0000
0000
0000
0000
0000
0110
0000
0000
0000
0000
0000
0101
0000
0000
0000
0000
0000
0000
0000
1010
0000
0000
0000
,
0000
0000
0101
0000
1100
0000
0010
1000
0100
0010
0001
0010
2000
0000
3000
0000
,
0200
0000
0300
0000
0010
0001
0010
1000
0100
0000
0020
0000
0030
0000
0001
0000
,
0100
0000
0010
0000
1000
0000
0100
0000
0020
0000
0030
0000
0100
0010
0100
0001
,
0010
0100
1000
0010
0001
1000
0100
0010
0001
0000
0020
0000
0030
0000
2000
0000
,
3000
0000
0100
0000
0010
0001
0001
0010
0100
0000
0100
0000
0011
0000
0000
0000
,
1001
0110
1100
0110
,
0101
0110
1100
0110
,
0101
0011
1100
0110
,
0101
1010
0110
0101
,
0110
1001
0110
1001
,
0110
1100
0110
0101
,
0110
0110
1001
0110
,
2002
0000
0000
3003
,
0200
0000
0300
0000
0010
1000
0200
0300
,
0020
0030
0001
2000
0000
3000
0200
0300
,
0020
0030
0200
0300
0020
0030
0002
0000
,
0003
2000
0000
3000
0200
0300
2000
3000
,
0200
0300
0020
0030
0100
0010
0001
0100
,
0010
0000
0100
0000
1000
0000
0100
0000
0010
1000
0001
0000
0001
1000
0100
0000
,
0110
0000
0000
0000
0011
0000
0000
0000
1100
0000
0000
0000
0220
0000
0000
0330
0000
0000
0200
0000
0000
0000
0000
0000
,
0000
0300
2000
3000
0200
0300
0020
0030
,
0001
0100
0002
0003
0200
0000
0300
0020
,
0000
0030
0200
0300
2000
3000
0200
0300
,
0001
0100
0001
0100
0020
0000
0030
0200
,
0000
0300
2000
3000
0200
0300
0002
0003
,
0100
0000
0000
0010
0000
0000
1000
0000
0000
0100
0000
0000
0011
0000
0000
0000
1100
0000
0000
0000
0110
0000
0000
0000
,
1001
0000
0110
0000
1100
0000
0110
0000
0101
0000
1100
0000
,
0110
0000
0000
0000
0011
0000
0000
0000
0110
0000
0000
0000
1001
0000
0000
0001
0000
0000
1000
0000
0000
0001
0000
0000
,
0100
0010
0100
0010
1001
0100
0010
1000
,
0100
0000
0010
0000
0001
0000
0100
0000
0010
0000
0100
0010
0200
0000
0300
0000
,
0100
0010
0001
0010
0200
0000
0300
0000
0020
0000
0030
0000
0110
0000
0000
0000
,
0100
0000
1000
0000
0100
0020
0030
0002
,
0003
0000
0200
0000
0300
0000
0020
0000
0000
0000
0030
0000
0100
0010
0100
0010
,
0200
0300
0010
0000
0110
0000
1000
0000
,
0011
0100
0010
0001
0200
0300
0022
0000
,
0033
0000
0200
0300
1000
0200
0300
0020
,
0030
0002
0003
0202
0000
0303
0010
0100
,
2000
0000
3000
0000
0200
0300
0020
0030
,
0001
0010
0001
1000
0100
0000
0010
0000
0200
0000
0300
0000
0020
0000
0030
0000
,
0001
1000
0001
1000
0100
0010
0001
0100
,
0010
0001
1000
0010
0100
0000
0010
0000
0001
0000
0100
0000
0010
0000
1000
0000
,
0100
0010
0001
0100
0010
1000
0100
0010
,
0100
0010
0001
0010
1000
0000
0100
0000
0010
0000
0100
0000
0010
0000
0001
0000
,
0100
0000
0000
0000
0000
0000
0001
0000
0000
0000
0000
0000
0010
0000
0000
1000
0000
0000
0010
0000
0000
0000
0000
0000
2002
0000
0000
0000
0000
0000
3003
0000
0000
0000
0000
0000
0100
0000
0000
0000
0010
0000
0000
0000
0001
0000
0000
0000
,
0100
0000
0001
0000
0010
0000
0100
0000
0010
0000
0001
0000
0010
0000
0000
0200
0000
0000
0300
0000
0000
0200
0000
0000
,
0300
0000
0020
0000
0030
0000
2002
0000
0000
0000
3003
0000
0100
0010
0010
0100
,
0020
0000
0030
0000
1000
0001
1000
0001
2000
0000
3000
0000
0220
0000
0330
0000
,
1000
0100
0010
0100
0020
0000
0030
0000
0001
0000
0200
0000
0300
0000
0020
0000
,
0030
0000
0200
0000
0300
0000
0220
0000
0000
0000
0330
0000
1000
0001
1000
0001
,
2000
3000
0200
0300
2000
3000
0200
0300
,
0001
0100
0010
1000
0200
0300
0220
0330
,
0001
0100
0010
1000
0100
0020
0030
0110
,
0001
0000
0000
0000
0000
0000
0000
0000
0011
0000
0000
0000
0000
0000
0000
0000
1100
0000
0000
0000
0000
0000
0000
0000
2200
0000
0000
0000
0000
0000
3300
0000
0000
0000
0000
0000
0100
0000
0000
0010
0000
0000
0100
0000
0000
0010
0000
0000
,
0002
0000
0003
0000
0010
0100
1000
0100
0020
0000
0030
0000
0100
0010
0001
0010
,
0110
0000
0000
0000
1100
0000
0000
0000
0110
0000
0000
0000
0202
0000
0000
0303
0000
0000
0010
0000
0000
0200
0000
0000
,
0300
0001
0100
0010
2000
3000
0200
0300
,
0020
0030
0200
0300
0002
0003
0100
0020
,
0030
1000
0100
0010
0002
0003
0200
0300
,
0020
0030
0200
0300
0200
0300
0010
0001
,
1000
0100
0010
1000
0202
0303
0020
0030
,
0001
0000
1000
0000
0001
0000
0100
0000
0001
0000
0010
0000
0100
0000
0000
0020
0000
0000
0030
0000
0000
1000
0000
0000
,
0001
0000
0010
0000
0000
0001
0100
0001
0010
0100
0010
0001
0100
1000
0100
0010
,
0001
0000
0010
0000
0100
0000
0010
0000
0001
0000
1000
0000
0100
0000
0010
0000
2002
0000
0000
0000
0000
0000
3003
0000
0100
0010
0100
0010
0220
0000
0330
0000
,
1000
0000
0000
0100
0000
0000
0001
0000
0100
0010
0100
1000
0100
0001
0010
0001
,
0010
0100
0001
0010
1000
0001
0010
0100
0010
0100
0001
1000
0100
0000
0000
0010
,
0000
0000
0100
0000
0000
0000
0100
0001
0010
0100
0010
0001
0010
0100
1000
0100
,
0001
0010
0100
0010
0001
0100
1000
0001
0010
0000
0000
1000
0000
0000
0001
0000
,
1000
0100
0010
0100
0010
0001
0100
0010
0100
1000
0100
0010
0001
0100
0010
0100
,
1000
0100
0010
0001
0001
0000
0000
1000
0000
0000
0100
0000
0010
0100
0010
0001
,
0100
1000
0010
0001
0010
0000
1000
0100
0010
0001
0010
0100
0010
0001
0010
0100
,
0010
0000
0000
0000
0000
0000
0000
0000
0000
0000
0000
0000
0100
0000
0000
0000
0000
0000
0000
0000
0000
0000
0000
0000
MM1M
2002
0000
0000
0000
0000
0000
0000
0000
0000
0000
0000
0000
0000
0000
0000
0000
0000
0000
0000
0000
0000
0000
0000
0000
0000
0000
0000
0000
0000
0000
0000
0000
0000
0000
0000
0000
0000
0000
0000
0000
0000
0000
0000
0000
0000
0000
0000
0000
0000
0000
0000
0000
0000
0000
0000
0000
0000
0000
0000
0000
0000
0000
0000
0000
0000
0000
0000
0000
0000
0000
0000
0000
0000
0000
0000
0000
0000
0000
0000
0000
0000
0000
0000
0000
0000
0000
0000
0000
0000
0000
0000
0000
0000
0000
0000
0000
0000
0000
0000
0000
0000
0000
0000
0000
0000
0000
0000
0000
0000
0000
0000
0000
0000
0000
0000
0000
0000
0000
0000
0000
0000
0000
0000
0000
0000
0000
0000
0000
0000
0000
0000
0000
0000
0000
0000
0000
0000
0000
0000
0000
0000
0000
0000
0000
0000
0000
0000
0000
0000
0000
0000
0000
0000
0000
0000
0000
0000
0000
0000
0000
0000
0000
0000
0000
0000
0000
0000
,
0000
0000
0000
0000
,
0000
0000
0000
0000
,
0000
0000
0000
0000
,
0000
0000
0000
0000
,
0000
0000
0000
0000
,
3003
0000
0000
0000
;
