#TITLE:STAND THE NIGHT;
#SUBTITLE:;
#ARTIST:笠原弘子;
#TITLETRANSLIT:;
#SUBTITLETRANSLIT:;
#ARTISTTRANSLIT:Hiroko Kasahara;
#GENRE:J-Pop;
#CREDIT:Wrland;
#MUSIC:STAND THE NIGHT.ogg;
#BANNER:STAND THE NIGHT.png;
#BACKGROUND:STAND THE NIGHT-bg.png;
#CDTITLE:Wrland Season 3 CITYGHT.png;
#SAMPLESTART:73.131;
#SAMPLELENGTH:12.000;
#SELECTABLE:YES;
#OFFSET:-7.489;
#BPMS:0.000=127.966;
#STOPS:14.000=0.938;
#DISPLAYBPM:127.000;
#JACKET:STAND THE NIGHT-jacket.png;
#CDIMAGE:STAND THE NIGHT-cd.png;
#METERTYPE:DDR X;
#BGCHANGES:;
#FGCHANGES:;

//--------------- dance-single - Wrland ----------------
#NOTES:
     dance-single:
     Wrland:
     Beginner:
     1:
     0,0,0,0,0:
0000
0000
0000
0000
,
0000
0000
0000
0000
,
0000
0000
0000
0000
,
0000
0000
0000
0000
0000
0000
0000
0000
0000
0000
0000
0000
0000
0000
0000
0000
0000
0000
0000
0000
0000
0000
0000
0000
0000
0000
0000
0000
0000
0000
0000
0000
0000
0000
0000
0000
0000
0000
0000
0000
0000
0000
0000
0000
0000
0000
0000
0000
0000
0000
0000
0000
0000
0000
0000
0000
0000
0000
0000
0000
0000
0000
0000
0000
0000
0000
0000
0000
0000
0000
0000
0000
0000
0000
0000
0000
0000
0000
0000
0000
0000
0000
0000
0000
0000
0000
0000
0000
0000
0000
0000
0000
0000
0000
0000
0000
0000
0100
0000
0000
0000
0000
0000
0000
0000
0000
0000
0000
0000
0000
0000
0000
0000
0000
0000
0000
0000
0000
0000
0000
0000
0000
0000
0000
0000
0000
0000
0000
0000
0000
0000
0000
0000
0000
0000
0000
0000
0000
0000
0000
0000
0000
0000
0000
0000
0000
0000
0000
0000
0000
0000
0000
0000
0000
0000
0000
0000
0000
0000
0000
0000
0000
0000
0000
0000
0000
0000
0000
0000
0000
0000
0000
0000
0000
0000
0000
0000
0000
0000
0000
0000
0000
0000
0000
0000
0000
0000
0000
0000
0000
0000
0000
,
0000
0000
0000
0000
,
0000
0000
0100
0000
,
0000
0000
0000
0000
,
0000
0000
0010
0000
,
0000
0000
0000
0000
,
0000
0000
0001
0000
,
0000
0000
0000
0000
,
0000
0000
0010
0000
,
0000
0000
0000
0000
,
0000
0000
0100
0000
,
0000
0000
0000
0000
,
0000
0000
1000
0000
,
0000
0000
0000
0000
,
0000
0000
0100
0000
,
0000
0000
0000
0000
,
0000
0000
0010
0000
,
0000
0000
0000
0000
,
0000
0000
0010
0000
,
0000
0000
0000
0000
,
0000
0000
0100
0000
,
0000
0000
0000
0000
,
0000
0000
0100
0000
,
0000
0000
0000
0000
,
0000
0000
1000
0000
,
0000
0000
0000
0000
,
0000
0000
1000
0000
,
0000
0000
0000
0000
,
0000
0000
0001
0000
,
0000
0000
0000
0000
,
0000
0000
0200
0000
,
0000
0000
0300
0000
,
0000
0000
0100
0000
,
0000
0000
0000
0000
,
0000
0000
0100
0000
,
0000
0000
0000
0000
,
0000
0000
1000
0000
,
0000
0000
0000
0000
,
0000
0000
1000
0000
,
0000
0000
0000
0000
,
0000
0000
0001
0000
,
0000
0000
0000
0000
,
0000
0000
0010
0000
,
0000
0000
0000
0000
,
0000
0000
0100
0000
,
0000
0000
0000
0000
,
0000
0000
0010
0000
,
0000
0000
0000
0000
,
0000
0000
0100
0000
,
0000
0000
0000
0000
,
0000
0000
1000
0000
,
0000
0000
0000
0000
,
0000
0000
0100
0000
,
0000
0000
0000
0000
,
0000
0000
0001
0000
,
0000
0000
0000
0000
,
0000
0000
0010
0000
;

//--------------- dance-single - Wrland ----------------
#NOTES:
     dance-single:
     Wrland:
     Easy:
     3:
     0,0,0,0,0:
0000
0000
0000
0000
,
0000
0000
0000
0000
,
0000
0000
0000
0000
,
0000
0000
0000
0000
0000
0000
0000
0000
0000
0000
0000
0000
0000
0000
0000
0000
0000
0000
0000
0000
0000
0000
0000
0000
0000
0000
0000
0000
0000
0000
0000
0000
0000
0000
0000
0000
0000
0000
0000
0000
0000
0000
0000
0000
0000
0000
0000
0000
0000
0000
0000
0000
0000
0000
0000
0000
0000
0000
0000
0000
0000
0000
0000
0000
0000
0000
0000
0000
0000
0000
0000
0000
0000
0000
0000
0000
0000
0000
0000
0000
0000
0000
0000
0000
0000
0000
0000
0000
0000
0000
0000
0000
0000
0000
0000
0000
0000
0100
0000
0000
0000
0000
0000
0000
0000
0000
0000
0000
0000
0000
0000
0000
0000
0000
0000
0000
0000
0000
0000
0000
0000
0000
0000
0000
0000
0000
0000
0000
0000
0000
0000
0000
0000
0000
0000
0000
0000
0000
0000
0000
0000
0000
0000
0000
0000
0000
0000
0000
0000
0000
0000
0000
0000
0000
0000
0000
0000
0000
0000
0000
0000
0000
0000
0000
0000
0000
0000
0000
0000
0000
0000
0000
0000
0000
0000
0000
0000
0000
0000
0000
0000
0000
0000
0000
0000
0000
0000
0000
0000
0000
0000
0000
,
0000
0000
1000
0000
,
0000
0000
0010
0000
,
0000
0000
0001
0000
,
0000
0000
0010
0000
,
0000
0000
0100
0000
,
0000
0000
1000
0000
,
0000
0000
0100
0000
,
0000
0000
0010
0000
,
0000
0000
0001
0000
,
0000
0000
0010
0000
,
0000
0000
0100
0000
,
0000
0000
0010
0000
,
0000
0000
0001
0000
,
0000
0000
0100
0000
,
0000
0000
1000
0000
,
0000
0000
0100
0000
,
0000
0000
0010
0000
,
0000
0000
0100
0000
,
0000
0000
0100
0000
,
0000
0000
0010
0000
,
0000
0000
0001
0000
,
0000
0000
0010
0000
,
0000
0000
0100
0000
,
0000
0000
1000
0000
,
0000
0000
1000
0000
,
0000
0000
0100
0000
,
0000
0000
0100
0000
,
0000
0000
0010
0000
,
0000
0000
0001
0000
,
0000
0000
0020
0000
,
0000
0030
0100
0000
,
0100
0010
0110
0000
,
0000
0000
0001
0000
,
0000
0110
1000
0000
,
0000
0000
0100
1000
,
0100
0000
1000
0100
0011
0000
0000
0000
,
0000
0000
0100
0000
,
0000
0110
0010
0000
,
0001
0000
0010
0000
,
0100
0100
1100
0000
,
0000
0000
0100
0000
,
0000
0110
0010
0000
,
0001
0000
0010
0100
,
1000
0000
0100
0010
0001
0000
0000
0000
,
0000
0000
1100
0000
,
0000
0110
0010
0000
,
0001
0000
0010
0000
,
0100
0000
1000
0100
0010
0000
0000
0000
,
0000
0000
0010
0000
,
0000
0000
0100
0000
,
0000
0000
1000
0000
,
0000
0000
1000
0000
,
0000
0000
0100
0000
,
0000
0000
0010
0000
,
0000
0000
0001
0000
,
0000
0000
0010
0000
;

//--------------- dance-single - Wrland ----------------
#NOTES:
     dance-single:
     Wrland:
     Medium:
     6:
     0,0,0,0,0:
0000
0000
0000
0000
,
0000
0000
0000
0000
,
0000
0000
0000
0000
,
0000
0000
0000
0000
0000
0000
0000
0000
0000
0000
0000
0000
0000
0000
0000
0000
0000
0000
0000
0000
0000
0000
0000
0000
0000
0000
0000
0000
0000
0000
0000
0000
0000
0000
0000
0000
0000
0000
0000
0000
0000
0000
0000
0000
0000
0000
0000
0000
0000
0000
0000
0000
0000
0000
0000
0000
0000
0000
0000
0000
0000
0000
0000
0000
0000
0000
0000
0000
0000
0000
0000
0000
0000
0000
0000
0000
0000
0000
0000
0000
0000
0000
0000
0000
0000
0000
0000
0000
0000
0000
0000
0000
0000
0000
0000
0000
0000
0010
0000
0000
0000
0000
0000
0000
0000
0000
0000
0000
0000
0000
0000
0000
0000
0000
0000
0000
0000
0000
0000
0000
0000
0000
0000
0000
0000
0000
0000
0000
0000
0000
0000
0000
0000
0000
0000
0000
0000
0000
0000
0000
0000
0000
0000
0000
1000
0000
0000
0000
0000
0000
0000
0000
0000
0000
0000
0000
0000
0000
0000
0000
0000
0000
0000
0000
0000
0000
0000
0000
0000
0000
0000
0000
0000
0000
0000
0000
0000
0000
0000
0000
0000
0000
0000
0000
0000
0000
0000
0000
0000
0000
0000
0000
,
0100
0010
0010
0001
,
0100
0000
0000
0000
1001
1001
0000
0000
0100
0000
0000
0000
0010
0000
0000
0000
,
0100
0000
0000
0000
1000
0000
0000
0000
0100
0000
0000
0000
0100
0010
0000
0000
,
0010
0100
0010
0010
,
0100
1000
0100
0010
,
0001
0000
0000
0000
0100
0001
0000
0000
0100
0000
0000
0000
0010
0000
0000
0000
,
1000
0100
2000
3000
,
0100
0010
0001
0000
,
0100
0010
0100
1000
,
0100
0000
0000
0000
1000
0100
0000
0000
0010
0000
0000
0000
0001
0000
0000
0000
,
0100
0000
0000
0000
0010
0000
0000
0000
0100
0000
0000
0000
0100
0010
0000
0000
,
0001
0000
0000
0100
0000
0000
0010
0000
1000
0000
0000
0000
0100
0000
0000
0000
,
0010
0001
0010
0100
,
0010
0000
0000
0000
0001
1000
0000
0000
0100
0000
0000
0000
1000
0000
0000
0000
,
0100
0010
0001
0010
,
0100
1000
0000
0000
0010
0000
0001
0000
0100
0000
0010
0000
0100
0000
0010
0200
,
0000
0000
0300
0000
1000
0000
0000
0000
0000
0000
0100
0000
0010
0000
0001
0100
,
0000
0000
0010
0000
1000
0000
0100
0000
0010
0000
0000
0000
0100
0000
0010
0200
,
0000
0000
0300
0000
0000
0000
0000
0000
0010
0000
0000
0000
0001
0000
0100
0002
,
0000
0000
0003
0000
0000
0000
0000
0000
0000
0000
0010
0000
0100
0000
0010
0200
,
0000
0000
0300
0000
1000
0000
0000
0000
0000
0000
1000
0000
0100
0000
1000
0100
,
0000
0010
0001
0100
0020
0000
0000
0000
,
0000
0030
0000
0000
0000
0000
0000
0000
0100
0000
0000
0000
1000
0000
0100
0000
,
1000
0100
0010
0000
0200
0000
0300
0020
,
0000
0030
0001
0000
0020
0000
0030
0000
,
0000
0010
0001
0100
0020
0000
0030
1000
,
0200
0000
0300
0000
0100
0000
0000
0010
,
0100
0000
0000
0000
0020
0000
0030
0002
,
0000
0003
0000
0000
0010
0000
0000
0000
0200
0000
0000
0000
0300
0000
0000
0000
,
0010
0000
0000
0100
0000
0000
0010
0000
0002
0000
0000
0000
0000
0000
0000
0000
,
0003
0000
0000
0000
0000
0000
0000
0000
1000
0001
0000
0000
0100
0000
0010
0000
,
0100
0000
1000
0000
0100
0000
1000
0100
,
1000
0000
0000
0100
0000
0000
0010
0000
0001
0000
0000
0100
0000
0000
0010
0000
,
0200
0000
0000
0000
0300
0000
0000
0000
0100
0000
0000
0010
0000
0000
0001
0000
,
0100
0000
0000
0000
0010
0000
0000
0000
0100
0000
0000
0000
1000
0100
0000
0000
,
0010
0000
0100
0000
0010
0000
0001
0000
0200
0000
0000
0300
0000
0000
0010
0000
,
0100
0000
0000
0010
0000
0000
0001
0000
0100
0000
0000
0010
0000
0000
0100
0000
,
0020
0000
0000
0000
0030
0000
0000
0000
0010
0000
0000
0100
0000
0000
1000
0000
,
0100
0010
0002
0003
,
1100
0000
0100
0000
0110
0000
0000
0010
,
0001
0000
0000
0100
0000
0000
0010
0000
0100
0000
0000
1000
0000
0000
0100
0000
,
1000
0000
0000
0000
1000
0100
0000
0000
0100
0000
0000
0010
0000
0000
0001
0000
,
0200
0000
0300
0000
0020
0000
0030
0000
0100
0000
0000
0000
0100
0010
0000
0000
,
0001
0100
0001
0100
0020
0000
0030
0100
,
0010
0000
0000
0100
0000
0000
0010
0000
0001
0000
0000
0100
0000
0000
0010
0000
,
0200
0000
0000
0000
0300
0000
0000
0000
0100
0000
0000
1000
0000
0000
0100
0000
,
2000
0000
0000
3000
0200
0000
0000
0300
0020
0000
0000
0000
0030
0000
0000
0000
,
0002
0000
0003
0000
1000
0000
0001
1000
,
0000
0001
0100
0000
0010
0000
0100
1000
,
0000
0100
1000
0000
0100
0000
0010
0001
,
0000
0100
0010
0000
0100
0000
1000
0000
,
0100
0000
0010
0000
0100
0000
1000
0100
,
0000
1000
0100
0000
0100
0000
0010
0001
,
0000
0010
0100
0000
0100
0000
1000
0100
,
0000
0100
0010
0000
0001
0000
0100
0000
,
0010
0100
0010
0001
2002
0000
0000
0000
,
0000
0000
0000
0000
,
0000
0000
0000
0000
,
3003
0000
0000
0000
;

//--------------- dance-single - Wrland ----------------
#NOTES:
     dance-single:
     Wrland:
     Hard:
     9:
     0,0,0,0,0:
0000
0000
0000
0000
,
0000
0000
0000
0000
,
0000
0000
0000
0000
,
0000
0000
0000
0000
0000
0000
0000
0000
0000
0000
0000
0000
0000
0000
0000
0000
0000
0000
0000
0000
0000
0000
0000
0000
0000
0000
0000
0000
0000
0000
0000
0000
0000
0000
0000
0000
0000
0000
0000
0000
0000
0000
0000
0000
0000
0000
0000
0000
0000
0000
0000
0000
0000
0000
0000
0000
0000
0000
0000
0000
0000
0000
0000
0000
0000
0000
0000
0000
0000
0000
0000
0000
0000
0000
0000
0000
0000
0000
0000
0000
0000
0000
0000
0000
0000
0000
0000
0000
0000
0000
0000
0000
0000
0000
0000
0000
0000
0100
0000
0000
0000
0000
0000
0000
0000
0000
0000
0000
0000
0000
0000
0000
0000
0000
0000
0000
0000
0000
0000
0000
0000
0000
0000
0000
0000
0000
0000
0000
0000
0000
0000
0000
0000
0000
0000
0000
0000
0000
0000
0000
0000
0000
0000
0000
0010
0000
0000
0000
0000
0000
0000
0000
0000
0000
0000
0000
0000
0000
0000
0000
0000
0000
0000
0000
0000
0000
0000
0000
0100
0000
0000
0000
0000
0000
0000
0000
0000
0000
0000
0000
0000
0000
0000
0000
0000
0000
0000
0000
0000
0000
0000
0000
,
0010
0000
0000
0001
0000
0000
0100
0000
0010
0000
0000
0100
0000
0000
1000
0000
,
0200
0000
0300
0000
1000
0100
0000
0000
0100
0000
0000
0010
0000
0000
0001
0000
,
0200
0000
0300
0000
0020
0000
0030
0000
0200
0000
0300
0000
0010
0100
0000
0000
,
0010
0000
0000
0001
0000
0000
0100
0000
0020
0000
0000
0030
0000
0000
0100
0000
,
1000
0000
0000
0100
0000
0000
0010
0000
0001
0000
0000
0100
0000
0000
0010
0000
,
0200
0000
0300
0000
0100
0010
0000
0000
0002
0000
0003
0200
0000
0300
0010
0000
,
2000
3000
0200
0300
2000
0000
0000
3000
,
0101
0000
0000
0000
0010
0000
0000
0000
2002
0000
0000
3003
0000
0000
0100
0000
,
1000
0000
0000
0100
0000
0000
0010
0000
0001
0000
0000
0100
0000
0000
0010
0000
,
0200
0000
0300
0000
0010
0100
0000
0000
0002
0000
0003
0100
0000
0000
0010
0000
,
2000
0000
0000
3000
0020
0000
0030
0000
0200
0000
0300
0000
0010
1000
0000
0000
,
0010
0000
0000
0100
0000
0000
0001
0000
0200
0000
0000
0000
0300
0000
0010
0000
,
0010
0000
0000
0001
0000
0000
0001
0000
0100
0000
0000
0100
0000
0000
1000
0000
,
2000
0000
0000
0000
3000
0000
0000
0000
0100
0000
0000
0100
0000
0000
1000
0000
,
2000
0000
0000
3000
0010
0000
0000
0000
0202
0000
0000
0000
0303
0000
0000
0000
,
0010
1000
1000
0000
1000
0010
0100
0000
0000
0000
0010
0000
0100
0000
0010
0002
,
0000
0000
0003
1000
0000
0000
0100
0000
0000
0000
0010
0000
0100
0000
0010
0100
,
0000
0000
0010
0000
0001
0000
0100
0000
0020
0000
0030
0000
0100
0000
1000
0200
,
0000
0300
0000
0010
0000
0000
0100
0000
0010
0001
0010
0100
0010
0100
0010
1000
,
0101
0000
0000
0000
2020
0000
0000
3030
0000
0000
0100
0000
0010
0000
0100
0020
,
0000
0000
0030
0001
0000
0000
1000
0000
0100
0000
1000
0000
0100
0000
1000
0100
,
0000
0000
0100
0000
0010
0000
0001
0000
0200
0000
0000
0300
0010
0000
0000
0000
,
0010
0010
0010
0000
0001
0000
0100
0000
0020
0000
0000
0030
0100
0000
0000
0000
,
1000
0100
1000
0000
0100
0010
0100
0000
0020
0000
0000
0000
0030
0000
0200
0000
,
0000
0000
0300
0000
2000
0000
0000
3000
0200
0000
0000
0300
0000
0000
2000
0000
,
0000
3000
0100
0000
0010
0000
0001
0000
0200
0000
0000
0000
0300
0000
0010
0000
,
0200
0000
0300
0000
0010
0001
0000
0000
0020
0000
0000
0000
0030
0000
0200
0000
,
0000
0000
0300
0000
2000
0000
0000
3000
0200
0000
0000
0000
0300
0000
2000
0000
,
0000
0000
3000
0000
0200
0000
0000
0300
0020
0000
0000
0000
0000
0000
0030
0000
,
0001
0000
0000
0100
0000
0000
0010
0000
0200
0000
0000
0000
1300
0000
0000
0000
,
0100
0000
1000
0000
0100
1000
0000
0000
0100
0010
0001
0000
0010
0000
0100
0000
,
1100
0000
1010
0000
1001
0000
0100
0010
,
0100
0000
0000
1000
0000
0000
0100
0000
0010
0000
0000
0001
0000
0000
0100
0000
,
0020
0000
0030
0000
1000
0010
0000
0000
0200
0000
0300
0001
0000
0000
0100
0000
,
0020
0000
0000
0030
2000
0000
0000
3000
0020
0000
0030
0000
0100
0010
0000
0000
,
0001
0000
0000
0100
0000
0000
0001
0000
2000
0000
0000
3000
0010
0000
0100
0000
,
0100
0000
0000
1000
0000
0000
1000
0000
0100
0000
0000
0100
0000
0000
0010
0000
,
0200
0000
0300
0000
0100
0010
0000
0000
0002
0000
0003
0100
0000
0000
0010
0000
,
0200
0000
0000
0300
2000
0000
0000
3000
0200
0000
0000
0000
0300
0000
0000
0000
,
1100
0000
0000
0000
0110
0000
0000
0000
0022
0000
0000
0033
0000
0000
0001
0000
,
0010
0000
0000
0010
0000
0000
0100
0000
0010
0000
0000
1000
0000
0000
0100
0000
,
2000
0000
3000
0000
1000
0100
0000
0000
0010
0000
0000
0100
0000
0000
0010
0000
,
0002
0000
0003
0000
0200
0000
0300
0000
0010
0000
0000
0000
0100
0010
0000
0000
,
0001
0000
0000
0100
0000
0000
0010
0000
0200
0000
0000
0300
0000
0000
0100
0000
,
1000
0000
0000
0100
0000
0000
1000
0000
0100
0000
0000
0010
0000
0000
0001
0000
,
0200
0000
0300
0000
0100
0010
0000
0000
0200
0000
0300
0010
0000
0000
0001
0000
,
0020
0000
0000
0030
0200
0000
0300
0000
2200
0000
0000
0000
3300
0000
0000
0000
,
0110
0000
0000
0000
0100
0000
0010
0000
0100
0000
0010
0000
0001
0000
0100
0001
,
0000
0000
0010
0000
0100
0000
1000
0000
0100
0000
1000
0000
0100
0000
1000
0100
,
0000
0000
0100
0000
0010
0000
0001
0000
0100
0000
0010
0000
0100
0000
0010
0100
,
0000
0000
0100
0000
1000
0000
0100
0000
1000
0000
0000
1000
0000
0000
0100
0000
,
0010
0000
0000
0000
0001
0000
0100
0000
0010
0000
0100
0000
0010
0000
0100
0010
,
0000
0000
0001
0000
0100
0000
0001
0000
0100
0000
0001
0000
0100
0000
0001
0100
,
0000
0000
0010
0000
1000
0000
0010
0000
1000
0000
0010
0000
1000
0000
0010
1000
,
0000
0000
1000
0000
0100
0000
0010
0000
0001
0100
0010
0000
1000
0100
0010
0000
,
0001
1000
0100
0000
0010
0000
0100
0000
0220
0000
0000
0000
0000
0000
0000
0000
,
0000
0000
0000
0000
,
0000
0000
0000
0000
,
0330
0000
0000
0000
;
