#TITLE:SEED;
#SUBTITLE:;
#ARTIST:DJ YOSHITAKA;
#TITLETRANSLIT:;
#SUBTITLETRANSLIT:;
#ARTISTTRANSLIT:;
#GENRE:BEMANI;
#CREDIT:Wrland;
#MUSIC:SEED.ogg;
#BANNER:SEED.png;
#BACKGROUND:SEED-bg.png;
#CDTITLE:Wrland Season 3 CITYGHT + last one night.png;
#SAMPLESTART:35.365;
#SAMPLELENGTH:12.000;
#SELECTABLE:YES;
#OFFSET:-0.233;
#BPMS:0.000=152.000;
#STOPS:;
#METERTYPE:DDR X;
#JACKET:SEED-jacket.png;
#CDIMAGE:SEED-cd.png;
#BGCHANGES:;
#FGCHANGES:;

//--------------- dance-single - Wrland ----------------
#NOTES:
     dance-single:
     Wrland:
     Beginner:
     2:
     0,0,0,0,0:
0000
0000
0000
0000
,
0000
0000
0000
0000
,
0000
0000
0000
0000
,
0000
0000
0000
0000
,
1000
0000
0000
0000
,
1000
0000
0000
0000
,
1000
0000
0000
0000
,
1001
0000
0000
0000
,
0100
0000
0000
0000
,
0010
0000
0000
0000
,
0100
0000
0000
0000
,
0010
0000
0000
0000
,
0100
0000
0000
0000
,
0010
0000
0000
0000
,
0001
0000
0000
0000
,
1000
0000
0000
0000
,
0100
0000
0000
0000
,
1000
0000
0000
0000
,
0001
0000
0000
0000
,
0100
0000
0000
0000
,
0001
0000
0000
0000
,
0010
0000
0000
0000
,
0100
0000
0000
0000
,
0010
0000
0000
0000
,
0220
0000
0000
0000
,
0000
0000
0000
0000
,
0000
0000
0000
0000
,
0000
0000
0330
0000
,
2200
0000
0000
0000
,
0000
0000
0000
0000
,
0000
0000
0000
0000
,
0000
0000
3300
0000
,
0100
0000
0000
0000
,
0100
0000
0000
0000
,
0010
0000
0000
0000
,
0001
0000
0000
0000
,
0010
0000
0000
0000
,
0100
0000
0000
0000
,
1000
0000
0000
0000
,
0100
0000
0000
0000
,
0010
0000
0000
0000
,
0001
0000
0000
0000
,
0010
0000
0000
0000
,
0100
0000
0000
0000
,
1000
0000
0000
0000
,
0100
0000
0000
0000
,
1000
0000
0000
0000
,
0110
0000
0000
0000
,
2002
0000
0000
0000
,
0000
3003
0000
0000
,
0100
0000
0000
0000
,
0010
0000
0000
0000
,
0100
0000
0000
0000
,
0010
0000
0000
0000
,
0001
0000
0000
0000
,
1000
0000
0000
0000
,
0100
0000
0000
0000
,
0010
0000
0000
0000
,
0000
0100
0000
0000
,
0000
0010
0000
0000
,
0100
0000
0000
0000
,
1000
0000
0000
0000
,
0001
0000
0000
0000
,
1000
0000
0000
0000
,
0100
0000
0000
0000
,
0010
0000
0000
0000
,
0100
0000
0000
0000
;

//--------------- dance-single - Wrland ----------------
#NOTES:
     dance-single:
     Wrland:
     Easy:
     4:
     0,0,0,0,0:
0000
0000
0000
0000
,
0000
0000
0000
0000
,
0000
0000
0000
0000
,
0000
0000
0000
0000
,
1000
0000
1000
0000
,
0100
0000
0010
0000
,
0001
0000
0100
0000
,
0110
0000
0000
0000
,
0100
0000
1000
0000
,
0100
0000
0010
0000
,
0001
0000
0010
0000
,
0100
0000
0010
0000
,
0001
0000
0100
0000
,
0010
0000
1000
0000
,
0100
0000
1000
0000
,
0100
0000
0010
0000
,
0001
0000
0001
0000
,
1000
0000
1000
0000
,
0100
0000
0100
0000
,
0010
0000
0010
0000
,
0001
0000
0001
0000
,
0100
0000
0100
0000
,
0101
0000
1010
0000
,
0101
0000
1010
0000
,
0200
0000
0300
0000
,
0100
0000
0000
0000
,
2000
0000
3000
0000
,
1000
0000
0000
0000
,
0200
0000
0300
0000
,
0010
0000
0000
0000
,
0002
0000
0000
0003
,
0100
0000
0000
0000
,
0200
0000
0300
0000
,
0110
0000
0000
0000
,
0020
0000
0030
0000
,
0011
0000
0000
0000
,
0002
0000
0003
0000
,
0101
0000
0000
0000
,
0020
0000
0030
0000
,
1010
0000
0000
0000
,
1000
0000
0000
0000
,
1000
0000
0000
0000
,
0100
0000
0000
0000
,
0100
0000
0000
0000
,
0010
0000
0000
0000
,
0001
0000
0000
0000
,
0010
0000
0000
0000
,
0100
0000
0000
0000
,
0220
0000
0000
0000
,
0000
0330
0000
0000
,
1000
0000
0000
0000
,
1000
0000
0000
0000
,
0100
0000
0000
0000
,
0010
0000
0000
0000
,
0001
0000
0000
0000
,
0100
0000
0000
0000
,
0010
0000
0000
0000
,
0100
0000
0000
0000
,
0000
0110
0000
0000
,
0000
1001
0000
0000
,
1000
0000
0000
0000
,
0100
0000
0000
0000
,
1000
0000
0000
0000
,
0001
0000
0000
0000
,
1000
0000
0000
0000
,
0100
0000
0000
0000
,
0110
0000
0000
0000
;

//--------------- dance-single - Wrland ----------------
#NOTES:
     dance-single:
     Wrland:
     Medium:
     7:
     0,0,0,0,0:
0000
0000
0000
0000
,
0000
0000
0000
0000
,
0000
0000
0000
0000
,
0000
0000
0000
0000
,
1000
0001
1000
0000
0001
1000
0001
0000
,
0100
1000
0100
0000
0010
0100
0010
0000
,
0001
0010
0100
1000
0100
0000
0000
0000
0010
0100
0010
0100
0010
0000
0000
0000
,
0202
0000
0000
0303
,
1000
0100
0001
0100
0010
0100
1000
0000
,
0100
1000
0100
0001
0100
0010
0100
0000
,
0010
0001
0100
0010
0100
1000
0100
0000
,
0010
0001
0010
0100
0010
0000
0000
0000
1000
0100
0010
0100
0010
0000
0000
0000
,
0100
0010
0001
0100
0010
1000
0100
0000
,
1000
0100
0001
0100
0010
1000
0100
0000
,
1000
0100
0001
0010
0100
0010
0100
0000
,
0001
0010
0001
0010
0001
0000
0000
0000
1000
0100
1000
0100
1000
0000
0000
0000
,
0100
0010
0001
0100
0010
1000
0100
0000
,
0100
0010
0001
0100
0010
1000
0100
0000
,
1000
0100
0001
0100
0010
0100
0010
0000
,
0100
0001
0010
0001
0010
0000
0000
0000
0100
0010
0001
0100
0010
0000
0000
0000
,
1000
0100
0001
0100
0010
0100
0010
0000
,
0001
0100
0010
0100
0010
0001
0010
0000
,
1001
0000
0100
0000
0010
0000
0100
0000
0010
0100
0010
0001
0100
0000
0010
0000
,
0100
1000
0100
0010
0100
0010
0001
0010
0100
0000
0000
0010
0100
0000
0000
0000
,
2000
0000
0000
0000
0000
0000
0001
0010
,
0000
0001
0001
0000
0010
0000
0001
0000
0000
0000
3020
0000
0000
0000
0030
0000
,
0002
0000
0003
2000
0000
0000
0100
0100
,
0000
0100
0100
0000
0100
0000
0100
0000
0000
0000
3200
0000
0000
0000
0300
0000
,
0020
0000
0030
0002
0000
0000
0100
0100
,
0000
0100
0100
0000
0100
0000
0100
0000
0000
0000
0203
0000
0000
0000
0300
0000
,
2000
0000
0000
0001
0000
0000
0001
0001
,
0000
0001
0001
0000
0001
0000
0001
0000
0000
0000
3002
0000
0000
0000
0003
0000
,
0010
0000
0000
0100
0010
0000
0200
0000
0000
0000
0300
0000
1000
0000
0000
0000
,
0100
0000
0000
0010
0100
0000
0020
0000
0000
0000
0030
0000
0001
0000
0000
0000
,
0100
0000
0000
0010
0100
0000
0020
0000
0000
0000
0030
0000
0100
0000
0000
0000
,
0010
0000
0000
0001
0100
0000
0002
0000
0000
0000
0003
0000
0010
0000
0000
0000
,
0100
0000
0010
1000
0100
0000
2000
0000
0000
0000
3000
0000
0100
0000
0000
0000
,
0010
0000
0100
0010
0001
0000
2000
0000
0000
0000
3000
0000
0100
0000
0000
0000
,
1000
0000
0100
1000
0100
0000
0020
0000
0000
0000
0030
0000
0100
0000
0000
0000
,
0010
0000
0001
0100
0001
0000
0020
0000
0000
0000
0030
0000
0100
0000
0000
0000
,
0010
0001
0010
0001
0010
0001
0010
0001
,
0010
0100
0010
0100
0010
0100
0010
0100
,
1000
0100
1000
0100
1000
0100
1000
0100
,
0010
1000
0001
0000
0100
0000
0010
0000
0100
0001
1000
0000
0001
0000
0100
0000
,
0010
0100
0010
0001
0100
0010
1000
0100
,
1000
0100
0010
0001
0100
0010
1000
0100
,
0010
0001
0100
0010
1000
0100
0010
0001
,
0202
0303
0000
2020
3030
0000
0220
0330
,
2020
0000
0000
0000
,
3030
0000
0000
0000
0000
0000
0100
0010
0100
0000
0010
0000
0001
0000
0010
0000
,
0100
0000
0000
1000
0000
0000
0200
0000
0000
0000
0300
0000
0010
0000
0100
0000
,
0010
0000
0000
0001
0000
0000
0200
0000
0000
0000
0300
0000
0010
0000
0100
0000
,
0010
0000
0000
0001
0000
0000
0200
0000
0000
0000
0300
0000
0010
0000
0100
0000
,
1000
0000
0000
0100
0000
0000
2000
0000
0000
0000
3000
0000
0100
0000
1000
0000
,
0100
0000
0000
0010
0000
0000
0002
0000
0000
0000
0003
0000
0100
0000
0010
0000
,
0100
0000
0000
0010
0000
0000
0002
0000
0000
0000
0003
0000
0100
0000
0010
0000
,
0100
0000
0000
0010
0000
0000
0002
0000
0000
0000
0003
0000
0100
0000
1000
0000
,
0100
0000
0000
0010
0000
0000
0002
0000
0000
0000
0003
0000
0000
0000
0000
0000
,
0100
0010
0100
0010
0100
0000
0000
0000
0220
0000
0000
0000
0330
0000
0000
0000
,
0001
1000
0001
1000
0001
0000
0000
0000
2002
0000
0000
0000
3003
0000
0000
0000
,
1000
0000
0000
0100
0000
0000
0020
0000
0000
0000
0000
0000
0030
0000
0000
0000
,
0100
0000
0000
0010
0000
0000
0001
0000
0000
0100
0000
0000
0010
0000
0000
0000
,
1000
0100
0011
0000
0022
0000
0033
0000
,
0001
0010
1100
0000
2200
0000
3300
0000
,
0100
0000
0000
0010
0000
0000
0001
0000
0000
0100
0000
0000
0010
0000
0100
0000
,
0010
0000
0000
0100
0000
0000
0010
0000
0000
0001
0000
0000
0010
0000
0100
0000
,
0011
0000
0000
0000
;

//--------------- dance-single - Wrland ----------------
#NOTES:
     dance-single:
     Wrland:
     Hard:
     10:
     0,0,0,0,0:
0000
0000
0000
0000
,
0000
0000
0000
0000
,
0000
0000
0000
0000
,
0000
0000
0000
0000
,
1000
0001
1000
0000
0001
1000
0001
0000
1000
0001
1000
0000
0001
1000
0001
0000
,
0100
0010
0100
0000
0010
0100
0010
0000
0100
0010
0100
0000
0010
0100
0010
0000
,
0001
0010
0100
0000
0001
0010
0100
0000
0010
0100
1000
0000
0010
0100
1000
0000
,
0100
0000
0010
0001
0000
0100
0010
0100
0010
0001
0010
0100
0010
0001
0010
0100
,
0010
0000
1000
0001
0000
0000
0100
0000
0010
0000
0000
0000
0100
0000
0000
0000
,
0001
0000
0100
0001
0000
0000
0001
0000
0010
0000
0000
0000
0100
0000
0000
0000
,
1000
0000
0100
1000
0000
0000
0100
0000
0010
0000
0000
0000
0001
0000
0000
0000
,
0100
0000
0010
0100
0000
0000
0010
0000
0100
0000
0000
0000
0010
0000
0000
0000
,
0001
0000
0100
0001
0000
0000
0010
0000
0100
0000
0000
0000
0110
0000
0000
0000
,
0010
0000
0001
0100
0000
0000
0001
0000
0100
0000
0000
0000
0101
0000
0000
0000
,
0010
0000
1000
0010
0000
0000
0100
0000
0010
0000
0000
0000
0110
0000
0000
0000
,
1000
0000
0100
1000
0000
0000
0100
0000
1000
0000
0000
0000
1100
0000
0000
0000
,
0100
0000
1000
0100
0000
0000
0010
0000
0100
0000
0000
0000
0001
0000
0000
0000
,
0010
0000
0100
0010
0000
0000
0001
0000
0100
0000
0000
0000
0010
0000
0000
0000
,
0100
0000
1000
0100
0000
0000
0010
0000
0100
0000
0000
0000
0010
0000
0000
0000
,
0001
0000
0100
0001
0000
0000
0010
0000
0100
0000
0000
0000
1000
0000
0000
0000
,
0100
0000
1000
0100
0000
0000
0010
0000
0001
0000
0000
0000
0101
0000
0000
0000
,
0010
0000
0100
0010
0000
0000
0001
0000
0100
0000
0000
0000
0110
0000
0000
0000
,
1000
0000
0001
1000
0000
0000
0001
0000
1000
0001
1000
0001
1000
0000
0100
0000
,
0100
0010
0001
0010
0100
1000
0100
0010
0001
0000
0100
0001
0100
0000
0000
0000
,
2020
3030
0000
0202
0303
0000
0100
0010
,
0000
0001
0010
0000
0100
0000
0020
0000
0030
0000
0200
0000
0000
0000
0300
0000
,
0020
0000
0030
0002
0000
0003
0100
0010
,
0000
0100
0010
0000
0001
0000
0200
0000
0300
0000
0010
0000
0002
0000
0003
0000
,
0200
0000
0300
2000
0000
3000
0100
1000
,
0000
0100
1000
0000
0100
0000
0002
0000
0003
0000
0100
0000
0020
0000
0030
0000
,
0200
0000
0300
0020
0000
0030
0001
1000
,
0000
1000
0001
0000
1000
0000
0200
0000
0300
0000
0020
0000
0000
0000
0030
0000
,
0100
0000
0000
0010
0001
0000
0020
0000
0030
0000
0000
0000
0220
0000
0330
0000
,
1000
0000
0000
0100
1000
0000
0200
0000
0000
0000
0300
0000
1100
0000
0000
0000
,
0100
0000
0000
0010
0100
0000
0020
0000
0000
0000
0030
0000
0110
0000
0000
0000
,
0001
0000
0000
0100
0001
0000
0200
0000
0000
0000
0300
0000
0101
0000
0000
0000
,
0010
0000
0000
0100
0010
0000
0200
0000
0000
0000
0300
0000
0110
0000
0000
0000
,
1000
0000
0000
0100
0010
0000
0200
0000
0000
0000
0300
0000
0011
0000
0000
0000
,
0001
0000
0000
1000
0001
0000
2000
0000
0000
0000
3000
0000
0110
0000
0000
0000
,
0001
0000
0000
1000
0100
0000
2000
0000
0000
0000
3000
0000
0110
0000
0000
0000
,
2000
3000
0200
0300
0020
0030
0100
0020
,
0030
0002
0003
0020
0030
0200
0300
2000
,
3000
0000
0200
0300
0020
0030
0001
0200
,
0300
0020
0030
0200
0300
0020
0030
0000
,
0002
0003
0200
0300
0020
0030
0100
0020
,
0030
2000
3000
0200
0300
2000
3000
0000
,
0200
0300
0020
0030
0002
0003
0100
0020
,
0030
0200
0300
0020
0030
0002
0003
0000
,
0202
0000
0000
0000
,
0303
0000
0000
0000
0000
0000
0100
0010
0100
0000
0010
0000
0001
0000
0010
0000
,
0100
0000
0000
1000
0000
0000
0100
0000
0000
0001
0000
0000
0100
0000
0010
0000
,
0100
0000
0000
1000
0000
0000
0100
0000
0000
0010
0000
0000
0100
0000
0010
0000
,
0001
0000
0000
0100
0000
0000
0010
0000
0100
0000
0000
0000
0010
0000
0100
0000
,
0010
0000
0000
0001
0000
0000
0100
0000
0000
1000
0000
0000
0100
0000
1000
0000
,
0100
0000
0000
0001
0000
0000
0100
0000
0000
0010
0000
0000
0100
0000
0010
0000
,
0001
0000
0000
0100
0000
0000
0010
0000
0000
0100
0000
0000
1000
0000
0100
0000
,
0010
0000
0000
0001
0000
0000
0100
0000
0000
0010
0000
0000
0100
0000
0010
0000
,
0001
0000
0000
0100
0000
0000
0010
0000
0000
1000
0000
0000
0100
0000
0001
0000
,
0100
0001
0100
0001
0100
0000
0000
0000
0010
1000
0010
1000
0010
0000
0000
0000
,
0100
0010
0100
0010
0100
0000
0000
0000
0010
0001
0010
0001
0010
0000
0000
0000
,
0100
0000
0000
1000
0000
0000
0100
0000
0000
0001
0000
0000
0100
0000
0010
0000
,
0100
0000
0000
0010
0000
0000
0001
0000
0000
0100
0000
0000
0010
0000
0100
0000
,
0010
0100
0011
0000
0100
1000
1100
0000
,
0100
0010
0101
0000
0100
1000
1100
0000
,
0100
0000
0000
0010
0000
0000
0001
0000
0000
0100
0000
0000
0010
0000
0100
0000
,
0010
0000
0000
0100
0000
0000
0010
0000
0000
0001
0000
0000
0100
0000
0010
0000
,
0110
0000
0000
0000
;
