#TITLE:RUMOR;
#SUBTITLE:;
#ARTIST:ポリスピカデリー;
#TITLETRANSLIT:;
#SUBTITLETRANSLIT:;
#ARTISTTRANSLIT:Police Piccadilly;
#GENRE:J-Pop;
#CREDIT:Wrland;
#MUSIC:RUMOR.ogg;
#BANNER:RUMOR.png;
#BACKGROUND:RUMOR-bg.png;
#CDTITLE:Wrland Season 3 CITYGHT.png;
#SAMPLESTART:34.289;
#SAMPLELENGTH:12.000;
#SELECTABLE:YES;
#OFFSET:-6.860;
#BPMS:0.000=70.000
,30.000=35.000
,31.000=70.000
,93.000=35.000
,94.000=70.000
;
#STOPS:;
#DISPLAYBPM:70.000;
#JACKET:RUMOR-jacket.png;
#CDIMAGE:RUMOR-cd.png;
#METERTYPE:DDR X;
#BGCHANGES:;
#FGCHANGES:;

//--------------- dance-single - Wrland ----------------
#NOTES:
     dance-single:
     Wrland:
     Beginner:
     1:
     0,0,0,0,0:
1000
0000
0000
0000
,
1000
0000
0000
0000
,
0100
0000
0000
0000
,
0010
0000
0000
0000
,
0001
0000
0000
0000
,
0010
0000
0000
0000
,
0100
0000
0000
0000
,
1000
0000
0000
0100
,
0000
0000
0000
0100
,
0000
0000
0000
0001
,
0000
0000
0000
0010
,
0000
0000
0000
0100
,
0000
0000
0000
1000
,
0000
0000
0000
0100
,
0000
0000
0000
0100
,
0000
0000
0000
0020
,
0000
0030
0000
0002
,
0000
0003
0000
2000
,
0000
3000
0000
0200
,
0000
0300
0000
0020
,
0000
0030
0000
0200
,
0000
0300
0000
0200
,
0000
0300
0000
0020
,
0000
0030
1001
0000
,
0000
0000
1000
0000
,
0000
0000
1001
0000
,
0000
0000
0001
0000
,
0000
0000
0010
0000
,
0000
0000
0100
0000
,
0000
0000
0100
0000
,
0000
0000
1000
0000
;

//--------------- dance-single - Wrland ----------------
#NOTES:
     dance-single:
     Wrland:
     Easy:
     3:
     0,0,0,0,0:
1000
1000
0100
1000
,
0100
0010
0001
0001
,
0010
0100
0100
0010
,
0100
1000
0100
0100
,
0010
0010
0100
0110
,
0001
0001
1000
1001
,
1000
0100
1000
1100
,
0100
0000
0010
0000
2002
3003
0100
0000
,
0100
0100
0110
0010
,
0010
0010
0011
0001
,
0001
0001
0011
0010
,
0010
0010
0110
1000
,
0100
0010
0001
0001
,
0010
0100
1000
0100
,
1000
0100
1000
0100
,
0010
0001
0010
2000
,
0000
3001
0000
0002
,
0000
1003
0000
0200
,
0000
0310
0000
0020
,
0000
0130
0000
0020
,
0000
0031
0000
0002
,
0000
0103
0000
2000
,
0000
3100
0000
0020
,
0000
0130
0100
0100
,
0100
1100
1000
1000
,
1000
1010
0100
0100
,
0100
0110
0010
0010
,
0010
0011
0001
0001
,
0010
0100
1000
0100
,
0010
0001
0100
0010
,
0100
0110
0001
1000
,
0001
1001
0000
0000
;

//--------------- dance-single - Wrland ----------------
#NOTES:
     dance-single:
     Wrland:
     Medium:
     6:
     0,0,0,0,0:
0000
1000
0000
0000
1000
0001
2000
3000
0000
1000
0000
0000
0001
1000
0002
0003
,
0000
0100
0000
0000
0010
0100
0010
0001
0100
0000
0010
0000
0200
0000
0000
0300
,
0000
1000
0000
0000
0100
1000
0200
0300
0000
0100
0000
0000
0100
0010
0002
0003
,
0000
0100
0000
0000
0010
0100
0010
0000
0001
0000
0100
0000
0010
0000
0100
0000
,
1000
0000
0100
0000
0010
0001
0011
0000
,
0010
0100
0010
0000
0100
1000
1100
0000
,
0100
1000
0100
0000
0010
0100
0101
0000
,
0010
0000
0001
0000
0010
0000
0100
0000
1100
0110
0022
0033
0100
0010
0100
0010
,
0100
0000
0010
0000
0001
0000
0010
0000
0100
0000
1000
0000
0100
0010
0001
0000
,
1001
0000
0100
0000
0010
0100
1000
0000
2200
0000
3300
0000
0100
1000
0100
1000
,
0100
0000
0100
0000
0010
0000
0001
0000
0010
0000
0100
0000
0100
0010
0110
0000
,
0000
0100
0010
0001
0100
0001
0100
0000
0202
0000
0303
0000
0010
0000
1000
0000
,
0100
0000
0000
1000
0000
0000
0100
0000
0000
1000
0000
0000
1000
0000
1100
0000
0000
0000
0100
0000
0000
0010
0000
0000
,
0100
0000
0000
0000
0000
0000
0010
0000
0000
0000
0000
0000
0001
0000
0000
0000
0000
0000
0100
0000
0000
0000
0000
0000
0010
0000
0000
0000
0110
0000
0000
0000
0000
0000
0000
0000
0100
0000
0000
0010
0000
0000
0100
0000
0000
0010
0000
0000
,
0001
0000
0100
0000
1000
0000
0100
0000
0010
0000
0100
0010
0001
0100
0020
0030
,
0100
1000
0100
0010
0220
0330
0200
0300
,
0020
0000
0000
0030
0200
0000
0000
0300
2000
0000
0000
3000
0200
0000
0000
0300
,
2000
0000
0000
3000
0200
0000
0000
0300
0020
0000
0000
0030
0002
0000
0000
0003
,
0020
0000
0030
0000
0200
0000
0300
0000
0200
0000
0000
0300
2000
0000
0000
3000
,
0200
0000
0000
0300
2000
0000
0000
3000
0020
0000
0000
0030
0200
0000
0300
0000
,
0200
0000
0000
0300
0020
0000
0030
0000
0020
0000
0000
0030
0002
0000
0000
0003
,
0020
0000
0000
0030
0200
0000
0000
0300
2000
0000
0000
3000
0200
0000
0000
0300
,
0020
0000
0000
0030
0200
0000
0000
0300
0020
0000
0000
0030
0002
0000
0000
0003
,
0020
0000
0000
0030
0220
0000
0000
0330
1000
0001
1000
0001
1000
0000
0100
0000
,
1000
0000
0100
0000
0010
0000
0001
0000
0010
0001
0010
0000
0011
0000
0001
0100
,
0010
1000
0100
0000
2200
0000
3300
0000
1000
0100
1000
0100
0010
0000
0100
0000
,
0010
0000
0001
0000
0100
0000
0010
0000
0100
0010
0100
0000
0110
0010
0100
0010
,
0001
0100
0001
0000
0202
0000
0000
0303
1000
0000
0100
0000
0010
0000
0001
0000
,
0010
0000
0000
0100
0000
0000
0010
0000
0110
0000
0000
0000
0100
0000
0000
1000
0000
0000
0100
0000
0000
1000
0000
0000
,
0100
0000
0000
0000
0000
0000
0010
0000
0000
0000
0000
0000
0001
0000
0000
0000
1001
0000
0000
0000
0000
0000
0000
0000
0100
0000
0000
1000
0000
0000
0100
0000
0000
1000
0000
0000
0100
0000
0000
0000
0000
0000
0010
0000
0000
0000
0000
0000
,
0100
0000
0010
0000
0001
0000
0010
0100
0010
0100
2000
3000
0100
0010
0001
0100
,
0010
0100
0010
0000
0100
0000
0220
0000
0330
0000
0000
0000
0000
0000
0000
0000
;

//--------------- dance-single - Wrland ----------------
#NOTES:
     dance-single:
     Wrland:
     Hard:
     11:
     0,0,0,0,0:
1000
0000
0100
0000
0100
0000
0010
0000
0010
0000
0100
0000
0020
0000
0000
0030
0000
0000
0100
0000
0010
0000
0001
0000
0100
0000
0010
0000
2000
0000
0000
3000
,
0000
0000
1000
0000
0100
0000
1000
0000
0100
0000
0010
0000
0001
0000
0100
0000
1000
0000
0000
0100
0000
0000
0010
0000
0001
0000
0000
0200
0000
0000
0300
0000
,
0000
0010
0100
0010
0001
0100
0020
0030
0000
0100
0010
1000
0100
1000
0200
0300
,
0000
0000
1000
0000
0100
0000
1000
0000
0100
0000
0010
0000
0001
0000
0100
0000
0010
0000
0020
0000
0030
0000
0100
0000
0010
0000
0000
0200
0000
0300
0000
0000
,
0010
0000
0100
0010
0100
0000
0010
0000
0001
0000
0100
0000
0000
0000
0010
0000
0100
0000
0010
0000
1000
0000
0000
0000
2200
0000
0000
0000
3300
0000
0000
0000
,
0100
0000
1000
0100
1000
0000
0100
0000
0010
0000
0100
0000
0000
0000
0100
0010
0100
0000
0000
0000
0001
0000
0000
0000
0202
0000
0000
0000
0303
0000
0000
0000
,
0010
0100
0001
0000
0010
0000
1000
0000
0100
0000
0000
0010
0100
0000
0010
0000
0000
0000
0100
0000
0000
0000
0010
0000
0220
0000
0000
0000
0330
0000
0000
0000
,
0100
1000
0000
0000
0100
0000
0010
0000
0001
1000
0100
0000
0010
0000
0100
0000
0100
0010
0001
0000
0404
0000
0000
0303
0100
0000
0100
0000
1000
0000
0100
0000
,
1100
0000
1100
0000
0110
0000
0011
0000
0110
0000
1100
0010
0100
0010
0001
0000
,
0100
0000
0010
0001
0100
0000
0010
0000
0100
0000
1000
0000
0100
0000
0000
0000
2200
0000
0000
0000
3300
0000
0000
0000
1000
0000
0100
0000
1000
0000
0100
0000
,
0011
0000
1100
0000
0110
0000
0110
0000
0011
0000
1100
0100
0010
0001
0100
0000
,
0010
0000
0100
0010
0100
0000
1000
0000
0100
0000
1000
0000
0100
0000
0000
0000
0220
0000
0000
0000
0330
0000
0000
0000
0100
0000
0000
0010
0000
0000
0001
0000
,
0100
0000
0000
0010
0000
0001
1000
0000
0100
0000
0000
0010
0000
0000
0100
0000
0010
0000
0000
0200
0000
0300
0000
0000
0100
0000
0000
1000
0000
0000
0100
0000
,
0100
0000
0100
0010
0000
0000
0010
0000
0001
0000
0000
0010
0000
0000
0100
0000
0010
0000
0000
0200
0000
0000
0300
0000
0010
0000
0100
0000
1000
0000
0100
0000
,
1100
0000
1100
0000
0110
0000
0001
0000
0110
0000
0100
0010
0001
0100
0020
0030
,
0100
0000
1000
0100
1000
0000
0100
0000
0010
0000
0001
0000
0100
0000
0000
0000
0220
0000
0000
0000
0000
0330
0000
0000
0100
0000
0100
0000
0010
0000
0000
0000
,
0100
0000
1000
0000
0100
0000
1000
0000
0200
0000
0000
0300
0020
0000
0000
0030
0100
0000
0010
0000
0200
0000
0000
0000
0300
0000
0000
0000
0000
0000
0000
0000
,
0100
0010
0001
0100
0010
1000
0100
0010
0200
0300
0100
0020
0000
0030
0000
0000
,
0000
0000
0100
2000
3000
0100
1000
0100
0020
0030
0002
0000
0003
0000
0000
0000
,
0000
0100
1000
0100
0020
0030
0100
0010
0200
0300
0020
0030
0200
0000
0300
0000
,
0100
1000
0100
0000
0010
0000
0200
0000
0000
0300
0010
0000
0100
0000
0010
0000
0002
0000
0000
0003
0100
0000
2000
0000
3000
0000
0200
0000
0000
0300
0000
0000
,
0010
0100
0010
0000
0010
0000
0200
0000
0300
0000
0010
0000
0200
0000
0300
0000
0010
0000
0100
0000
0010
0000
0200
0000
0000
0000
0300
0000
0000
0000
0000
0000
,
0000
0000
0100
0000
0010
0000
0002
0000
0000
0000
0003
0000
2000
0000
3000
0000
0100
0000
0000
0100
0010
0000
0002
0000
0003
0000
2000
0000
3000
0000
0001
0000
,
4000
0000
0000
3000
0400
0000
0000
0000
0000
0000
0000
0000
0300
0000
0000
0000
0100
0000
0010
0000
0001
0000
0100
0000
0011
0000
0000
0000
1100
0000
0000
0000
,
0110
0000
0000
0000
0101
0000
0000
0000
1100
0000
0000
0000
0110
0000
0100
0000
0010
0000
0001
0000
0200
0000
0300
0000
0010
0000
0100
0010
0100
0000
0010
0000
,
0001
0100
0020
0030
2000
0000
3000
0000
0100
0010
0001
0100
0010
0000
1010
0000
,
0101
0000
0000
0000
0110
0000
0000
0000
1001
0000
0000
0000
0010
0000
0100
0000
0010
0000
0100
0000
0020
0000
0030
0000
0100
0000
0010
0100
0010
0000
1000
0000
,
0100
0000
0010
0000
0200
0000
0300
0000
0220
0000
0000
0000
0330
0000
0000
0000
0100
0000
0000
0010
0000
0000
0001
0000
0100
0000
0000
0010
0000
0001
0100
0000
,
1000
0000
0000
0100
0000
0000
1000
0000
0100
0000
0000
0010
0000
0000
0000
0000
0100
0000
0000
0010
0000
0000
0001
0000
0100
0000
0001
1000
0000
0000
0100
0000
,
0010
0000
0001
0100
0000
0000
0010
0000
0100
0000
0000
0010
0000
0000
0000
0000
0100
0000
1000
0000
0100
0000
0100
0000
0010
0000
0000
0000
0110
0000
0000
0000
,
1001
0000
0000
0000
0110
0000
0000
0000
1001
0000
0000
0000
1000
0000
0001
0000
0100
0000
0010
0000
2000
0000
0000
3000
0010
0000
0100
0010
0100
0000
0001
0000
,
1000
0010
0200
0300
0010
0000
0220
0000
0330
0000
0000
0000
0000
0000
0000
0000
;
