#VERSION:0.83;
#TITLE:ロキ;
#SUBTITLE:;
#ARTIST:みきとP;
#TITLETRANSLIT:ROKI;
#SUBTITLETRANSLIT:;
#ARTISTTRANSLIT:mikitoP;
#GENRE:J-Pop;
#CREDIT:Wrland;
#MUSIC:ROKI.ogg;
#BANNER:ROKI.png;
#BACKGROUND:ROKI-bg.png;
#CDTITLE:Wrland Season 3 CITYGHT.png;
#SAMPLESTART:15.600;
#SAMPLELENGTH:12.000;
#SELECTABLE:YES;
#OFFSET:-3.600;
#BPMS:0.000=150.000;
#STOPS:;
#DISPLAYBPM:150.000;
#JACKET:ROKI-jacket.png;
#CDIMAGE:ROKI-cd.png;
#METERTYPE:DDR X;
#BGCHANGES:;
#FGCHANGES:;

//--------------- dance-single - Wrland ----------------
#NOTEDATA:;
#STEPSTYPE:dance-single;
#DESCRIPTION:Wrland;
#DIFFICULTY:Beginner;
#METER:2;
#RADARVALUES:0,0,0,0,0;
#NOTES:
0000
0000
0000
0000
,
0000
0000
0000
0000
,
0000
0000
0000
0000
,
0000
0000
0000
0000
,
0000
0000
0000
0000
,
0000
0000
0000
0000
,
0000
0000
0000
0000
,
0000
0000
0000
0000
,
0100
0000
0000
0000
,
0000
0000
0000
0000
,
0100
0000
0000
0000
,
0000
0000
0000
0000
,
0010
0000
0000
0000
,
0000
0000
0000
0000
,
0001
0000
0000
0000
,
0000
0000
0000
0000
,
1000
0000
0000
0000
,
0000
0000
0000
0000
,
0100
0000
0000
0000
,
0000
0000
0000
0000
,
0100
0000
0000
0000
,
0000
0000
0000
0000
,
1000
0000
0000
0000
,
0000
0000
0000
0000
,
1000
0000
0000
0000
,
0000
0000
0000
0000
,
0001
0000
0000
0000
,
0000
0000
0000
0000
,
0001
0000
0000
0000
,
0000
0000
0000
0000
,
0010
0000
0000
0000
,
0000
0000
0000
0000
,
0100
0000
0000
0000
,
0000
0000
0000
0000
,
1000
0000
1000
0000
,
1000
1000
1001
0000
,
0001
0000
0001
0000
,
0001
0001
1001
0000
,
0100
0000
1000
0000
,
0100
1000
1100
0000
,
0100
0000
0010
0000
,
0001
0100
0101
0000
,
1000
0000
1100
0000
,
0100
0000
0110
0000
,
0010
0000
0101
0000
,
0001
0000
0110
0000
,
1000
0000
1001
0000
,
0100
0000
0110
0000
,
0010
0000
0000
0000
,
1000
0000
0000
0000
,
0001
0000
0000
0000
,
0200
0000
0000
0000
,
0300
0000
0010
0000
,
0000
0000
0000
0000
,
0000
0000
0100
0000
,
0000
0000
0000
0000
,
0000
0000
1000
0000
,
0000
0000
0000
0000
,
0000
0000
0100
0000
,
0000
0000
0000
0000
,
0000
0000
0010
0000
;

//--------------- dance-single - Wrland ----------------
#NOTEDATA:;
#STEPSTYPE:dance-single;
#DESCRIPTION:Wrland;
#DIFFICULTY:Easy;
#METER:4;
#RADARVALUES:0,0,0,0,0;
#NOTES:
0000
0000
0000
0000
,
0000
0000
0000
0000
,
0000
0000
0000
0000
,
0000
0000
0000
0000
,
0000
0000
0000
0000
,
0000
0000
0000
0000
,
0000
0000
0000
0000
,
0000
0000
0000
0000
,
1000
0000
0000
0000
,
0001
0000
0000
0000
,
1000
0000
0001
0000
,
1000
0000
0000
0000
,
0100
0000
0000
0000
,
1000
0000
0000
0000
,
0100
0000
0010
0000
,
0001
0000
0000
0000
,
0020
0000
0000
0000
,
0030
0000
0000
0000
,
0100
0000
0100
0000
,
0100
0000
1000
0000
,
1000
0000
1000
0000
,
1000
0000
0100
0000
,
0010
0000
0010
0000
,
0001
0000
0001
0000
,
0010
0000
0010
0000
,
0100
0000
0100
0000
,
2000
0000
0000
0000
,
3000
0000
0000
0000
,
2000
0000
0000
0000
,
0000
3000
0000
0000
,
0002
0000
0000
0000
,
0000
0003
0000
0000
,
0002
0000
0000
0000
,
0003
0000
0000
0000
,
0100
0000
0100
0000
,
0100
0100
0110
0000
,
0010
0000
0010
0000
,
0010
0010
0110
0000
,
0001
0000
0001
0000
,
0001
1000
1001
0000
,
1000
0100
0010
0000
,
0001
0010
0100
0000
,
0100
0000
1000
0000
,
0100
1000
0100
0000
,
0010
0000
0100
0000
,
0100
0010
0001
0000
,
0010
0000
0100
0000
,
1000
0100
1000
0000
,
0100
0010
0001
0000
,
0010
0100
1000
0000
,
0100
1000
0100
0000
,
0020
0000
0000
0000
,
0030
0000
0100
0000
,
0100
0000
1000
0001
,
1000
0000
0010
0000
,
0010
0000
0100
0010
,
0100
0000
0001
0000
,
0001
0000
0001
0010
,
0100
0000
1000
0000
,
1000
0000
1000
0000
,
0000
0000
1001
0000
;

//--------------- dance-single - Wrland ----------------
#NOTEDATA:;
#STEPSTYPE:dance-single;
#DESCRIPTION:Wrland;
#DIFFICULTY:Medium;
#METER:8;
#RADARVALUES:0,0,0,0,0;
#NOTES:
0000
0000
0000
0000
,
0000
0000
0000
0000
,
0000
0000
0000
0000
,
0000
0000
0000
0000
,
0000
0000
0000
0000
,
0000
0000
0000
0000
,
0000
0000
0000
0000
,
0000
0000
0000
0000
,
0100
1000
0100
0000
,
0100
0100
0100
0010
0001
0100
0000
0000
,
0010
0100
0010
0000
,
0100
1000
0100
0000
,
0010
0000
0100
0000
0010
0001
0000
0000
,
0010
0000
0100
0000
1000
0100
0000
1000
,
0000
1000
0100
1000
0100
0000
0100
0000
,
0010
0001
0200
0300
,
0010
0100
0010
0100
,
0010
0000
0100
0000
0010
0000
0100
0000
0010
0100
0010
0100
0010
0100
0010
0100
,
0010
0010
0100
0100
,
1000
1000
0100
1000
,
0100
0000
0001
0000
0010
0000
0001
0000
0001
0010
0000
1000
0000
0000
0100
0000
,
0010
0000
0000
0100
0000
0000
0010
0000
0001
0000
0000
0000
0000
0000
0000
0000
,
0100
0000
0010
0000
0100
0000
0010
0100
,
0010
0000
0001
0000
0010
0000
0100
0010
,
0000
0100
0100
1000
0100
0010
0001
0100
,
0010
0100
0010
0001
0100
0000
0010
0000
,
2000
0000
0000
0000
,
3000
0000
1000
0200
,
0000
0000
0000
0000
,
0300
0000
0001
2000
,
0000
0000
0000
0000
,
0000
0000
0000
0000
3000
0000
0000
1000
,
0000
0100
0010
0100
0010
0100
0010
0100
,
0011
0110
2200
3300
,
1000
0000
0100
0000
1000
0000
0100
0000
2000
0000
0000
3000
0100
0000
0000
0000
,
0010
0000
0100
0000
0020
0000
0000
0030
0001
0000
0000
0000
0010
0000
0000
0000
,
0100
0000
0010
0001
0000
0000
1000
0000
0100
0000
0010
0001
0000
0000
0100
0000
,
0011
0000
1100
0000
0011
0000
1100
0010
,
0000
0100
0010
0100
1000
0100
1000
0100
,
0000
0100
0010
0001
0100
0010
0100
0000
,
1000
0000
0100
0000
1000
0000
0100
0000
2000
0000
0000
3000
0100
0000
0010
0000
,
0001
0100
0002
0000
0000
0000
0003
0000
,
0010
0100
1000
0100
0020
0000
0030
0000
,
0001
1001
0001
1001
,
0001
0010
0100
1000
0200
0000
0300
0000
,
1000
1100
1000
1100
,
0100
0000
0010
0000
0100
0000
0020
0000
0000
0030
0002
0000
0000
0003
0000
0000
,
0010
0100
0010
2000
3000
0200
0300
0010
,
0000
0100
0010
1000
0100
0000
0010
0100
,
0000
0000
0010
0000
0001
0000
0100
0000
0010
0000
1000
0001
0000
0000
0010
0000
,
0000
0100
1000
0100
0010
0001
0100
0010
,
0100
0100
0100
0010
0020
0000
0000
0000
,
0000
0000
0000
0000
0030
0000
0000
0000
1000
0000
0100
1000
1000
0000
0100
0000
,
0010
0000
0100
0001
0010
0000
0100
0000
1000
0000
0100
0000
1000
0000
0000
0000
,
0100
0000
0010
0000
0100
0000
0000
0000
0010
0000
0100
0010
0100
0000
0010
0000
,
0001
0000
0001
0100
0001
0000
0100
0000
0010
0000
0000
0000
0100
0000
0000
0000
,
1000
0000
0100
0000
1000
0000
0000
0000
0100
0000
0000
0100
0000
0000
0010
0000
,
0001
0000
0000
0000
0100
0000
0000
0000
0010
0000
0000
0100
0000
0000
0010
0000
,
0001
0100
1000
1001
,
1001
0000
0000
0110
0000
0000
0001
0000
0200
0000
0000
0000
0000
0000
0000
0000
,
0300
0000
0220
0000
,
0330
0000
1001
0000
;

//--------------- dance-single - Wrland ----------------
#NOTEDATA:;
#STEPSTYPE:dance-single;
#DESCRIPTION:Wrland;
#DIFFICULTY:Hard;
#METER:12;
#RADARVALUES:0,0,0,0,0;
#NOTES:
0000
0000
0000
0000
,
0000
0000
0000
0000
,
0000
0000
0000
0000
,
0000
0000
0000
0000
,
1000
0000
0000
0100
0000
0000
0010
0000
0001
0000
0100
0000
0010
0000
0000
0000
,
0100
0000
0000
0010
0000
0000
0010
0000
0001
0000
0100
0000
0010
0000
0000
0000
,
0110
1001
0110
0110
,
2002
0000
0000
0000
3003
0000
0000
0000
0100
0000
0001
0000
0010
0100
0010
0000
,
1000
0000
0100
0000
1000
0000
0100
0000
0010
0000
0001
0000
0000
0000
0100
0001
,
0010
0000
0100
0000
0010
0000
0001
0000
0100
0000
0010
0000
0000
0000
0100
0010
,
0100
0000
1000
0000
0100
0000
1000
0100
0010
0001
0010
0100
0010
0000
0000
0100
,
1000
0000
0100
0000
0010
0000
0001
0010
1100
0000
0220
0000
0330
0000
1000
0000
,
0100
0000
0010
0000
0100
0000
0010
0001
0010
0000
0100
0000
1001
0000
1001
0100
,
0010
0000
0100
0010
0000
0000
0001
0000
1000
0000
0100
0000
0000
0000
0020
0000
,
0030
0000
0100
0000
0010
0000
0001
0000
0100
0000
0010
0000
0100
0000
0010
0001
,
1000
0100
0010
0001
0001
0000
0001
0000
,
0001
0001
0001
0001
,
1001
0000
1001
0000
0100
0020
0030
0100
,
0010
0000
0000
0011
0000
0000
0001
0000
1001
0000
0000
1000
0000
0000
1100
0000
,
0100
0000
0000
0110
0000
0000
0010
0000
0011
0000
0001
0011
0000
0010
0100
0000
,
1000
0000
0100
0000
1000
0010
0100
0000
0010
0000
1000
0100
0000
0000
0010
0000
,
0100
0000
0000
0010
0000
0000
0001
0000
0100
0000
0000
0000
0100
0010
1000
0000
,
0001
0000
1000
0000
0001
0000
1000
0001
1000
0000
0100
0000
0010
0000
0100
0000
,
0010
0001
0010
0000
0100
1000
0100
0000
0010
0000
0000
0000
0000
0000
0200
0000
,
0300
0010
1000
0100
0010
0001
0100
0010
,
0100
1000
0100
0010
0001
0000
2002
3003
,
0001
0000
0000
0000
2002
0000
0000
3003
0100
0000
0000
0000
0220
0000
0000
0330
,
0001
0000
0000
0000
2002
0000
0000
3003
0110
0000
0000
0000
0220
0000
0330
0000
,
1100
0000
2200
3300
0011
0000
0022
0033
,
0110
0000
0220
0330
1001
0000
2002
3003
,
1000
0001
1000
0001
1000
0001
1000
0100
,
0010
0100
0010
0001
0100
0010
0100
0010
,
0100
0010
0100
0010
0001
0010
0100
1000
0100
0010
0001
0010
0100
0010
0001
0010
,
1001
0000
1001
0000
1001
0000
1001
0000
1001
0000
0000
2MM2
0000
0000
3003
0000
,
0100
0100
0100
0100
0220
0330
0010
0010
,
0010
0000
0010
0000
0022
0000
0000
0033
0001
0000
0010
0000
0100
0000
0010
0000
,
0100
0000
0010
0100
0000
0000
0010
0000
0001
0000
0010
0100
0010
0000
0100
0000
,
0010
0000
0100
0000
1000
0100
0010
1000
,
0001
0000
0100
0010
0100
0000
0010
0100
0010
0000
0001
0000
1000
0000
0200
0000
,
0300
0000
0010
0100
0010
0000
0100
0000
0010
0000
0001
0000
0100
0000
0010
0000
,
0001
0011
0001
0011
1100
0000
0100
0010
,
0001
0100
0020
0000
0000
0000
0030
0000
,
0100
1000
0100
0010
2002
0000
3003
0000
,
0001
0010
0100
1000
0220
0000
0330
0000
,
0100
0010
0001
0100
0220
0000
0330
0000
,
0010
0001
0100
0010
2200
0000
3300
0000
,
0100
0100
1000
0100
0000
0010
0100
0010
,
0001
0100
0010
0100
0000
0010
0000
1000
,
0000
0100
0010
0001
0200
0300
0010
2000
,
0000
3000
0010
0010
0100
0000
0001
1000
0001
0000
0100
0000
0010
0000
0200
0000
,
0300
0010
0100
0010
0100
0010
0001
0100
,
0010
0011
0100
1100
2002
0000
0000
0000
,
0M00
00M0
0M00
00M0
0M00
00M0
0M00
00M0
0M00
00M0
0M00
00M0
0M00
00M0
0M00
00M0
0M00
00M0
0M00
00M0
0M00
00M0
0M00
00M0
0M00
00M0
0M00
00M0
0M00
00M0
3M03
00M0
0010
0000
0000
0000
0000
0000
0000
0000
0100
0000
0000
0000
1000
0000
0000
0000
0100
0000
0000
0000
0000
0000
0000
0000
0010
0000
0000
0000
0000
0000
0000
0000
,
0200
0000
0300
0000
0020
0000
0030
0000
0100
0010
0001
0000
0010
0000
0100
0000
,
0010
0100
1000
0000
0100
0000
0010
0000
1000
0000
0000
1000
0000
0000
0100
0000
,
0020
0000
0030
0000
0001
0000
1000
0000
0002
0000
0000
0003
1000
0000
0100
0000
,
0010
0000
0001
0000
0100
0000
0001
0000
0020
0000
0030
0100
0000
0000
0010
0000
,
0002
0000
0000
0003
0200
0000
0300
0000
1000
0000
0000
0100
0000
0000
1000
0000
,
0100
0010
0101
1100
,
0110
0000
0000
1001
0000
0000
0110
0000
2002
0000
0000
0000
3003
0000
0000
0000
,
1000
0001
1000
0001
1000
0000
0100
0000
0020
0000
0000
0000
0000
0000
0000
0000
,
0000
0130
M11M
0000
;
