#VERSION:0.83;
#TITLE:Persephone;
#SUBTITLE:;
#ARTIST:EBICO;
#TITLETRANSLIT:;
#SUBTITLETRANSLIT:;
#ARTISTTRANSLIT:;
#GENRE:Piano Trance;
#CREDIT:Wrland;
#MUSIC:Persephone.ogg;
#BANNER:Persephone.png;
#BACKGROUND:Persephone-bg.png;
#CDTITLE:Wrland Season 3 CITYGHT + last one night.png;
#SAMPLESTART:108.963;
#SAMPLELENGTH:12.000;
#SELECTABLE:YES;
#OFFSET:-10.368;
#BPMS:0.000=185.000
,32.000=46.250
,33.000=185.000
,97.000=46.250
,99.000=92.500
,131.000=185.000
,259.000=46.250
,260.000=185.000
,292.000=46.250
;
#STOPS:;
#DISPLAYBPM:92.000:185.000;
#METERTYPE:DDR X;
#JACKET:Persephone-jacket.png;
#CDIMAGE:Persephone-cd.png;
#BGCHANGES:;
#FGCHANGES:;

//--------------- dance-single - Wrland ----------------
#NOTEDATA:;
#STEPSTYPE:dance-single;
#DESCRIPTION:Wrland;
#DIFFICULTY:Beginner;
#METER:5;
#RADARVALUES:0,0,0,0,0;
#NOTES:
0000
0000
0000
0000
,
0000
0000
0000
0000
,
0000
0000
0000
0000
,
0000
0000
0000
0000
,
0000
0000
0000
0000
,
0000
0000
0000
0000
,
0000
0000
0000
0000
,
0000
0000
0000
0000
,
2002
0000
0000
3003
0100
0000
0000
0000
0000
0000
0000
0000
1000
0000
0000
0000
,
0000
0100
0000
0010
,
0000
0100
0000
0010
,
0000
0001
0000
0100
,
0000
1000
0000
1100
,
0000
0100
0000
0110
,
0000
0010
0000
0100
,
0000
0020
0000
0030
,
0000
0002
0000
0003
,
0000
2000
0000
0000
,
3000
0002
0000
0000
,
0003
2000
0000
0000
,
3000
0200
0000
0000
,
0300
2000
0000
0000
,
3000
0200
0000
0000
,
0300
0020
0000
0000
,
0030
0000
0220
0000
0000
0330
1000
0000
,
1000
0100
0100
0010
,
0100
0010
0001
0010
,
0100
1000
0100
1000
,
0100
0010
0100
0010
,
0010
0001
0001
1000
,
1000
0100
0100
1000
,
0100
0010
0100
0010
,
0001
0100
0010
0100
,
0000
0100
0000
1000
,
0000
0100
0000
1000
,
0000
0100
0000
1000
,
0000
0010
0000
0100
,
0000
0010
0000
0001
,
0000
0100
0000
1000
,
0000
0100
0000
0010
,
0000
0100
0000
0010
,
0000
0220
0000
0000
,
0330
0000
0000
1000
,
0000
2200
0000
0000
,
3300
0000
0100
0220
,
0330
0000
1000
0202
,
0303
0000
0010
0100
,
0010
0000
0100
0000
0010
0000
0100
0010
,
0100
0010
0100
0010
0100
0010
0100
0000
,
0000
1000
0000
0100
,
0000
1000
0000
0100
,
0000
0010
0000
0001
,
0000
0010
0000
0100
,
0000
0010
0000
0100
,
0000
1000
0000
0100
,
0000
0010
0000
0001
,
0000
0100
0000
0001
,
0000
2002
0000
0000
,
0000
3003
0000
1000
,
0000
2200
0000
0000
,
3300
0000
0000
0000
0100
0010
0200
0000
,
0000
0000
0300
0000
0010
0001
0020
0000
,
0000
0030
1000
0000
0000
0000
0100
0000
,
1000
0000
0100
0000
0001
0000
0100
0001
,
0100
0001
0100
0001
0100
0001
0200
0300
,
0100
0000
1000
0000
,
0100
0000
0010
0000
,
0100
0000
0010
0000
,
0001
0000
0010
0000
,
0100
0000
1000
0000
,
0100
0000
1000
0000
,
0100
0000
0010
0000
,
0100
0000
0010
0000
,
0220
0000
0000
0330
;

//--------------- dance-single - Wrland ----------------
#NOTEDATA:;
#STEPSTYPE:dance-single;
#DESCRIPTION:Wrland;
#DIFFICULTY:Easy;
#METER:8;
#RADARVALUES:0,0,0,0,0;
#NOTES:
0000
0000
0000
0000
,
0000
0000
0000
0000
,
0000
0000
0000
0000
,
0000
0000
0000
0000
,
0000
0000
0000
0000
,
0000
0000
0000
0000
,
0000
0000
0000
0000
,
0000
0000
0000
0000
,
2002
3003
1000
0000
0001
0000
1000
0000
,
0001
0100
0010
0100
,
0010
0000
1000
0100
1000
0000
0100
0010
,
0100
0000
0001
0100
0001
0000
0010
0100
,
0010
0000
0100
0000
0010
0100
0010
0000
,
0001
0100
0001
0000
0010
1000
0010
0000
,
1000
0100
1000
0100
,
0010
0220
0330
0220
,
0330
0000
2002
0000
0000
3003
0000
0000
,
0100
0000
2200
0000
0000
3300
0000
0000
,
0100
0000
0220
0000
0000
0330
0000
0000
,
0010
0022
0000
0000
,
0033
0000
0001
0010
1000
0100
0020
0000
,
0030
0000
0100
0010
0100
0010
0200
0000
,
0300
0000
0100
0010
0001
1000
0100
0010
,
1000
0000
1000
0100
0010
0001
0100
0010
,
1000
0200
0000
0000
0300
0000
0200
0300
,
0020
0000
0030
0000
0200
0000
0300
0000
0010
0000
0100
0000
0020
0000
0030
0002
,
0000
0000
0000
0000
0003
0000
0000
0000
0100
0000
0010
0000
0200
0000
0000
0300
,
1000
0000
0100
0000
2000
0000
3000
0000
0100
0000
0010
0000
0200
0000
0300
0020
,
0000
0000
0030
0000
0200
0000
0300
0020
0000
0000
0000
0030
0001
0000
0100
0000
,
0020
0000
0000
0030
0100
0000
1000
0000
0200
0000
0000
0300
1000
0000
0100
0000
,
2000
3000
0100
0010
0200
0300
0100
0010
,
0001
0000
0010
0000
0100
0000
1000
0000
0100
0000
0010
0000
0002
0000
0000
0003
,
0100
0000
0001
0000
0200
0000
0300
0000
0010
1000
0010
1000
0010
0000
0000
0000
,
0100
0010
0001
0100
,
0010
1000
0100
2000
,
3000
2000
0000
0000
3000
0000
0200
0000
,
0300
0200
0000
0300
0010
0000
0100
0000
,
0010
0000
0001
0100
0001
0200
0000
0000
,
0300
0010
0100
2000
,
3000
0200
0000
0000
0300
0000
2000
0000
,
3000
0200
0000
0000
0300
0000
1000
0000
,
0100
2000
3000
0100
,
0010
0002
0003
0001
,
0100
0020
0030
0100
,
0010
0100
0020
0000
1030
0001
0200
0000
,
0300
2000
0000
3000
0100
0000
2000
0000
,
3000
0200
0000
0300
0010
0000
0100
0010
,
0100
0010
0100
0010
0100
0010
1000
0001
,
1000
0001
1000
0001
1000
0001
1000
0000
,
0100
1000
0100
0010
,
0100
0010
0001
0200
,
0300
0200
0000
0000
0300
0000
2000
0000
,
3000
2000
0000
3000
0100
0000
2000
3000
,
0100
0000
0100
0010
0100
0010
0200
0000
,
0300
0010
0100
0010
,
0001
0010
0100
1000
,
0100
1000
0100
1000
,
0100
2000
3000
2200
,
0000
0000
3300
0100
,
0010
0200
0300
0220
,
0000
0330
0010
0002
,
0003
0020
0000
0030
0100
0000
2000
0000
,
3000
0200
0000
0300
0010
0000
0100
0010
,
0100
0010
0100
0010
0100
0010
1000
0001
,
1000
0000
0001
0000
1000
0000
0001
0000
1000
0000
0002
0000
0000
0000
0000
0003
,
0200
0000
0300
1000
,
2200
0000
3300
0100
,
0220
0000
0000
0330
0000
0000
0010
0000
,
0022
0000
0033
0000
,
0002
0000
0003
1000
,
2002
0000
3003
0100
,
0220
0000
0000
0330
,
0100
0010
0100
0010
0001
0100
0010
1000
,
2002
0000
0000
3003
;

//--------------- dance-single - Wrland ----------------
#NOTEDATA:;
#STEPSTYPE:dance-single;
#DESCRIPTION:Wrland;
#DIFFICULTY:Medium;
#METER:10;
#RADARVALUES:0,0,0,0,0;
#NOTES:
0000
0000
0000
0000
,
0000
0000
0000
0000
,
0000
0000
0000
0000
,
0000
0000
0000
0000
,
0000
0000
0000
0000
,
0000
0000
0000
0000
,
0000
0000
0000
0000
,
0000
0000
0000
0000
,
2002
0000
0000
3003
0100
0000
1000
0000
0100
0000
0010
0000
0001
0000
0100
0000
,
0010
0100
1000
0100
1000
0100
0010
0001
,
0100
0010
0100
1000
0100
0010
0001
0100
,
0010
0100
1000
0100
0010
1000
0001
0100
,
0010
0000
0100
0000
0020
0000
0030
0000
0100
0010
0001
0010
0200
0000
0300
0000
,
0100
0010
0100
0010
0200
0000
0300
0000
1000
0100
1000
0100
2000
0000
3000
0000
,
0100
0010
0001
0010
0100
0000
0010
0000
0100
0000
0010
0000
0001
0000
0100
0000
,
0010
0000
1000
0000
0101
0000
0000
1010
0000
0000
0101
0000
2020
0000
3030
0000
,
0200
0000
0300
0000
0100
0010
0100
0010
0001
0000
1000
0000
0100
0000
1000
0000
,
0200
0000
0300
0000
0010
0100
0010
0100
0010
0000
0001
0000
0100
0000
0010
0000
,
0200
0000
0300
0000
0100
1000
0100
1000
0100
0000
0010
0000
0100
0000
0010
0000
,
0002
0000
0003
0000
0002
0000
0000
0023
0000
0000
0230
0000
2300
0000
0000
0000
,
3200
0000
0000
0300
0010
0100
0010
0100
0010
0000
0001
0000
0100
0000
1000
0000
,
0200
0000
0300
0000
0010
0100
0010
0001
0010
0000
0100
0000
0010
0000
1000
0000
,
0200
0000
0000
0000
1300
0100
1000
0100
1000
0000
0010
0000
0100
0000
0010
0000
,
0200
0000
0000
0300
0022
0000
0033
2200
3300
0000
0110
0000
0022
0000
0000
0033
,
2200
0000
0000
0000
0000
0000
0000
0000
0000
0000
0000
0000
0000
0000
0000
0000
0000
0000
3300
0000
0000
0000
0100
0010
0200
0000
0300
0000
0020
0000
0030
0000
,
0200
0300
0020
0030
0002
0000
0000
0003
0200
0000
0000
0300
2000
0000
3000
2200
,
0000
0000
0000
0000
0000
0000
0000
0000
3300
0000
0200
0300
0022
0000
0000
0033
,
0100
0010
0100
0020
0000
0000
0000
0030
0002
0003
0020
0030
0200
0000
0300
2200
,
0000
0000
0000
0000
0000
0000
3300
0000
0200
0000
0000
0000
0300
0000
0220
0000
0000
0000
0000
0000
0000
0000
0330
0000
0100
0000
0000
0010
0000
0000
0001
0000
,
2000
0000
0000
0000
0000
0000
0000
0000
0000
0000
0000
0000
0000
0000
0000
0000
0000
0000
0000
0000
0000
0000
3000
0000
0200
0000
0300
0020
0000
0030
0100
0000
,
2000
0000
0000
0000
0000
0000
0000
0000
3000
0000
0100
0010
0200
0000
0300
0020
,
0000
0000
0000
0030
0002
0000
0000
0003
0200
0000
0000
0000
0000
0300
0020
0000
0000
0000
0000
0030
0200
0000
0000
0300
2000
0000
0000
0000
0000
0000
0000
0000
,
3000
0000
0000
0000
0100
0000
0010
0000
0200
0000
0000
0000
0000
0000
0000
0000
0300
0000
0000
0000
0010
0000
0100
0000
0020
0000
0000
0000
0000
0030
0000
0000
,
0200
0300
1000
0200
0300
0020
0030
0100
,
2000
3000
0200
0300
0020
0030
0200
0000
,
0300
0220
0000
0000
0330
0000
0002
0000
,
0003
0022
0033
0100
1000
0100
2000
3000
,
0200
0300
0010
0100
0010
0200
0000
0000
,
0300
0000
0020
0030
0200
0300
0220
0000
,
0330
0020
0000
0000
0030
0000
0002
0000
,
0003
0000
0022
0000
0000
0000
0000
0000
0033
0000
0000
0000
0001
0000
0000
0010
,
0000
0100
2000
0000
0000
0000
0000
0000
,
0000
0000
0000
0000
0000
0000
0000
0000
3000
0000
0000
0000
1000
0000
0000
0100
,
0000
0010
0002
0000
0000
0000
0000
0000
,
0000
0000
0003
0000
0100
0010
0200
0000
,
0300
0020
0000
0030
0002
0003
0200
0000
,
0300
0020
0000
0030
0200
0300
1000
0100
,
1000
0000
0100
0000
0010
0000
0100
0000
0010
0000
0100
0000
0010
0100
0001
0010
,
0100
0010
0001
0010
0100
1000
0100
0010
0001
0001
0010
0100
0200
0000
0300
0000
,
0020
0030
0100
0020
0030
0002
0003
0010
,
0100
1000
0100
0010
0100
0010
0002
0000
,
0003
0202
0000
0000
0303
0000
0200
0000
,
0300
2200
0000
3300
0200
0300
0020
0030
,
0200
0300
0010
0001
0100
0010
0020
0000
,
0030
0000
0200
0300
2000
3000
0200
0000
,
0300
2200
0000
0000
3300
0000
0200
0000
,
0300
0000
0220
0000
0000
0000
0000
0000
0330
0000
0000
0000
0100
0000
0000
0010
,
0000
0100
0022
0000
0000
0000
0000
0000
,
0000
0000
0000
0000
0000
0000
0000
0000
0033
0000
0000
0000
0200
0000
0300
1000
,
0000
0100
2200
0000
0000
0000
0000
0000
,
0000
0000
3300
0000
0100
0010
0200
0000
,
0300
0220
0000
0330
0002
0003
2000
3000
,
0000
2002
0000
3003
0200
0300
0010
0100
,
0010
0000
0001
0000
0100
0000
0010
0000
1000
0000
0100
0000
0010
0100
0010
0001
,
0100
0010
0100
1000
0100
0010
0001
0010
0100
0010
0100
0010
2002
0000
3003
0000
,
0100
0010
0100
0010
0100
0000
1000
0000
0100
0000
0010
0000
0200
0000
0300
0000
,
0001
0010
0100
1000
0100
0000
0010
0000
0100
0000
0010
0000
0200
0000
0300
0000
,
0010
1000
0100
0010
0100
0000
1000
0000
0010
0000
0100
0000
0020
0000
0030
0000
,
0200
0000
0300
0010
0000
0000
0100
0000
0020
0000
0030
0000
0100
0000
0000
0000
,
0001
1000
0001
1000
0001
0000
0100
0000
0010
0000
1000
0000
0200
0000
0300
0000
,
0010
0100
0010
0001
0100
0000
1000
0000
0100
0000
1000
0000
0200
0000
0300
0000
,
0010
0100
0010
0001
0010
0000
0001
0000
1000
0000
0001
0000
2000
0000
3000
0000
,
0200
0000
0300
2200
0000
3300
0100
0000
0220
0000
0330
0000
2002
0000
3003
0000
,
2002
0000
0000
3003
;

//--------------- dance-single - Wrland ----------------
#NOTEDATA:;
#STEPSTYPE:dance-single;
#DESCRIPTION:Wrland;
#DIFFICULTY:Hard;
#METER:13;
#RADARVALUES:0,0,0,0,0;
#NOTES:
1000
0001
1000
0100
0010
0010
1000
0100
,
0010
0100
0010
0100
1001
0000
0110
0000
,
0110
0010
0100
0010
0100
1000
0100
0010
,
0001
0100
0010
0100
1100
0000
0110
0000
,
0011
0100
1000
0010
0100
0010
0001
0100
,
0010
1000
0100
0010
1100
0000
0110
0000
,
0011
0100
0010
0100
1000
0100
0001
0010
,
0100
0010
0100
0010
0110
0000
1100
0000
,
0220
0000
0330
0000
0100
0010
0001
0010
0100
1000
0100
1000
0100
0010
0100
0010
,
0001
0010
0100
0010
0100
1000
0100
1000
0100
1000
0100
0010
0100
0010
0001
0100
,
0010
0100
1000
0100
1000
0100
1000
0100
0010
0001
0100
0010
0100
1000
0100
1000
,
0100
0010
0100
0010
0001
0010
0100
0010
0100
0010
0001
0010
0100
0010
0100
0010
,
0001
0010
0100
0010
2002
0000
3003
0000
0100
0010
0100
0010
2002
0000
3003
0000
,
0010
0100
0001
0010
2002
0000
3003
0000
0100
1000
0100
0010
2002
0000
3003
0000
,
0100
0010
0001
0100
0010
0001
0010
0000
1000
0100
1000
0000
0100
0010
0100
0000
,
0010
0001
0010
0000
2002
0000
3003
2200
0000
3300
0011
0000
0220
0000
0000
0330
,
0220
0000
0000
0330
1000
0100
0010
0100
0010
0000
0001
0010
0001
0100
0010
0000
,
2000
0000
3000
0000
0100
0010
0001
0010
0100
0000
1000
0100
0010
0001
0100
0000
,
0200
0000
0000
0300
0010
1000
0001
1000
0001
0000
0100
1000
0100
1000
0100
0000
,
0020
0000
0030
0000
0001
0010
0100
0010
0001
0000
0100
0010
1000
0100
0010
0000
,
0020
0000
0000
0030
0100
0010
0001
0010
0100
0000
1000
0010
0100
0010
0001
0000
,
0200
0000
0300
0000
1000
0100
0010
0001
0010
0000
0100
1000
0100
1000
0100
0000
,
0020
0000
0000
0030
0100
0001
0100
0001
0100
0000
0010
1000
0010
1000
0010
0000
,
0002
0000
0000
0003
2200
0000
3300
0022
0000
0033
2200
3300
0220
0000
0000
0330
,
2002
0000
0000
0000
0000
0000
0000
0000
0000
0000
0000
0000
0000
0000
0000
0000
3003
0000
0000
0000
0000
0000
1000
0001
2000
0000
3000
0000
0200
0000
0300
0000
,
1000
0010
0100
1000
0020
0030
0200
0300
0020
0030
0100
0010
0202
0000
0303
2200
,
0000
0000
0000
3300
0200
0000
0300
0220
0000
0330
0100
0010
0200
0300
0020
0030
,
0100
0010
0100
0020
0000
0000
0000
0030
0200
0300
2000
3000
0200
0000
0300
0020
,
0000
0000
0000
0000
0000
0000
0030
0000
0200
0000
0000
0000
0300
0000
2000
0000
0000
0000
0000
0000
0000
0000
3000
0000
0001
0000
0000
1000
0000
0000
0001
0000
,
2000
0000
0000
0000
0000
0000
3000
0000
1000
0001
1000
0001
1000
0001
1000
0001
2000
0000
0000
0000
0000
0000
3000
0000
0100
0000
0000
0010
0000
0000
0100
0000
,
0020
0000
0000
0000
0000
0000
0030
0000
0001
0010
0100
1000
0001
0010
0100
1000
0001
0000
1000
0000
0001
0000
0100
0000
0020
0000
0030
0000
0200
0000
0300
0000
,
0020
0030
0200
0300
2000
0000
3000
0200
0000
0300
0020
0030
0200
0000
0300
0020
,
0030
0010
0100
0010
0200
0000
0000
0300
2000
3000
0001
1000
0200
0000
0300
0000
,
0200
0300
0010
0200
0300
0020
0030
0100
,
0010
0001
0100
0010
1000
0100
0022
0000
,
0033
2200
0000
0000
3300
0000
0220
0000
,
0330
2002
3003
1001
1001
1001
0220
0000
,
0000
0000
0330
0100
1000
0200
0000
0000
,
0300
0000
0200
0300
0020
0030
0002
0000
,
0003
0020
0000
0000
0000
0030
0200
0000
,
0300
0000
2000
0000
0000
0000
0000
0000
3000
0000
0000
0000
0100
0000
0000
1000
,
0000
0000
0100
0000
2000
0000
0000
0000
3000
0000
0000
0000
0110
0010
0001
0010
,
0100
0000
0010
0100
0010
0000
0001
0000
2000
0000
3000
0000
0010
0000
0000
0001
,
0000
0000
0010
0000
0002
0000
0003
0000
1000
0000
0100
0000
0011
0010
0001
0010
,
0100
0000
0100
0010
0001
0000
1000
0000
0100
0000
0010
0000
0001
0000
0001
0000
,
1000
0100
0010
0100
0010
0010
0100
1000
,
0100
0000
0010
0000
0100
0000
0010
0000
0100
0000
0010
0000
0110
0010
0100
0010
,
0001
0100
0100
0010
0100
0010
0001
0010
0100
1000
0100
0010
0100
0010
0001
0100
,
0010
0100
0010
0001
0010
0100
0010
0100
0010
0001
0010
0100
0010
0000
0100
0000
,
1000
0100
0010
0100
0010
0002
0003
0100
,
1000
0000
0100
0000
0010
0000
0100
0000
0010
0000
0001
0000
0110
0100
0010
0000
,
0010
0100
1001
0000
0100
1000
0100
0000
0020
0000
0030
0000
1100
0010
0100
0000
,
0001
1000
0110
0000
0100
1000
0100
0000
0010
0000
0100
0000
0010
0000
0001
0000
,
1000
0001
0100
0001
0100
0010
0100
0010
,
0100
0000
0010
0000
0002
0000
0003
0000
0200
0000
0300
0000
1100
0000
0100
0010
,
0100
0000
0010
0000
0100
0000
0010
0000
0001
0000
0000
0000
1001
0100
0010
0001
,
0010
0000
0100
0000
0010
0000
0100
0000
0010
0000
0000
0000
0100
0000
0000
1000
,
0000
0000
0100
0000
2200
0000
3300
0000
0220
0000
0330
0000
0110
0001
0010
0100
,
1000
0000
1000
0000
0100
0000
1000
0000
0200
0000
0300
0000
0001
0000
0000
0010
,
0000
0000
0001
0000
2020
0000
3030
0000
0202
0000
0303
0000
0110
1000
0100
1000
,
0100
0010
0100
0010
1000
0001
1000
1000
,
1000
0001
0001
0001
1000
0100
0100
0010
,
0100
0000
1000
0000
0010
0000
0001
0000
0100
0000
1000
0000
0101
0010
0100
0010
,
0001
0010
0110
1000
0100
1000
0100
0010
0100
0010
0001
0010
0100
0010
0100
0010
,
0001
0000
0000
0000
0000
0000
0000
0000
0000
0000
0000
0000
0010
0000
0000
0000
0000
0000
0000
0000
0000
0000
0000
0000
0100
0000
0000
0000
0000
0000
0000
0000
0000
0000
0000
0000
1000
0000
0000
0000
0000
0000
0000
0000
0000
0000
0000
0000
0100
0000
0000
0000
0000
0000
0000
0000
0000
0000
0000
0000
0010
0000
0000
0000
0000
0000
0000
0000
0000
0000
0000
0000
0001
0000
0000
0000
0000
0000
0000
0000
0000
0000
0000
0000
0100
0000
0000
0000
0000
0000
0000
0000
0000
0000
0000
0000
0010
0000
0000
0000
0000
0000
0000
0000
0000
0000
0000
0000
0100
0000
0000
0000
0000
0000
0000
0000
0000
0000
0000
0000
0010
0000
0000
0000
0000
0000
0000
0000
0000
0000
0000
0000
0100
0000
0000
0000
0000
0000
0000
0000
0000
0000
0000
0000
2MM2
0MM0
0MM0
0MM0
0MM0
0MM0
0MM0
0MM0
0MM0
0MM0
0MM0
0MM0
0MM0
0MM0
0MM0
0MM0
0MM0
0MM0
0MM0
0MM0
0MM0
0MM0
0MM0
0MM0
0MM0
0MM0
0MM0
0MM0
0MM0
0MM0
0MM0
0MM0
0MM0
0MM0
0MM0
0MM0
0MM0
0MM0
0MM0
0MM0
0MM0
0MM0
0MM0
0MM0
0MM0
0MM0
0MM0
3MM3
,
1001
0100
1000
0100
0020
0030
0010
1000
0100
0001
0020
0030
0200
0000
0300
0000
,
0010
0100
0010
0001
0200
0300
0001
0010
1000
0100
0002
0003
2000
0000
3000
0000
,
1000
0100
1000
0100
2000
3000
0100
0010
1000
0010
0200
0300
2000
0000
0000
3000
,
0100
0010
0001
0010
0200
0300
0100
1000
0010
0001
0200
0300
0020
0000
0000
0030
,
1000
0100
0010
0100
0020
0030
0001
0100
1000
0100
0002
0003
2000
0000
0000
3000
,
0001
0010
0100
0010
0002
0003
0100
0010
1000
0001
0100
0000
2000
0000
0000
3000
,
0010
1000
0100
0010
0100
0000
0100
0010
1000
0001
0200
0300
2000
0000
0000
3000
,
0100
0010
0000
0001
2000
3000
0100
0010
0000
0100
0010
0000
0001
0100
0001
0010
,
2002
0000
0000
3003
;
