#VERSION:0.83;
#TITLE:Party in the U.S.A.;
#SUBTITLE:;
#ARTIST:Miley Cyrus;
#TITLETRANSLIT:;
#SUBTITLETRANSLIT:;
#ARTISTTRANSLIT:;
#GENRE:Pop;
#CREDIT:Wrland;
#MUSIC:Party in the U.S.A.ogg;
#BANNER:Party in the U.S.A-vb.mp4;
#BACKGROUND:BG.png;
#PREVIEWVID:preview.mp4;
#LYRICSPATH:Party in the U.S.A.lrc;
#CDTITLE:The Time Of Our Lives.png;
#SAMPLESTART:44.378;
#SAMPLELENGTH:12.000;
#SELECTABLE:YES;
#OFFSET:0.000;
#BPMS:0.000=95.994;
#STOPS:;
#DISPLAYBPM:95.000;
#METERTYPE:DDR X;
#JACKET:Party in the U.S.A-jacket.png;
#CDIMAGE:Party in the U.S.A-cd.png;
#BGCHANGES:0.000=Party in the U.S.A.avi=0.000=0=0=0=StretchNoLoop====,
99999=-nosongbg-=1.000=0=0=0 // don't automatically add -songbackground-
;
#FGCHANGES:;

//--------------- dance-single - Wrland ----------------
#NOTEDATA:;
#STEPSTYPE:dance-single;
#DESCRIPTION:Wrland;
#DIFFICULTY:Beginner;
#METER:3;
#RADARVALUES:0,0,0,0,0;
#NOTES:
0000
0000
0000
0000
,
0000
0000
0000
0000
,
0000
0000
0000
0000
,
0000
0000
0000
0000
,
0001
0000
0100
0000
,
0010
0000
1000
0000
,
0100
0000
1000
0000
,
0100
0000
1000
0000
,
0100
0000
0010
0000
,
0001
0000
0010
0000
,
0100
0000
1000
0000
,
1000
0000
0100
0000
,
0010
0000
0100
0000
,
0001
0000
1000
0000
,
0100
0000
1000
0000
,
0010
0000
0100
0000
,
0010
0000
0001
0000
,
1000
0000
0100
0000
,
1000
1000
1000
0000
,
0001
0001
0001
0000
,
0010
0100
0010
0000
,
0100
0010
0100
0010
,
0100
1000
0100
1000
,
0100
0010
0001
0000
,
0001
1000
0001
0000
,
1000
0001
1000
0000
,
0100
1000
0100
0000
,
0010
0001
0010
0000
,
1000
0000
1000
0000
,
0100
0000
0100
0000
,
0010
0000
0001
0000
,
1000
0000
0100
0000
,
0010
0000
0001
0000
,
1000
0000
0100
0000
,
1000
0000
0100
0000
,
0220
0000
0330
0000
,
1000
1000
1000
0000
,
0001
0001
0001
0000
,
0010
0100
0010
0000
,
0100
0010
0100
1000
,
0100
0010
0001
0010
,
0100
1000
0100
0000
,
1000
0100
1000
0000
,
0010
0001
0010
0000
,
0010
0100
0010
0000
,
0001
0100
0001
0000
,
0100
1000
0100
0000
,
1000
0100
0010
0001
,
0010
0100
0010
0100
,
0010
0001
0100
1000
,
1000
0100
1000
0000
,
0100
0001
0100
0000
,
0001
0010
0001
0000
,
0010
0100
0010
0000
,
0100
1000
0100
0000
,
0010
0001
0100
0101
;

//--------------- dance-single - Wrland ----------------
#NOTEDATA:;
#STEPSTYPE:dance-single;
#DESCRIPTION:Wrland;
#DIFFICULTY:Easy;
#METER:6;
#RADARVALUES:0,0,0,0,0;
#NOTES:
0000
0000
0000
0000
,
0000
0000
0000
0000
,
0000
0000
0000
0000
,
0000
0000
0000
0000
,
1000
1000
0100
1000
,
0010
0000
0001
0100
0001
0000
0100
0000
,
0010
0100
0010
0100
,
1000
0000
0100
1000
0100
0000
0010
0000
,
0001
0010
0100
1000
,
0100
1000
0100
0010
,
0001
1000
0100
1000
0100
0000
1000
0000
,
0100
0010
0001
0100
0001
0000
0100
0000
,
0010
0100
0010
0001
,
0100
0010
0100
1000
,
0100
1000
0100
0010
,
0001
0100
0010
0100
,
0010
0010
0100
0100
,
1000
1000
0100
0100
,
0110
0000
1001
0000
1000
0001
1000
0000
,
0001
0000
1000
0000
0001
1000
0001
0000
,
0100
1000
0100
0010
,
0001
0000
0010
0000
0100
0000
0010
0001
,
0100
1001
0100
1100
,
0100
0010
0001
0000
0001
0010
0100
0000
,
0200
0300
0020
0030
1000
0200
0000
0300
,
0010
0000
0001
0000
0001
0200
0000
0300
,
0002
0003
0200
0300
0010
0200
0000
0300
,
1000
0000
0100
0000
1000
0200
0000
0300
,
0100
0010
0100
0010
,
0001
0100
0010
0100
,
1000
0100
1000
0100
,
0010
0001
0010
0100
,
1000
0100
1000
0100
,
0010
0001
0010
0100
,
1000
0100
1000
0100
,
0220
0000
0330
0000
2200
3300
0001
0100
,
0101
0010
0100
1000
,
0100
1000
0100
0000
0010
0100
0010
0000
,
0100
1000
1100
0100
,
0010
0000
0001
0000
0101
0000
0001
0100
,
0001
0100
0010
0100
,
1000
0100
1000
0110
,
0002
0003
0100
0001
0200
0300
0010
0000
,
0100
0000
1000
0200
0300
0110
0010
0000
,
0020
0030
0200
0300
0010
0002
0003
0100
,
0001
0000
0100
0002
0003
0101
0010
0000
,
0100
0000
1000
0000
0100
1000
0100
0000
,
0010
0001
0100
0000
0001
0100
0010
0000
,
0001
0000
0010
0001
0001
0000
0011
0000
,
0010
0000
0100
0010
0100
0000
0110
1000
,
0100
0000
1100
0000
0100
0010
0001
0000
,
0100
0001
0100
0000
0010
0100
0010
0000
,
0002
0003
0100
0010
0100
2000
3000
0100
,
1000
0000
0100
0020
0030
0110
0020
0030
,
0002
0003
0100
0002
0003
0100
0202
0303
,
0010
0000
0100
2000
3000
0100
2200
0000
,
3300
0000
0000
0000
;

//--------------- dance-single - Wrland ----------------
#NOTEDATA:;
#STEPSTYPE:dance-single;
#DESCRIPTION:Wrland;
#DIFFICULTY:Medium;
#METER:9;
#RADARVALUES:0,0,0,0,0;
#NOTES:
0000
0000
0000
0000
,
0000
0000
0000
0000
,
0000
0000
0000
0000
,
0000
0000
0000
0000
,
1000
0100
2000
3000
0100
0010
0001
0100
,
0001
0000
0100
0000
0010
0000
0100
0020
0000
0030
0100
0000
0010
0000
0001
0000
,
0200
0000
0301
0000
0010
0000
0100
0000
0010
0000
1000
0200
0000
0300
2002
0000
,
3003
0010
0100
0010
0202
0303
1000
0000
,
0100
0000
1000
0000
0100
0000
0010
0000
0001
0000
0100
0001
0100
0000
0002
0000
,
0003
0000
0010
0000
0100
0000
1000
0000
0100
0000
1000
0100
1000
0000
0100
0000
,
0010
0000
0100
0001
0010
0000
0100
0000
0020
0000
0030
0200
0000
0300
0000
0000
,
1000
0100
1000
0100
1000
0000
0100
0000
0020
0000
0030
0002
0000
0003
0100
0000
,
0010
0000
0100
0000
0010
0000
0001
0000
0100
0000
0001
0100
0001
0000
0100
0000
,
0000
0100
0000
1000
0100
0000
1000
0000
0100
0000
0010
0000
0000
0100
0010
0100
,
0010
0000
0001
0000
0100
0000
0001
0000
0010
0000
0100
0010
0000
0000
1000
0100
,
1000
0000
0100
0000
0010
0000
0001
0200
0000
0300
0001
0000
0100
0000
0000
0000
,
0001
0000
0100
0000
0010
0000
0100
0020
0000
0030
0100
0000
1000
0000
0000
0000
,
0100
0000
1000
0000
0100
0000
1000
0200
0000
0300
0010
0000
0001
0000
0100
0001
,
0200
0000
0300
0000
1010
0000
0000
0100
0020
0030
0100
0000
0020
0000
0030
0000
,
0001
0100
0001
0100
0010
1000
1100
0000
,
0100
0000
0010
0000
0001
0000
0100
0000
0000
0010
0000
0000
0200
0000
0000
0300
0000
0000
0110
0000
0000
0000
0000
0000
,
0001
0000
0000
0000
0010
0000
0000
0000
0100
0000
0000
0000
1000
0000
0000
0000
0000
0000
0001
0000
0000
0000
0000
0000
0200
0000
0000
0000
0000
0000
0300
0000
0000
0000
0000
0000
1100
0000
0000
0000
0000
0000
0100
0000
0000
0010
0000
0000
,
0200
0000
0300
0000
0101
0000
0010
0200
0000
0300
0010
0000
0001
0000
0100
0000
,
1000
0000
0100
0010
1000
0000
0100
0000
0020
0000
0030
0000
0110
0000
0000
0000
,
0200
0000
0300
1000
0200
0000
0300
0010
0001
0100
0001
0000
0010
0000
0100
0010
,
0001
0000
0100
0000
0010
0000
0200
0000
0300
0020
0000
0000
0030
0000
0000
0000
,
0200
0000
0300
0010
0200
0000
0300
1000
0100
1000
0200
0000
0300
0000
0100
0010
,
0001
0100
0010
0100
2000
3000
0200
0000
0300
0020
0000
0030
0200
0000
0000
0300
,
0010
0000
0000
0000
0100
0010
0000
0100
0000
0010
0000
0001
0000
0100
0000
0020
,
0000
0000
0000
0030
0100
0000
1000
0200
0000
0000
0000
0300
1000
0000
0100
0000
,
0020
0000
0030
0000
0001
1000
0000
0100
0000
0010
0000
0001
0000
0100
0000
0020
,
0000
0000
0000
0030
0100
0000
1000
0200
0000
0300
0010
0000
0100
0000
0000
0000
,
0020
0000
0000
0030
0001
1000
0000
0100
0000
0010
0000
0001
0000
0100
0000
0020
,
0000
0000
0000
0030
0100
0000
1000
0100
0000
0000
0100
0000
0010
0000
0000
1000
,
0001
1000
0000
0100
0000
0010
0000
0001
0000
1000
0100
0000
0001
0000
1000
0000
,
2002
0000
0000
0000
0000
0000
0000
0000
3003
0000
0000
0000
0100
0000
1000
0100
,
2000
0000
0000
3000
0010
0000
0100
0000
0010
0000
0001
0000
0200
0000
0300
1000
,
0010
1000
0001
0000
0100
0000
0010
0000
0001
0000
0200
0000
0300
0020
0000
0030
,
0001
0000
0000
0000
0001
0000
0000
0000
0010
0000
0000
0000
0100
0000
0000
0000
0000
0000
2000
0000
0000
3000
0000
0000
0200
0000
0000
0000
0000
0000
0000
0000
0000
0300
0000
0000
0010
0000
0000
0000
0000
0000
0000
0000
0000
0000
0000
0000
,
1000
0000
0000
0000
0010
0000
0000
0000
0001
0000
0000
0000
0010
0000
0000
0000
0000
0000
0200
0000
0000
0300
0000
0000
0020
0000
0000
0000
0000
0000
0000
0000
0000
0030
0000
0000
0001
0000
0000
0000
0000
0000
0010
0000
0000
0100
0000
0000
,
0020
0000
0000
0030
0001
0000
0000
0100
0010
0000
0100
0000
0020
0030
1000
0000
,
0100
1000
0100
0010
0001
0100
0202
0303
,
0020
0000
0030
0100
0020
0000
0030
0100
1000
0100
0020
0000
0030
0000
0100
0010
,
0100
0010
1000
0100
0010
0000
0002
0000
0003
0200
0000
0300
1000
0000
0100
0000
,
0020
0000
0030
0001
0200
0000
0300
0001
0100
0001
0200
0000
0300
0000
0010
0100
,
0010
0001
0010
0100
0010
0000
2000
0000
3000
0200
0000
0300
0010
0000
0100
0010
,
0002
0000
0000
0003
0200
0000
0000
0300
0010
0000
0100
0000
1000
0000
0100
0000
,
0010
1000
0001
0000
0100
0000
0001
0000
0100
0000
0202
0300
0003
2020
3030
0000
,
0010
0000
0000
0000
0100
0000
0000
0000
0010
0000
0000
0000
0002
0000
0000
0003
0000
0000
1000
0000
0000
0000
0000
0000
0200
0000
0000
0000
0000
0000
0300
0000
0000
0000
0000
0000
1100
0000
0000
0000
0000
0000
0000
0000
0000
0000
0000
0000
,
0100
0000
0000
0000
0010
0000
0000
0000
0001
0000
0000
0000
2000
0000
0000
3000
0000
0000
0100
0000
0000
0000
0000
0000
0020
0000
0000
0000
0000
0000
0000
0000
0000
0030
0000
0000
0001
0000
0000
0000
0000
0000
0100
0000
0000
0001
0000
0000
,
0200
0000
0000
0300
0020
0000
0000
0030
0100
0000
1000
0000
0100
0000
0010
1000
,
0001
0010
0100
0000
0010
0000
1000
0000
0100
0000
0010
0000
0000
0200
0000
0300
,
2000
0000
3000
0100
2000
0000
3000
0100
0010
0001
0200
0000
0300
0000
0001
0100
,
0001
0100
0001
0100
0001
0000
0200
0000
0300
0020
0000
0000
0030
0000
0000
0000
,
0200
0000
0300
1000
0200
0000
0300
1000
0100
1000
0200
0000
0000
0300
0010
0100
,
0010
1000
0001
0100
0010
0000
0200
0000
0300
0220
0000
0000
0330
0000
0000
0000
,
1001
0000
0000
0000
;

//--------------- dance-single - Wrland ----------------
#NOTEDATA:;
#STEPSTYPE:dance-single;
#DESCRIPTION:Wrland;
#DIFFICULTY:Hard;
#METER:12;
#RADARVALUES:0,0,0,0,0;
#NOTES:
0000
0000
0000
0000
,
0000
0000
0000
0000
,
0200
0000
0300
0000
0010
0100
0000
0000
0010
0000
0000
0001
0000
0000
2000
0000
,
0000
0000
0000
0000
0000
0000
0000
0000
3000
0000
0100
0001
0000
0100
0000
0010
,
0200
0300
0010
0001
0200
0300
0001
0000
0100
2000
3000
0200
0300
0001
0010
0100
,
0020
0030
0010
0100
0020
0030
0001
0200
0000
0300
0010
0100
0000
0020
0030
0100
,
1000
0010
0100
0010
0002
0003
0200
0300
0010
0200
0300
0020
0030
0000
0101
0000
,
0000
0000
0010
0100
0010
0001
2000
3000
0200
0300
0010
0002
0003
0020
0030
0000
,
0100
0000
0010
0100
0010
0000
0001
0000
0100
0000
0001
0100
0002
0003
0020
0000
,
0030
0100
1000
0100
2000
3000
0100
0001
0010
1000
0001
0100
0002
0003
0020
0030
,
0100
0000
0010
0001
0100
0000
0200
0300
0020
0000
0030
0100
0000
0000
0010
0000
,
1000
0100
1000
0100
2000
3000
0200
0300
0020
0000
0030
0001
0000
0010
0000
1000
,
0100
0010
0001
0100
0010
0001
1000
0100
0010
0001
0100
0010
0100
0000
0010
0000
,
0000
0100
0000
0010
0100
0010
0001
0010
0100
0000
1000
0000
0100
0010
0001
0100
,
0001
0000
0010
0100
0000
1000
0100
1000
0100
0000
0010
0200
0000
0300
0010
0001
,
0200
0300
0020
0030
0200
0300
0010
2000
0000
3000
0100
0010
0000
0001
0010
0100
,
0020
0030
0200
0300
1000
0000
0100
2000
0000
3000
0000
0000
1001
0000
0100
0010
,
0001
0000
0200
0300
0010
0000
0100
0020
0000
0000
0030
0000
0001
0000
0100
0001
,
0200
0000
0300
0000
0110
0000
1000
0200
0000
0300
0010
0000
0110
0000
0010
0001
,
0100
1000
0001
0000
0020
0030
0100
0020
0000
0030
0100
0010
0000
0001
0000
0100
,
0010
0000
0100
0000
0010
0000
0001
0000
0000
0001
0000
0000
2002
0000
0000
3003
0000
0000
0110
0000
0000
0000
0000
0000
,
1000
0000
0000
0000
0100
0000
0000
0000
0010
0000
0000
0000
0001
0000
0000
0000
0000
0000
0100
0000
0000
0000
0000
0000
2200
0000
0000
0000
0000
0000
3300
0000
0000
0000
0000
0000
0100
0000
0000
0000
0000
0000
0010
0000
0000
0100
0000
0000
,
0020
0000
0030
0000
0001
0000
0010
0200
0000
0300
0010
0000
0002
0000
0003
0100
,
0010
0001
0100
1000
0010
0000
0200
0300
1000
0000
0100
1000
0000
0100
0000
0010
,
0200
0000
0300
0001
0200
0000
0300
1000
0010
0100
0020
0000
0030
0000
0100
0010
,
0001
0010
0100
1000
0200
0300
0020
0000
0030
0200
0000
0000
0000
0000
0300
0000
,
0020
0000
0030
0001
0200
0000
0300
0001
0100
0001
0200
0000
0300
0000
0010
0100
,
1000
0100
0010
0001
0200
0300
0020
0000
0030
0200
0000
0000
0300
0000
0000
0000
,
0100
0000
0000
0000
1000
0100
0000
0010
0000
0001
0000
0100
0000
0010
0000
0200
,
0000
0000
0300
0000
0100
0000
0010
0200
0000
0300
0010
0000
0001
0000
0000
0000
,
0100
0000
0000
0000
0010
0100
0000
0010
0000
0001
0000
0100
0000
1000
0000
0200
,
0000
0000
0300
0000
0100
0000
0010
0002
0000
0003
0100
0000
0110
0000
0000
0000
,
0001
0000
0000
0000
1000
0001
0000
1000
0000
0100
0000
0010
0000
0001
0000
0200
,
0000
0000
0000
0300
0010
0000
0100
0020
0000
0030
0001
0000
0100
0000
0001
0100
,
0001
1000
0000
0100
0000
0010
0000
0001
0000
0100
0010
1000
0200
0300
0002
0003
,
0020
0000
0000
0030
0200
0000
0000
0300
0010
0000
0001
0000
0010
0000
1000
0100
,
0020
0000
0000
0030
0001
0000
1000
0002
0000
0003
0100
0000
1000
0000
0100
1000
,
0100
0001
0010
0000
0001
0000
0010
0200
0000
0300
0010
0100
0000
0010
0000
0100
,
0010
0000
0100
0000
1000
0000
0100
0000
0000
0001
0000
0000
1001
0000
0000
1000
0000
0000
2200
0000
0000
3300
0000
0000
,
1000
0000
0000
0000
0100
0000
0000
0000
0010
0000
0000
0000
1000
0000
0000
0000
0000
0000
0100
0000
0000
0000
0000
0000
0022
0000
0000
0000
0000
0000
0033
0000
0000
0000
0000
0000
0110
0000
0000
0000
0000
0000
0010
0000
0000
0001
0000
0000
,
0200
0000
0000
0300
0010
0000
0100
2000
0000
3000
0100
0000
0010
0000
0100
0010
,
0001
1000
0100
0001
0010
0000
0100
0000
0020
0030
0002
0000
0003
0100
0000
0010
,
2000
0000
3000
0100
0020
0000
0030
0001
0100
0001
0200
0000
0300
0000
0010
0100
,
0010
0001
0100
0010
2000
3000
0200
0000
0300
0020
0000
0000
0000
0000
0030
0000
,
0002
0000
0003
0100
0002
0000
0003
0010
0100
0010
0200
0000
0300
0000
1000
0100
,
0010
0001
0100
0010
0200
0300
0020
0000
0030
0002
0000
0003
0100
0000
0010
0100
,
0020
0000
0030
0000
0002
0003
0100
0020
0000
0030
1000
0000
0100
0000
1000
0100
,
0010
0001
0100
0000
0100
0000
1000
0020
0000
0030
0200
0000
0300
0020
0000
0030
,
0001
0000
0010
0000
0100
0000
0010
0000
0000
1000
0000
0000
2200
0000
0000
3300
0000
0000
0220
0000
0000
0330
0000
0000
,
0001
0000
0000
0000
0010
0000
0000
0000
1000
0000
0000
0000
0100
0000
0000
0000
0000
0000
0001
0000
0000
0000
0000
0000
0202
0000
0000
0000
0000
0000
0303
0000
0000
0000
0000
0000
0010
0000
0000
0000
0000
0000
1000
0000
0000
0010
0000
0000
,
0200
0000
0300
0000
0010
0000
0001
0200
0000
0300
0001
0000
0100
0000
0010
1000
,
0100
1000
0100
0001
0020
0030
0200
0300
0020
0030
0200
0300
0000
0010
0000
0100
,
0020
0000
0030
0001
0200
0000
0300
0010
0100
0010
0200
0000
0300
0000
1000
0100
,
1000
0100
0010
0001
1000
0000
0200
0000
0300
0020
0000
0000
0030
0000
0010
0001
,
0200
0000
0300
0010
0002
0000
0003
0010
0100
1000
0200
0000
0300
0000
0100
0010
,
0001
0000
0100
0010
0100
0000
0020
0000
0030
2002
0000
0000
3003
0000
0000
0000
,
1001
0000
0000
0000
;
