#TITLE:PODEMOS HACERNOS DAÑO;
#SUBTITLE:;
#ARTIST:Juanes;
#TITLETRANSLIT:;
#SUBTITLETRANSLIT:;
#ARTISTTRANSLIT:;
#GENRE:Latin;
#CREDIT:Wrland;
#MUSIC:PODEMOS HACERNOS DANO.ogg;
#BANNER:PODEMOS HACERNOS DANO.png;
#BACKGROUND:BG.png;
#CDTITLE:Wrland Season 3 CITYGHT + last one night.png;
#PREVIEWVID:preview.mp4;
#SAMPLESTART:44.700;
#SAMPLELENGTH:12.000;
#SELECTABLE:YES;
#OFFSET:0.000;
#BPMS:0.000=74.100
,4.000=89.000
;
#STOPS:;
#DISPLAYBPM:89.000;
#METERTYPE:DDR X;
#LYRICSPATH:PODEMOS HACERNOS DANO.lrc;
#JACKET:PODEMOS HACERNOS DANO-jacket.png;
#CDIMAGE:PODEMOS HACERNOS DANO-cd.png;
#BGCHANGES:0.000=PODEMOS HACERNOS DANO.avi=0.000=0=0=0=StretchNoLoop====,
99999=-nosongbg-=1.000=0=0=0 // don't automatically add -songbackground-
;
#FGCHANGES:;

//--------------- dance-single - Wrland ----------------
#NOTES:
     dance-single:
     Wrland:
     Beginner:
     1:
     0,0,0,0,0:
0000
0000
0000
0000
,
0000
0000
0000
0000
,
0000
0000
0000
0000
,
0000
0000
0000
0000
,
0000
0000
0000
0000
,
0000
0000
0000
0000
,
0000
0000
0000
0000
,
0000
0000
0000
0000
,
0000
0000
0000
0000
,
0001
0000
0000
0000
,
0001
0000
0000
0000
,
1000
0000
0000
0000
,
1000
0000
0000
0000
,
0100
0000
0000
0000
,
0100
0000
0000
0000
,
0010
0000
0000
0000
,
0200
0000
0000
0300
,
1000
0000
0000
0000
,
1000
0000
0000
0000
,
0001
0000
0000
0000
,
0001
0000
0000
0000
,
1000
0000
0000
0000
,
1000
0000
0000
0000
,
1000
0000
0000
0000
,
0100
0000
0000
0000
,
0010
0000
0000
0000
,
0100
0000
0000
0000
,
0100
0000
0000
0000
,
0010
0000
0000
0000
,
0001
0000
0000
0000
,
1000
0000
0000
0000
,
1000
0000
0000
0000
,
0100
0000
0000
0000
,
0000
0000
0000
0000
,
1000
0000
0000
0000
,
0000
0000
0000
0000
,
0100
0000
0000
0000
;

//--------------- dance-single - Wrland ----------------
#NOTES:
     dance-single:
     Wrland:
     Easy:
     3:
     0,0,0,0,0:
0000
0000
0000
0000
,
0000
0000
0000
0000
,
0000
0000
0000
0000
,
0000
0000
0000
0000
,
0000
0000
0000
0000
,
0000
0000
0000
0000
,
0000
0000
0000
0000
,
0000
0000
0000
0000
,
0000
0000
0000
0000
,
1000
0000
1000
0000
,
0100
0000
1000
0000
,
0100
0000
0010
0000
,
0002
0000
0000
0003
,
0100
0000
0100
0000
,
1000
0000
1000
0000
,
0100
0000
1000
0000
,
0100
0000
0020
0030
,
0001
0001
0001
0000
,
1000
1000
1000
0000
,
0100
0100
0100
0000
,
0010
0010
0010
0000
,
0001
0001
0001
0000
,
0100
0100
0100
0000
,
1000
1000
1000
0000
,
0010
0010
0010
0000
,
0100
0100
0100
0000
,
0010
0010
0010
0000
,
0001
0001
0001
0000
,
0010
0010
0010
0000
,
0100
0100
0100
0000
,
1000
1000
1000
0000
,
0100
0010
0001
0100
,
0010
0100
1000
0100
,
0000
0000
0000
0000
,
0100
0000
0000
0000
,
0000
0000
0000
0000
,
0100
0000
0000
0000
;

//--------------- dance-single - Wrland ----------------
#NOTES:
     dance-single:
     Wrland:
     Medium:
     6:
     0,0,0,0,0:
0000
0000
0000
0000
,
0000
0000
0000
0000
,
0000
0000
0000
0000
,
0000
0000
0000
0000
,
0000
0000
0000
0000
,
0000
0000
0000
0000
,
0000
0000
0000
0000
,
0000
0000
0000
0000
,
0000
0000
0000
0000
,
1000
0001
1000
0001
,
0100
1000
0100
1000
,
0010
0100
0010
0100
,
0010
0000
0200
0000
0300
0000
0010
0100
,
0010
0001
0010
0100
,
1000
0100
1000
0100
,
1000
0100
0010
0100
,
0010
0000
0000
0000
0001
0000
0000
0000
0100
0000
0001
0000
0100
0000
0000
1000
,
0100
0000
0000
0000
0001
0000
0000
0000
0010
0000
0000
0000
0100
0000
0000
0000
0010
0000
0000
0000
0000
0001
0000
0000
0000
0000
0000
2000
0000
0000
0000
0000
0000
0000
0000
0000
3000
0000
0000
0000
0000
0000
0000
0000
0000
0000
0000
0000
,
0100
0010
0100
0010
0001
0100
0000
0001
0000
0200
0000
0000
0300
0000
0000
0010
,
0100
0000
0000
0000
1000
0000
0000
0000
0010
0000
0000
0000
0001
0000
0000
0000
0010
0000
0000
0000
0000
0100
0000
0000
0000
0000
0000
0020
0000
0000
0000
0000
0000
0030
0000
0000
0010
0000
0000
0000
0000
0000
0100
0000
0000
0010
0000
0000
,
0001
1000
0000
0100
0000
0010
0000
0001
0000
0200
0000
0000
0300
0000
0000
0010
,
0100
0000
0000
0000
0001
0000
0000
0000
0010
0000
0000
0000
0100
0000
0000
0000
0010
0000
0000
0000
0000
1000
0000
0000
0000
0000
0000
0200
0000
0000
0000
0000
0000
0000
0000
0000
0300
0000
0000
0000
0000
0000
0000
0000
0000
0000
0000
0000
,
0100
0010
0000
0001
0010
0000
0100
0010
0000
0200
0000
0000
0300
0000
0000
0001
,
0100
1000
0000
0010
0100
0001
0000
0002
0003
2000
3000
0020
0030
0002
0003
0200
,
0300
0020
0030
0200
0300
2000
3000
0200
0300
0002
0000
0000
0003
0000
0000
0001
,
0100
0000
0000
0000
1000
0000
0000
0000
0100
0000
0000
0000
0010
0000
0000
0000
0100
0000
0000
0000
0000
0001
0000
0000
0000
0000
0000
2000
0000
0000
0000
0000
0000
0000
0000
0000
3000
0000
0000
0000
0000
0000
0000
0000
0000
0000
0000
0000
,
0100
0010
0000
0001
0000
0100
0000
0010
0000
0200
0000
0000
0300
0000
0000
0010
,
0100
0000
0000
0000
1000
0000
0000
0000
0010
0000
0000
0000
0001
0000
0000
0000
0010
0000
0000
0000
0000
0200
0000
0000
0300
0000
0000
0020
0000
0000
0000
0000
0000
0000
0000
0000
0000
0000
0000
0000
0000
0000
0030
0000
0000
0000
0000
0000
,
1000
0100
0000
1000
0000
0100
0000
0010
0000
0002
0000
0000
0003
0000
0000
0100
,
1000
0000
0000
0000
0001
0000
0000
0000
0010
0000
0000
0000
1000
0000
0000
0000
0010
0000
0000
0000
0000
0100
0000
0000
0000
0000
0000
0002
0000
0000
0000
0000
0000
0000
0000
0000
0003
0000
0000
0000
0000
0000
0000
0000
0000
0100
0000
0000
,
0010
0000
0000
0000
1000
0000
0000
0000
0100
0000
0000
0000
0010
0000
0000
0000
0100
0000
0000
0000
0000
0010
0000
0000
0000
0000
0000
0002
0000
0000
0000
0000
0000
0000
0000
0000
0003
0000
0000
0000
0000
0000
0000
0000
0000
0010
0000
0000
,
0100
1000
0000
0010
0001
0100
0000
0001
0000
1000
0000
0001
0000
0100
0000
0010
,
0000
0100
0000
0010
0000
0001
0000
0100
0000
0020
0000
0000
0030
0000
0000
0000
,
0100
0000
0000
0010
0000
0000
0010
0000
0000
0000
0000
0000
0000
0000
0000
0000
,
0000
0001
0000
0000
0001
0000
0000
0001
0000
0000
0000
0000
0000
0000
0000
0000
,
0000
0100
0000
0000
0100
0000
0000
0100
0000
0000
0000
0000
0000
0000
0000
0000
,
0100
0000
0000
1000
0000
0000
0100
0000
0000
0000
0000
0000
0000
0000
0000
0000
;

//--------------- dance-single - Wrland ----------------
#NOTES:
     dance-single:
     Wrland:
     Hard:
     9:
     0,0,0,0,0:
0000
0000
0000
0000
,
0000
0000
0000
0000
,
0000
0000
0000
0000
,
0000
0000
0000
0000
,
0000
0000
0000
0000
,
1000
0000
0000
0100
1000
0000
0100
0000
0010
0000
0100
0000
0010
0001
0100
0000
,
0001
0000
0100
0001
0100
0001
0000
0010
0000
0100
0000
0000
0010
1000
0100
0010
,
0001
0010
0100
0010
0001
0000
0100
0010
0000
0001
0000
0100
0000
0010
0000
0100
,
0010
0001
0000
0010
0000
0100
0000
0010
0000
0200
0000
0000
0300
0000
0000
0000
,
2000
0000
0000
0000
3000
0000
0000
0000
1000
0100
1000
0100
0010
0001
0200
0000
,
0000
0300
0000
0000
0010
0000
1000
0100
0001
0000
0010
0100
0000
0010
0000
0002
,
0000
0000
0003
0000
0100
0000
0010
0000
0000
0010
0000
0100
0010
1000
0000
0100
,
0010
0000
0100
0010
0000
0100
0000
0010
0000
0001
0100
1000
0100
0000
0010
0000
,
0200
0000
0300
0000
0020
0000
0030
0000
0001
0100
0001
0000
1000
0000
0100
0000
,
0020
0000
0030
0000
0100
0000
0000
0010
0100
0000
0010
0001
0000
0100
0000
0020
,
0000
0000
0030
0000
0100
0000
1000
0000
0000
1000
0000
0100
1000
0000
0100
0010
,
0001
0000
0010
0000
0100
0000
0010
0100
0010
0000
0001
0100
0002
0000
0003
0010
,
0100
0000
0000
0000
0100
0000
0000
0000
0010
0000
0000
0000
0100
0000
0000
0000
0010
0000
0000
0000
0000
0010
0000
0000
0000
0000
0000
0010
0000
0000
1000
0000
0000
0100
0000
0000
0010
0000
0000
0000
0000
0000
0001
0000
0000
0010
0000
0000
,
0100
0010
0100
0010
1000
0100
0010
0001
0000
0100
0000
0010
0100
0010
0001
0010
,
0100
0000
0000
0000
1000
0000
0000
0000
0010
0000
0000
0000
0001
0000
0000
0000
0010
0000
0000
0000
0000
0100
0000
0000
0000
0000
0000
1000
0000
0000
0100
0000
0000
0001
0000
0000
0010
0000
0000
1000
0000
0000
0100
0000
0000
0010
0000
0000
,
0001
0010
0000
0100
0000
0010
0000
1000
0000
0100
0001
0010
0001
0010
0100
0010
,
0100
0000
0000
0000
0001
0000
0000
0000
0010
0000
0000
0000
0100
0000
0000
0000
0010
0000
0000
0000
0000
0001
0000
0000
0000
0000
0000
0100
0000
0000
0010
0000
0000
0001
0000
0000
0001
0000
0000
0100
0000
0000
1000
0000
0000
0100
0000
0000
,
0100
0010
0001
1000
0010
0000
0001
0100
0000
0010
0000
0000
0100
0010
0001
1000
,
0100
1000
0000
0010
0100
0010
0000
0002
0003
2000
3000
0020
0030
0002
0003
0200
,
0300
0020
0030
0200
0300
2000
3000
0200
0300
0002
0003
0000
0010
0010
0010
0001
,
0100
0000
0000
0000
1000
0000
0000
0000
0100
0000
0000
0000
0010
0000
0000
0000
0100
0000
0000
0000
0000
0001
0000
0000
0000
0000
0000
1000
0000
0000
0010
0000
0000
0000
0000
0000
0100
0000
0000
0010
0000
0000
1000
0000
0000
0000
0000
0000
,
0100
0010
0001
0001
0010
0100
0000
0010
0000
0100
0000
0010
0100
0010
0001
0010
,
0100
0000
0000
0000
1000
0000
0000
0000
0010
0000
0000
0000
0001
0000
0000
0000
0010
0000
0000
0000
0000
0100
0000
0000
0000
0000
0000
0010
0000
0000
0100
0000
0000
0010
0000
0000
0001
0000
0000
0100
0000
0000
0010
0000
0000
0001
0000
0000
,
1000
0100
0010
1000
0001
0100
1000
0010
0100
0001
0010
0100
0010
0001
0100
0100
,
1000
0000
0000
0000
0001
0000
0000
0000
0010
0000
0000
0000
1000
0000
0000
0000
0010
0000
0000
0000
0000
0200
0000
0000
0300
0000
0000
0002
0000
0000
0000
0000
0000
0000
0000
0000
0000
0000
0000
0003
0000
0000
0000
0000
0000
0100
0000
0000
,
0010
0000
0000
0000
1000
0000
0000
0000
0100
0000
0000
0000
0010
0000
0000
0000
0100
0000
0000
0000
0000
0020
0000
0000
0030
0000
0000
0002
0000
0000
0000
0000
0000
0000
0000
0000
0000
0000
0000
0003
0000
0000
0000
0000
0000
0100
0000
0000
,
0010
0001
0000
0100
0010
0200
0300
0002
0003
2000
3000
0020
0030
0200
0300
0020
,
0030
0200
0300
0020
0030
2000
3000
0100
0000
0010
0100
0010
0001
0100
0010
0001
,
0100
0001
0100
0001
0100
0001
0200
0300
0000
0100
0000
0000
1000
0000
0000
0000
,
0000
1000
0100
0000
0000
0010
0000
0000
0001
0000
0000
0000
0000
0000
0010
0001
,
0100
0010
1000
0001
0100
0001
0100
0002
0000
0000
0000
0000
0000
0000
0003
0000
,
0100
0000
0000
1000
0000
0000
0100
0000
0000
0000
0000
0000
0000
0000
0000
0000
;
