#VERSION:0.83;
#TITLE:On the Floor (feat. Pitbull);
#SUBTITLE:;
#ARTIST:Jennifer Lopez;
#TITLETRANSLIT:;
#SUBTITLETRANSLIT:;
#ARTISTTRANSLIT:;
#GENRE:Pop;
#CREDIT:Wrland;
#MUSIC:On the Floor (feat. Pitbull).ogg;
#BANNER:On the Floor (feat. Pitbull).png;
#BACKGROUND:BG.png;
#CDTITLE:Wrland Season 3 CITYGHT + last one night.png;
#PREVIEWVID:preview.mp4;
#SAMPLESTART:81.230;
#SAMPLELENGTH:12.000;
#SELECTABLE:YES;
#OFFSET:0.001;
#BPMS:0.000=130.000
,136.000=65.000
,156.000=130.000
;
#STOPS:;
#METERTYPE:DDR X;
#LYRICSPATH:On the Floor (feat. Pitbull).lrc;
#JACKET:On the Floor (feat. Pitbull)-jacket.png;
#CDIMAGE:On the Floor (feat. Pitbull)-cd.png;
#BGCHANGES:0.000=On the Floor (feat. Pitbull).avi=1.000=0=0=0=StretchNoLoop====,
99999.000=-nosongbg-=1.000=0=0=0=StretchNoLoop====
;
#FGCHANGES:;

//--------------- dance-single - Wrland ----------------
#NOTEDATA:;
#STEPSTYPE:dance-single;
#DESCRIPTION:Wrland;
#DIFFICULTY:Beginner;
#METER:1;
#RADARVALUES:0,0,0,0,0;
#NOTES:
0000
0000
0000
0000
,
0000
0000
0000
0000
,
0000
0000
0000
0000
,
0000
0000
0000
0000
,
0100
0000
0000
0000
,
0100
0000
0000
0000
,
0010
0000
0000
0000
,
0010
0000
0000
0000
,
0001
0000
0000
0000
,
1000
0000
0000
0000
,
0100
0000
0000
0000
,
0100
0000
0000
0000
,
0010
0000
0000
0000
,
0100
0000
0000
0000
,
1000
0000
0000
0000
,
0100
0000
0000
0000
,
1000
0000
0000
0000
,
0001
0000
0000
0000
,
0010
0000
0000
0000
,
0001
0000
0000
0000
,
0100
0000
0000
0000
,
0010
0000
0000
0000
,
0200
0000
0000
0000
,
0300
0000
0000
0000
,
0010
0000
0000
0000
,
0001
0000
0000
0000
,
0010
0000
0000
0000
,
0100
0000
0000
0000
,
1000
0000
0000
0000
,
0100
0000
0000
0000
,
0010
0000
0000
0000
,
0100
0000
0000
0000
,
2000
0000
0000
0000
,
3001
0000
0000
0000
,
0100
0000
0000
0000
,
0010
0000
0000
0000
,
0100
0000
0000
0000
,
1000
0000
0000
0000
,
0100
0000
0000
0000
,
0001
0000
0000
0000
,
1000
0000
0000
0000
,
0100
0000
0000
0000
,
1000
0000
0000
0000
,
0010
0000
0000
0000
,
0001
0000
0000
0000
,
0010
0000
0000
0000
,
0100
0000
0000
0000
,
1000
0000
0000
0000
,
0100
0000
0000
0000
,
1000
0000
0000
0000
,
0010
0000
0000
0000
,
0001
0000
0000
0000
,
0010
0000
0000
0000
,
0100
0000
0000
0000
,
1000
0000
0000
0000
,
0001
0000
0000
0000
,
0001
0000
0000
0000
,
1000
0000
0000
0000
,
0100
0000
0000
0000
,
0010
0000
0000
0000
,
0100
0000
0000
0000
,
0100
0000
0000
0000
,
0010
0000
0000
0000
;

//--------------- dance-single - Wrland ----------------
#NOTEDATA:;
#STEPSTYPE:dance-single;
#DESCRIPTION:Wrland;
#DIFFICULTY:Easy;
#METER:4;
#RADARVALUES:0,0,0,0,0;
#NOTES:
0000
0000
0000
0000
,
0000
0000
0000
0000
,
0000
0000
0000
0000
,
0000
0000
0000
0000
,
0100
0000
1000
0000
,
0100
0000
0010
0000
,
0100
0000
0100
0000
,
1000
0000
0100
0000
,
0100
0000
1000
0000
,
0100
0000
0010
0000
,
0001
0000
0010
0000
,
0010
0000
0100
0000
,
0020
0000
0000
0030
,
0200
0000
0300
0110
,
1000
0000
0100
0000
,
0010
0000
0100
0000
,
0001
0000
0010
0000
,
0100
0000
1000
0000
,
0100
0000
1000
0000
,
0100
0000
0010
0000
,
0001
0000
0010
0000
,
0100
0000
1000
0000
,
2000
3000
0200
0300
,
2000
3000
0100
0110
,
0001
0000
0001
0000
,
0010
0000
0100
0000
,
0100
0000
1000
0000
,
1000
0000
0100
0000
,
0010
0000
0001
0000
,
0010
0000
0100
0000
,
0100
0000
1000
0000
,
0100
0000
1000
0000
,
0200
0000
0000
0300
,
0020
0000
0000
0030
,
2002
0000
0000
3003
,
0100
0000
0000
0000
,
0022
0000
0000
0033
,
1000
0000
0000
0000
,
2200
3300
0010
0000
,
0100
0000
0100
0000
,
0010
0000
0010
0000
,
0001
0000
0010
0000
,
0100
0000
1000
0000
,
0100
0000
0010
0000
,
0100
0000
0010
0000
,
0001
0000
0100
0000
,
0010
0000
0100
0000
,
1000
0000
0100
0000
,
1000
0000
0100
0000
,
0010
0000
0100
0000
,
0010
0000
0001
0000
,
0100
0000
0010
0000
,
0100
0000
0010
0000
,
0100
0000
0010
0000
,
0001
0000
1000
0000
,
0100
0000
1000
0000
,
0100
0000
1000
0000
,
0010
0000
0001
0000
,
0010
0000
0001
0000
,
0100
0000
0010
0000
,
0100
0000
0010
0000
,
1000
0000
0001
0000
,
1000
0000
1001
0000
;

//--------------- dance-single - Wrland ----------------
#NOTEDATA:;
#STEPSTYPE:dance-single;
#DESCRIPTION:Wrland;
#DIFFICULTY:Medium;
#METER:7;
#RADARVALUES:0,0,0,0,0;
#NOTES:
0000
0000
0000
0000
,
0000
0000
0000
0000
,
0000
0000
0000
0000
,
0000
0000
0000
0000
,
1000
0100
1000
0100
,
0010
0100
0010
0001
,
0100
0010
0100
0010
,
0100
1000
0100
1000
,
0100
0010
0001
0100
,
0010
0100
0010
0100
,
1000
0100
1000
0100
,
0010
0100
0010
0001
,
0200
0300
0020
0030
,
0200
0000
0300
0110
,
0010
0001
0010
0100
,
0010
0000
0000
0100
0000
0000
0010
0000
0002
0000
0000
0000
0003
0000
0000
0000
,
0100
1000
0100
1000
,
1000
0000
0000
0001
0000
0000
1000
0000
0002
0000
0000
0000
0003
0000
0000
0000
,
0100
0010
0100
0010
,
0100
0000
0000
1000
0000
0000
0100
0000
1000
0000
0000
0100
0000
0000
0010
0000
,
0001
0000
0000
0100
0000
0000
0010
0000
0200
0000
0000
0000
0300
0000
0000
0000
,
0010
0000
0000
0100
0000
0000
0010
0000
0002
0000
0000
0000
0003
0000
0000
0000
,
0100
0000
1000
0000
0100
0000
1000
0100
,
1000
0000
1000
0100
1000
0000
1001
0000
,
0100
0000
0010
0100
0010
0001
0100
0010
,
0100
0000
0000
0100
0000
0000
1000
0000
0200
0000
0000
0000
0300
0000
0000
0000
,
0100
0000
0010
0100
0010
0001
0100
0010
,
0100
0000
0000
0100
0000
0000
1000
0000
0200
0000
0000
0000
0300
0000
0000
0000
,
0100
0000
0010
0100
0010
0001
0100
0010
,
0100
0000
0000
0100
0000
0000
1000
0000
0200
0000
0000
0000
0300
0000
0100
0000
,
0020
0000
0030
0001
0100
0020
0000
0030
,
0100
0000
1000
0100
1000
0200
0000
0300
,
1000
0100
0010
0110
,
0001
0000
0010
0000
0100
0020
0000
0030
,
0200
0000
0300
0100
0010
0001
0200
0300
0010
0100
1000
0100
1000
0100
1000
0100
,
1000
0200
0300
0000
0020
0030
0000
0000
,
0200
0000
0300
0010
0100
0010
0200
0300
0001
0100
0001
0100
0010
1000
0010
1000
,
0020
0030
2000
0000
3000
0000
0000
0000
0200
0000
0300
0000
0000
0000
0000
0000
,
0200
0300
0020
0030
0002
0003
2000
3000
,
0200
0000
0300
1000
0100
1000
0200
0300
,
0100
0010
0001
0100
0010
0100
1000
0100
,
2000
3000
1000
0100
1000
0100
0010
0001
,
0100
0000
0000
0010
0000
0000
0100
0000
0020
0000
0000
0000
0030
0000
0000
0000
,
0200
0000
0300
0010
0100
0010
0200
0300
,
0010
0001
0010
0100
1000
0100
0010
0100
,
0020
0030
0001
0100
0010
0100
1000
0100
,
1000
0000
0000
1000
0000
0000
0100
0000
2000
0000
0000
0000
3000
0000
0000
0000
,
0200
0000
0300
1000
0100
1000
0200
0300
,
0010
0100
0010
0001
0100
0010
0100
0010
,
0200
0300
0010
0001
0100
0010
1000
0100
,
1000
0000
0000
0100
0000
0000
1000
0000
0200
0000
0000
0000
0300
0000
0000
0000
,
0200
0000
0300
0010
0100
0010
0200
0300
,
0010
0100
0010
0001
0100
0010
0100
1000
,
0200
0300
1000
0100
1000
0100
0010
0001
,
0100
0000
0000
0010
0000
0000
0100
0000
0020
0000
0000
0000
0030
0000
0000
0000
,
0100
0010
0100
0010
,
0001
0010
0100
1000
,
0200
0000
0300
1000
0001
1000
0001
1000
,
0001
0000
0000
1000
0000
0000
0001
0000
2002
0000
0000
0000
3003
0000
0000
0000
,
0100
1000
0100
1000
,
0100
0010
0001
0100
,
0020
0000
0030
0010
0100
0001
1000
0010
,
0100
0000
0000
0010
0000
0000
0100
0000
2002
0000
0000
0000
0000
0000
0000
0000
,
3003
0000
0000
0000
;

//--------------- dance-single - Wrland ----------------
#NOTEDATA:;
#STEPSTYPE:dance-single;
#DESCRIPTION:Wrland;
#DIFFICULTY:Hard;
#METER:10;
#RADARVALUES:0,0,0,0,0;
#NOTES:
0000
0000
0000
0000
,
0000
0000
0000
0000
,
0000
0000
0000
0000
,
0000
0000
0000
0000
,
0100
0000
0000
0100
0000
0000
0100
0000
0000
0000
0000
0000
0010
0000
0100
0010
,
0100
0000
0000
0100
0000
0000
0010
0000
0100
0010
0000
0000
0001
0000
0100
0000
,
0010
0000
0000
1000
0000
0000
0100
0000
0000
0000
0000
0000
1000
0000
0100
1000
,
0100
0000
0000
0100
0000
0000
0010
0000
0010
0100
1000
0000
0100
0000
0010
0000
,
0001
0000
0000
0010
0000
0000
0100
0000
0000
0000
0000
0000
0100
0000
0010
0100
,
0010
0000
0000
0010
0000
0000
0001
0000
0100
0001
0000
0000
0010
0000
0100
0000
,
1000
0000
0000
0100
0000
0000
1000
0000
0000
0000
0000
0000
0100
0000
1000
0100
,
1000
0000
0000
0100
0000
0000
0010
0000
0100
0010
0100
0000
0010
0000
0001
0000
,
0010
0000
0100
0010
0000
0000
0100
0000
1000
0000
0100
1000
0000
0000
0100
0000
,
0010
0000
0100
0010
0001
0000
0001
0010
0000
0000
0000
0000
1001
0000
0110
0000
,
1000
0010
0100
0010
0100
0010
0001
0010
,
0100
0000
0000
1000
0000
0000
0100
0000
2000
0000
3000
0000
1100
0000
0000
0000
,
0000
0010
0100
0010
0001
0010
0100
1000
,
0100
0000
0000
0100
0000
0000
0010
0000
0200
0000
0300
0000
0110
0000
0000
0000
,
0000
0010
0100
0010
0001
0010
0100
1000
,
0100
0000
0000
1000
0000
0000
0100
0000
1000
0000
0000
0100
0000
0000
0010
0000
,
0001
0000
0000
0100
0000
0000
0010
0000
0100
0000
0000
0010
0000
0000
0001
0000
,
0010
0000
0000
0100
0000
0000
1000
0000
0200
0000
0300
0000
0020
0000
0000
0000
,
0030
0000
0100
0000
1000
0000
0100
1000
,
0100
0010
0001
0010
0200
0300
0110
0000
,
0110
0000
0100
1000
0100
0010
0001
0100
,
0010
0000
0001
0100
0010
0000
1000
0000
0010
0000
0000
0000
0220
0000
0000
0000
,
0330
0000
0100
0010
0100
0010
0001
0100
,
0010
0000
0000
0100
0000
0000
0010
0000
0200
0000
0300
0000
0220
0000
0000
0000
,
0330
0001
1000
0001
1000
0001
1000
0001
,
1000
0000
0000
0100
0000
0000
0010
0000
0200
0000
0000
0000
0300
0000
0010
0000
,
0022
0000
0033
0100
0100
2200
0000
3300
,
0100
0010
0100
0010
0001
0100
0000
0000
,
0100
0000
1000
0100
0010
0001
0100
0000
,
0010
0100
0010
0001
0100
0010
0100
0010
,
0220
0000
0330
0100
0010
0001
0200
0300
1000
0100
0010
0100
0010
0001
0100
0010
,
0100
0000
0000
0010
0000
0000
0100
0000
0000
0000
0100
0000
0000
0000
0010
0100
0010
0000
0000
0100
0000
0000
1000
0000
0000
0000
0100
0000
1000
0000
0100
0000
,
0020
0000
0030
0100
0010
0001
0100
0000
0010
0100
1000
0100
0010
0100
0010
0100
,
0010
0000
0000
0100
0000
0000
0020
0000
0000
0000
0030
0000
0001
0000
0100
0001
0100
0000
0000
1000
0000
0000
0100
0000
0000
0000
0010
0000
0001
0000
0100
0000
,
0010
0000
0000
0100
0000
0000
0010
0000
0000
0000
0100
0000
1000
0000
0100
0000
1100
0000
0000
0100
0000
0000
0010
0000
0000
0000
0001
0000
0100
0000
0001
0000
,
0202
0000
0303
0010
0100
0010
2000
3000
,
0100
1000
0100
0010
0001
0100
0010
0100
,
0010
0000
0100
0010
0001
0100
0010
1000
,
0100
0000
0000
1000
0000
0000
0100
0000
2200
0000
3300
0000
0220
0000
0330
0000
,
0020
0000
0030
0001
0010
0100
2000
3000
,
0100
0010
0100
0010
0001
0100
0010
0100
,
0010
0000
0000
0100
0010
0000
1000
0000
0100
0000
0010
0000
0001
0000
0100
0000
,
0010
0000
0000
0100
0000
0000
0010
0000
0220
0000
0330
0000
2200
0000
3300
0000
,
0200
0300
0010
0001
0100
0010
0200
0300
,
0010
0100
1000
0100
0010
0001
0100
0010
,
0100
0000
0000
0100
0010
0000
0010
0000
0100
0000
0010
0000
0001
0000
0100
0000
,
2000
0000
3000
0100
0000
0000
0010
0000
0202
0000
0000
0000
0303
0000
0000
0000
,
0020
0000
0030
0100
1000
0100
0010
0000
,
0001
0100
0010
1000
0100
1000
0100
0010
,
0100
0000
0000
0100
0010
0000
0001
0000
0100
0000
0001
0000
0100
0000
0010
0000
,
1000
0000
0000
0100
0000
0000
1000
0000
2200
0000
3300
0000
0220
0000
0330
0000
,
0002
0000
0003
0010
0100
0010
0100
0000
,
0001
0100
0010
1000
0100
0010
0100
0010
,
0001
0000
0000
0100
0001
0000
0100
0000
0010
0000
1000
0000
0100
0000
1000
0000
,
0100
0000
0000
0100
0000
0000
0010
0000
0220
0000
0330
0000
2002
0000
3003
0000
,
0100
0000
0000
1000
0100
1000
0100
0000
,
0010
0100
0010
0001
0100
0010
0100
0010
,
0100
0000
0000
0010
0100
0000
0010
0000
0001
0000
0100
0000
0010
0000
0100
0000
,
1000
0000
0000
0100
0000
0000
0010
0000
0202
0000
0000
0000
0000
0000
0000
0000
,
0303
0000
0000
0000
;
