#TITLE:Ojos Así;
#SUBTITLE:;
#ARTIST:Shakira;
#TITLETRANSLIT:;
#SUBTITLETRANSLIT:;
#ARTISTTRANSLIT:;
#GENRE:Latin;
#CREDIT:Wrland;
#MUSIC:Ojos Asi.ogg;
#BANNER:Ojos Asi.png;
#BACKGROUND:BG.png;
#CDTITLE:Wrland Season 3 CITYGHT.png;
#SAMPLESTART:105.268;
#SAMPLELENGTH:12.000;
#SELECTABLE:YES;
#OFFSET:0.000;
#BPMS:0.000=60.860
,15.000=126.990
,322.000=63.495
;
#STOPS:;
#DISPLAYBPM:126.000;
#METERTYPE:DDR X;
#BGCHANGES:0.000=Ojos Asi.avi=1.000=0=0=0=StretchNoLoop====,
99999.000=-nosongbg-=1.000=0=0=0=StretchNoLoop====,
99999.000=-nosongbg-=1.000=0=0=0=StretchNoLoop====
;
#FGCHANGES:;

//--------------- dance-single - Wrland ----------------
#NOTES:
     dance-single:
     Wrland:
     Beginner:
     1:
     0.046968,0.171039,0.023911,0.029889,0,55,51,4,5,0,0,0.046968,0.171039,0.023911,0.029889,0,55,51,4,5,0,0:
0000
0000
0000
0000
,
0000
0000
0000
0000
,
0000
0000
0000
0000
,
0000
0000
0000
0000
,
0000
0000
0000
0000
,
0000
0000
0000
0000
,
0000
0000
0000
0000
,
0000
0000
0000
0100
,
0000
0000
0000
0000
,
0000
0000
0000
0100
,
0000
0000
0000
0000
,
0000
0000
0000
0010
,
0000
0000
0000
0000
,
0000
0000
0000
0001
,
0000
0000
0000
0000
,
0000
0000
0000
1000
,
0000
0000
0000
0000
,
0000
0000
0000
1000
,
0000
0000
0000
0000
,
0000
0000
0000
0100
,
0000
0000
0000
0000
,
0000
0000
0000
0010
,
0000
0000
0000
0000
,
0000
0000
0000
0100
,
0000
0000
0000
0000
,
0000
0000
0000
0001
,
0000
0000
0000
0000
,
0000
0000
0000
0010
,
0000
0000
0000
0000
,
0000
0000
0000
0001
,
0000
0000
0000
0000
,
0000
0000
0000
1000
,
0000
0000
0000
0000
,
0000
0000
0000
0100
,
0000
0000
0000
0000
,
0000
0000
0000
1000
,
0000
0000
0000
0000
,
0000
0000
0000
1000
,
0000
1000
0000
1000
,
1000
1000
1000
0001
,
0000
0000
0000
0000
,
0000
0000
0000
0010
,
0000
0000
0000
0000
,
0000
0000
0000
0001
,
0000
0000
0000
0000
,
0000
0000
0000
0010
,
0000
0100
0000
0010
,
0100
0010
0100
0020
,
0000
0000
0000
0000
,
0030
0000
0000
0002
,
0000
0000
0000
0000
,
0003
0000
0000
2000
,
0000
0000
0000
0000
,
3000
0000
0000
0200
,
0000
0000
0000
0000
,
0300
0000
0000
1000
,
0000
0000
0000
0000
,
0000
0000
0000
0100
,
0000
0000
0000
0000
,
0000
0000
0000
0100
,
0000
0000
0000
0000
,
0000
0000
0000
0010
,
0000
0000
0000
0000
,
0000
0000
0000
0100
,
0000
0000
0000
0110
,
0000
0000
0000
0000
,
0000
0000
0000
1001
,
0000
0000
0000
0000
,
0000
0000
0000
1001
,
0000
0000
0000
0000
,
0000
0000
0000
0110
,
0000
0000
0000
0000
,
0000
0000
0000
0010
,
0000
0000
0000
0000
,
0000
0000
0000
0001
,
0000
0000
0000
0000
,
0000
0000
0000
0010
,
0000
0000
0000
0000
,
0000
0000
0000
0100
,
0000
0000
0000
0100
,
0100
0100
0020
0000
,
0000
0000
0000
0030
;

//--------------- dance-single - Wrland ----------------
#NOTES:
     dance-single:
     Wrland:
     Easy:
     4:
     0.077711,0.146605,0.005978,0.005978,0,91,90,1,1,0,0,0.077711,0.146605,0.005978,0.005978,0,91,90,1,1,0,0:
0000
0000
0000
0000
,
0000
0000
0000
0000
,
0000
0000
0000
0000
,
0000
0000
0000
0000
,
0000
0000
0000
0000
,
0000
0000
0000
0000
,
0000
0000
0000
0000
,
0000
0000
0000
0100
,
0000
0000
0000
0100
,
0000
0000
0000
0010
,
0000
0000
0000
0010
,
0000
0000
0010
0010
,
0000
0000
0000
0001
,
0000
0000
0000
0010
,
0000
0000
0000
0100
,
0000
0000
0000
1000
,
0000
0000
0000
1000
,
0000
0000
0000
0100
,
0000
0000
0000
0010
,
0000
0000
0000
0001
,
0000
0000
0000
0001
,
0000
0000
0000
0100
,
0000
0000
0000
0010
,
0000
0000
0000
0100
,
0000
0000
0000
0100
,
0000
0000
0000
0010
,
0000
0000
0000
0100
,
0000
0000
0000
0001
,
0000
0000
0000
1000
,
0000
0000
0000
1000
,
0000
0000
0000
0100
,
0000
0100
0100
0010
,
0000
0000
0000
0100
,
0000
0000
0000
0010
,
0000
0000
0000
0001
,
0000
0000
0000
1000
,
0000
0000
0000
0100
,
0000
0000
0000
1000
,
0000
0000
0000
1000
,
1000
0100
0010
0001
,
0000
0000
0000
0010
,
0000
0000
0000
0100
,
0000
0000
0000
0100
,
0000
0000
0000
0010
,
0000
0000
0000
0100
,
0000
0000
0000
0001
,
0000
0000
0000
0001
,
0010
0100
1000
0100
,
0000
0000
0000
0100
,
0000
0000
0000
0010
,
0000
0000
0000
0100
,
0000
0000
0000
1000
,
0000
0000
0000
0100
,
0000
0000
0000
0010
,
0000
0000
0000
0100
,
0000
0000
0000
0001
,
0000
0000
0000
0010
,
0000
0000
0000
0100
,
0000
0000
0000
0010
,
0000
0000
0000
0100
,
0000
0000
0000
1000
,
0000
0000
0000
0100
,
0000
0000
0000
0100
,
0000
0000
0000
0010
,
0000
0110
0000
0100
,
0000
0000
0000
1000
,
0000
0000
0000
0100
,
0000
0000
0000
0010
,
0000
0000
0000
0001
,
0000
0000
0000
0100
,
0000
0000
0000
0010
,
0000
0000
0000
0100
,
0100
0100
0010
0100
,
0000
0000
0000
0010
,
0000
0000
0000
0001
,
0000
0000
0000
0010
,
0000
0000
0000
0100
,
0000
0000
0000
0010
,
0000
0000
0000
1000
,
0000
0001
0000
0100
,
0010
0001
0200
0000
,
0000
0000
0000
0300
;

//--------------- dance-single - Wrland ----------------
#NOTES:
     dance-single:
     Wrland:
     Medium:
     7:
     0.425277,0.561987,0.041845,0.113578,0.269,498,491,7,19,0,0,0.425277,0.561987,0.041845,0.113578,0.269,498,491,7,19,0,0:
0000
0000
0000
0000
,
0000
0000
0000
0000
,
0000
0000
0000
0000
,
0000
0000
0000
0000
,
0000
0000
0000
0000
,
0000
0000
0000
0000
,
0000
0000
0000
0000
,
0000
0000
0000
0100
,
0100
0000
0100
0000
0100
0010
0100
0000
,
0010
0100
0010
0100
0010
0000
0001
0000
,
0010
0000
0100
0000
1000
0100
1000
0000
,
1000
0100
1000
0100
0010
0000
0100
0000
,
0010
0000
0100
0000
0010
0100
0010
0000
,
0001
0010
0100
1000
0100
0000
0010
0000
,
0100
0000
0100
0000
1000
0100
0100
0000
,
0010
0100
0010
0010
0100
0000
0002
0000
,
0003
0000
0010
0100
1000
0200
0000
0300
,
0000
0000
1000
0100
1000
0200
0000
0300
,
0000
0000
0010
0100
0010
0100
0000
0010
,
0100
0010
0100
1000
0100
0010
0200
0000
,
0300
0000
0100
0010
0001
0020
0000
0030
,
0000
0000
0010
0100
1000
0200
0000
0300
,
0000
0000
1000
0100
1000
0100
0000
0010
,
0100
0010
0001
0100
0010
0100
1000
0100
,
0010
0000
0000
0100
0010
0000
0100
0010
,
0001
0000
0000
0010
0100
1000
0100
0000
,
0100
0000
0010
0000
0000
0000
0100
0000
0000
0000
1000
0000
0100
0000
0000
0010
,
0000
0010
1000
0000
0100
0000
0100
0010
,
0100
0000
0000
0100
0010
0000
0001
0010
,
0100
0000
0000
0010
0100
0010
0200
0000
,
0300
0001
0020
0000
0030
0100
0010
0100
,
0010
0000
0001
0000
1000
0000
0100
0000
1000
0000
0010
0000
0100
0010
0100
0010
,
0100
0000
0001
0000
0010
0100
0010
0100
0010
0000
1000
0000
0000
0000
0100
0000
,
0010
0000
0100
0000
0010
0100
0000
0100
0010
0000
0000
0000
0100
0010
0100
0010
,
0100
0000
0001
0000
0001
0010
0100
1000
0100
0000
0010
0000
0000
0000
0100
0000
,
0010
0000
0100
0000
0010
0001
0000
0001
0010
0000
0000
0000
0100
0000
0010
0000
,
0100
0000
0000
0000
0100
0010
0000
0010
0001
0000
0000
0000
0001
0000
0010
0000
,
0100
0000
1000
0000
0100
1000
0000
0100
0010
0000
0000
0000
0010
0000
0100
0000
,
0010
0000
0000
0000
0100
1000
0100
1000
0100
0000
0000
0000
0010
0000
0100
0000
,
0010
0000
0001
0000
0100
0000
0010
0000
0100
0000
0000
0000
0100
0000
0000
0010
,
0100
0000
0000
0000
0100
0010
0100
0010
0100
0000
0000
0000
0010
0000
0100
0000
,
1000
0000
0100
0000
0010
0001
0000
0001
0010
0000
0000
0000
0010
0000
0100
0000
,
0010
0000
1000
0000
0001
0000
0100
0000
0010
0000
0000
0000
0010
0100
0000
0100
,
0010
0000
0001
0000
0010
0100
0010
0100
0010
0000
0000
0000
0100
1000
0000
1000
,
0100
0000
0100
0000
0010
1000
0000
0100
0010
0000
0000
0000
0100
0000
0010
0000
,
0100
0000
1000
0000
0100
1000
0000
1000
0100
0000
0000
0000
0100
0000
0010
0000
,
0100
0000
0000
0000
0010
0100
0010
0100
0010
0000
0000
0000
0001
0000
0010
0000
,
0100
1000
0100
0010
0110
0000
0200
0000
,
0000
0000
0300
0010
0000
0100
0020
0000
,
0030
0000
0000
0010
0100
0010
0001
0100
,
0010
0100
1000
0100
0010
0001
0010
0100
,
1000
0000
0100
0000
0000
0000
0100
0000
0000
0000
0100
1000
0100
0000
0000
0000
,
0010
0000
0100
0000
0010
0100
0000
0100
0010
0000
0000
0000
0010
0000
0100
0000
,
0010
0000
0001
0000
0010
0100
0000
1000
0100
0000
0000
0000
0100
0000
1000
0000
,
0100
0000
1000
0000
0100
1000
0000
1000
0100
0000
0000
0000
0100
0000
0010
0000
,
0001
0000
0100
0000
0001
0010
0100
1000
0100
0010
0001
0010
0200
0000
0000
0000
,
0000
0300
0010
0100
,
0010
0100
0000
0010
0100
0000
1000
0000
,
0100
0010
0001
0020
,
0030
0000
0200
0000
0300
1000
0200
0000
,
0000
0000
0000
0000
0300
0100
0010
0000
,
0200
0000
0000
0000
0300
0000
0000
0000
0000
0000
0100
0010
0001
0000
0001
0010
,
0200
0000
0000
0000
0300
0000
0000
0000
0000
0000
0100
1000
0100
0000
0010
0001
,
0020
0000
0000
0000
0030
0000
0110
0110
,
0110
0000
0110
0000
1001
0000
0000
0000
1000
0001
1000
0001
1000
0000
0000
0100
,
1000
0000
0000
0000
1000
0100
1000
0100
1000
0000
0000
0000
0100
0000
0010
0000
,
0001
0000
0100
0000
0010
0001
0000
0100
0010
0000
0000
0000
0100
0000
0010
0000
,
0001
0000
0100
0000
1000
0000
0100
0000
1000
0000
0000
0000
0100
0010
0000
0010
,
0100
0000
0010
0000
0100
0010
0000
1000
0100
0000
0000
0000
0010
0000
0100
0000
,
0010
0000
0000
0000
0100
0010
0100
0010
0100
0000
0000
0000
0010
0000
0001
0000
,
0010
0000
0100
0000
1000
0100
0000
0100
0010
0000
0000
0000
0100
0000
0010
0000
,
0001
0000
0000
0000
0100
0010
0100
0010
0100
0000
0000
0000
0010
0000
0001
0000
,
0010
0000
0100
0000
1000
0000
0100
0000
0010
0000
0000
0000
0001
0010
0001
0010
,
0001
0000
0010
0000
0100
0010
0100
0010
0100
0000
1000
0000
0000
0000
0010
0000
,
0100
0000
0010
0000
0100
0010
0000
0100
0010
0000
0000
0000
1000
0100
0010
0001
,
0010
0000
0100
0000
1000
0100
0010
0001
0010
0000
0100
0000
0000
0000
1000
0000
,
0100
0000
0010
0000
0001
0010
0000
0010
0001
0000
0000
0000
0010
0100
0000
0100
,
0010
0000
0000
0000
0001
0010
0000
0001
0010
0000
0000
0000
0100
1000
0100
1000
,
0100
0000
0010
0000
0100
0010
0000
0001
0010
0000
0000
0000
0100
0000
0010
0000
,
0100
0000
0000
0000
1000
0100
0010
0001
0100
0000
0000
0000
0010
0000
0100
0000
,
0010
0001
0100
0001
2002
0000
0000
0000
,
0000
0000
0000
3003
;

//--------------- dance-single - Wrland ----------------
#NOTES:
     dance-single:
     Wrland:
     Hard:
     10:
     0.608026,0.781895,0.352689,0.603756,0.505123,712,642,59,101,14,11,0.608026,0.781895,0.352689,0.603756,0.505123,712,642,59,101,14,11:
0000
0000
0000
0000
,
0000
0000
0000
0000
,
0000
0000
0000
0000
,
0000
0000
0000
0000
0000
0000
1001
0100
,
0010
0000
0100
0000
0010
0100
0010
0100
0010
0000
0010
0100
0010
0000
1000
0100
,
0010
0000
0001
0000
0010
1000
0100
0010
0001
0000
0010
0100
0010
0000
0010
0000
,
0100
0000
0001
0000
0100
0010
0100
0010
0100
0000
0001
1000
0110
0000
0010
0001
,
1001
0000
0110
0000
0110
1000
0110
0001
0110
0000
0010
0100
0020
0000
0030
0000
,
0010
0000
0100
0000
0100
0010
0100
0010
0100
0000
1000
0000
0002
0000
0003
0000
,
0100
0000
0010
0000
0100
0010
0100
0010
0100
0000
0100
0000
0002
0000
0003
0000
,
0100
0000
0010
0000
0010
0001
1000
0001
0010
0000
0100
0010
0001
0000
0100
0000
,
0010
0000
1000
0000
0010
1000
0010
1000
0020
0000
0030
0000
0200
0000
0300
0000
,
0001
0000
0100
0000
0010
0100
0010
0100
0010
0000
0001
0100
0010
0000
0100
0000
,
0001
0000
1000
0000
0010
0100
0010
0100
0010
0000
0001
1000
0001
0000
0100
0000
,
0010
0000
0001
0000
0100
0010
0100
0010
0100
0000
0010
0100
0010
0000
0001
0000
,
0100
0000
0010
0000
0100
0010
0100
0010
0001
0000
0100
0000
0220
0000
0000
0000
,
0330
0000
1000
0100
0010
0002
0000
0003
,
0000
0000
0100
0010
0100
0020
0000
0030
,
0000
0000
0100
0010
0001
0200
0300
0010
,
0100
0000
0010
0000
0100
0010
0100
0010
0100
0010
0101
0000
0020
0000
0000
0000
,
0030
0000
0010
0100
1000
0100
0020
0000
,
0030
0000
0100
0010
1000
0200
0000
0300
,
0000
0000
0100
0010
0001
0200
0300
0010
,
0100
0010
0100
0010
0100
0000
0010
0001
0100
1000
0100
0000
0010
0000
0100
0000
,
0020
0000
0030
0001
0020
0030
0100
1000
,
0200
0000
0300
0100
0010
0100
1000
0200
,
0300
0000
2000
0000
3000
0000
2000
0000
3000
0000
0100
0000
0020
0000
0030
0002
,
0000
0003
0100
0000
0020
0000
0030
0000
2000
0000
3000
0000
0100
0000
0010
0000
,
0200
0300
0000
0100
0020
0030
0001
0010
,
0200
0300
0000
1000
0100
0010
0002
0000
,
0003
0100
0020
0000
0030
0100
0110
0010
,
0100
0000
1001
0000
0010
0000
1001
0000
0100
0000
0110
0000
1001
0100
0010
0100
,
0010
0000
0100
0000
0010
0100
0010
0100
0001
0000
0010
0000
0100
0000
0010
0100
,
0010
0000
0001
0000
0010
0100
0000
0100
2000
0000
3000
0000
0100
0010
0100
0010
,
0100
0000
0010
0000
0100
0010
0100
0010
0100
0000
0100
0000
0010
0000
0010
0100
,
0010
0000
0001
0000
0010
0001
0000
0010
0002
0000
0003
0000
0100
0000
0001
0010
,
0200
0000
0300
0000
0100
0010
0000
0100
0010
0000
0000
0000
0001
0010
0100
1000
,
0100
0000
0010
0000
0001
0100
0010
0100
0010
0000
0000
0000
0010
0000
0100
0000
,
0002
0000
0003
0000
0001
1000
0001
1000
0002
0000
0003
0000
1001
0000
0110
0000
,
0011
0000
0101
0000
1010
0000
0110
0000
0022
0000
0033
0000
0100
0010
0000
0100
,
0020
0000
0030
0000
0001
0010
0100
1000
0200
0000
0300
0000
0010
0000
0100
0000
,
0010
0000
0001
0000
0100
0010
0000
0100
2000
0000
3000
0000
0100
0000
1000
0100
,
0010
0000
0010
0000
0001
0000
0100
0000
2000
0000
3000
0000
1000
0100
0000
0010
,
0100
0000
0010
0000
0100
0010
0100
0010
0200
0000
0300
0000
0010
0100
0000
0100
,
0020
0000
0030
0000
0010
0001
0000
0010
0001
0000
0000
0000
0001
0010
0100
1000
,
0100
0000
0001
0000
0010
0100
0000
1000
0200
0000
0300
0000
1000
0000
0100
0000
,
0220
0000
0330
0000
0001
1000
0001
1000
0002
0000
0003
0000
1M1M
0000
M1M1
0000
,
M11M
0000
MM11
0000
M11M
0000
1MM1
0000
M22M
0000
0330
0000
2002
0000
3003
1000
,
0001
0000
1000
0000
0001
1000
0001
1000
0002
0000
0003
0000
0200
0000
0300
0010
,
0100
0000
0010
0000
0100
0010
0100
0010
0200
0000
0300
0000
2000
0000
3000
0100
,
1000
0000
0100
0000
1000
0100
1000
0100
2000
0000
3000
0000
0200
0000
0300
0010
,
0100
0000
0010
0000
0100
0010
0100
0010
0100
0000
0001
0000
0010
0000
0000
0001
,
0010
0000
0001
0000
0010
0001
0010
0001
0010
0000
0100
0010
0100
0010
0001
0010
,
0001
0010
0100
1000
0100
0010
0100
0010
0001
0010
0100
0010
1001
0000
1001
0000
,
1001
0000
0100
0000
0010
0100
0010
0100
0010
0000
0001
0100
0001
0010
0100
1000
,
0100
0010
0001
0010
0100
1000
0100
0010
0001
0010
0100
1000
0200
0000
0000
0000
,
0010
0010
0010
0010
,
0310
0002
0203
2300
,
0000
0001
0001
0001
,
3002
0000
0203
0000
0000
0320
0230
0000
,
0320
0032
0203
2300
,
3002
2003
3002
0203
,
0320
0230
0320
0032
,
0023
0000
0230
0000
0302
0003
1001
1001
,
1001
0000
1001
0000
0220
0000
0330
0000
0100
0010
0100
1000
0111
0000
0000
0100
,
0020
0000
0030
0000
0100
0010
0100
0010
0200
0000
0300
0000
1011
0010
0100
0000
,
0010
0000
0001
0000
0100
0010
1000
0100
0020
0000
0030
0000
1101
0000
0100
0010
,
0001
0000
0010
0000
0100
0000
0100
0000
0200
0000
0300
0000
1011
0100
0000
0010
,
0100
0000
0000
0000
0000
0000
0100
0000
0000
0000
0000
0000
1000
0000
0000
0000
0100
0000
0000
0000
0010
0000
0000
0000
0002
0000
0000
0000
0000
0000
0003
0000
0000
0000
0000
0000
1101
0000
0000
0010
0000
0000
0100
0000
0000
0010
0000
0000
,
0200
0000
0300
0000
0100
0010
0001
0010
0200
0000
0300
0000
1011
0100
0010
0001
,
0010
0000
0100
0000
0010
0100
1000
0100
0020
0000
0030
0000
1101
0000
0100
0000
,
0220
0000
0330
0000
0010
0001
0001
0010
0022
0000
0033
0000
1110
0000
0010
0000
,
0111
0000
0100
0000
1011
0000
0010
0000
1101
0010
0001
0010
0100
0010
0100
0010
,
0100
0000
0010
0000
0100
0010
0100
0001
1000
0000
1000
0000
0011
0000
1000
0100
,
0010
0000
0001
0000
0010
0010
0000
0010
0020
0000
0030
0000
0100
0010
0100
0010
,
0100
0000
0010
0000
0001
0100
1000
0100
0010
0000
0100
0000
1001
0000
0100
1000
,
0100
0000
0010
0000
0001
0010
0000
0001
0020
0000
0030
0000
0100
0010
0000
0010
,
0100
0000
0001
0000
0010
0100
0000
0000
1000
0000
0000
0000
0100
0010
1000
0100
,
0010
0000
0010
0000
0010
0001
1000
0010
0001
0000
0000
0000
0001
0000
0010
0000
,
0202
0000
0303
0000
1000
0010
1000
0010
2002
0000
3003
0000
1001
0000
1000
0000
,
1001
0010
0011
0010
0220
0000
0000
0000
,
0000
0000
0000
0330
;

//--------------- dance-single - Wrland - Single Mix ----------------
#NOTES:
     dance-single:
     Wrland - Single Mix:
     Edit:
     10:
     0.602902,0.781895,0.346712,0.609734,0.496156,706,637,58,102,14,11,0.602902,0.781895,0.346712,0.609734,0.496156,706,637,58,102,14,11:
0000
0000
0000
0000
,
0000
0000
0000
0000
,
0000
0000
0000
0000
,
0000
0000
0000
0100
,
0010
0000
0001
0000
0100
1000
0100
0001
0010
0000
0100
0000
1000
0000
0000
0000
,
0100
0010
0001
0010
0100
1000
0100
0100
,
0010
0000
0100
0000
0010
0001
0010
0001
0010
0000
0100
0010
1001
0000
0010
0100
,
0110
0000
0010
0100
1001
0100
1001
0010
1001
0100
0010
0001
0220
0000
0330
0000
,
0010
0000
0100
0000
0100
0010
0100
0010
0100
0000
1000
0000
0002
0000
0003
0000
,
0100
0000
0010
0000
0100
0010
0100
0010
0100
0000
0100
0000
0002
0000
0003
0000
,
0100
0000
0010
0000
0010
0001
1000
0001
0010
0000
0100
0010
0001
0000
0100
0000
,
0010
0000
1000
0000
0010
1000
0010
1000
0020
0000
0030
0000
0200
0000
0300
0000
,
0001
0000
0100
0000
0010
0100
0010
0100
0010
0000
0001
0100
0010
0000
0100
0000
,
0001
0000
1000
0000
0010
0100
0010
0100
0010
0000
0001
1000
0001
0000
0100
0000
,
0010
0000
0001
0000
0100
0010
0100
0010
0100
0000
0010
0100
0010
0000
0001
0000
,
0100
0000
0010
0000
0100
0010
0100
0010
0001
0000
0100
0000
0220
0000
0000
0000
,
0330
0000
1000
0100
0010
0002
0000
0003
,
0000
0000
0100
0010
0100
0020
0000
0030
,
0000
0000
0100
0010
0001
0200
0300
0010
,
0100
0000
0010
0000
0100
0010
0100
0010
0100
0010
0101
0000
0020
0000
0000
0000
,
0030
0000
0010
0100
1000
0100
0020
0000
,
0030
0000
0100
0010
1000
0200
0000
0300
,
0000
0000
0100
0010
0001
0200
0300
0010
,
0100
0010
0100
0010
0100
0000
0010
0001
0100
1000
0100
0000
0010
0000
0100
0000
,
0020
0000
0030
0001
0020
0030
0100
1000
,
0200
0000
0300
0100
0010
0100
1000
0200
,
0300
0000
2000
0000
3000
0000
2000
0000
3000
0000
0100
0000
0020
0000
0030
0002
,
0000
0003
0100
0000
0020
0000
0030
0000
2000
0000
3000
0000
0100
0000
0010
0000
,
0200
0300
0000
0100
0020
0030
0001
0010
,
0200
0300
0000
1000
0100
0010
0002
0000
,
0003
0100
0020
0000
0030
0100
0110
0010
,
0100
0000
1001
0000
0010
0000
1001
0000
0100
0000
0110
0000
1001
0100
0010
0100
,
0010
0000
0100
0000
0010
0100
0010
0100
0001
0000
0010
0000
0100
0000
0010
0100
,
0010
0000
0001
0000
0010
0100
0000
0100
2000
0000
3000
0000
0100
0010
0100
0010
,
0100
0000
0010
0000
0100
0010
0100
0010
0100
0000
0100
0000
0010
0000
0010
0100
,
0010
0000
0001
0000
0010
0001
0000
0010
0002
0000
0003
0000
0100
0000
0001
0010
,
0200
0000
0300
0000
0100
0010
0000
0100
0010
0000
0000
0000
0001
0010
0100
1000
,
0100
0000
0010
0000
0001
0100
0010
0100
0010
0000
0000
0000
0010
0000
0100
0000
,
0002
0000
0003
0000
0001
1000
0001
1000
0002
0000
0003
0000
1001
0000
0110
0000
,
0011
0000
0101
0000
1010
0000
0110
0000
0022
0000
0033
0000
0100
0010
0000
0100
,
0020
0000
0030
0000
0001
0010
0100
1000
0200
0000
0300
0000
0010
0000
0100
0000
,
0010
0000
0001
0000
0100
0010
0000
0100
2000
0000
3000
0000
0100
0000
1000
0100
,
0010
0000
0010
0000
0001
0000
0100
0000
2000
0000
3000
0000
1000
0100
0000
0010
,
0100
0000
0010
0000
0100
0010
0100
0010
0200
0000
0300
0000
0010
0100
0000
0100
,
0020
0000
0030
0000
0010
0001
0000
0010
0001
0000
0000
0000
0001
0010
0100
1000
,
0100
0000
0001
0000
0010
0100
0000
1000
0200
0000
0300
0000
1000
0000
0100
0000
,
0220
0000
0330
0000
0001
1000
0001
1000
0002
0000
0003
0000
1M1M
0000
M1M1
0000
,
M11M
0000
MM11
0000
M11M
0000
1MM1
0000
M22M
0000
0330
0000
2002
0000
3003
1000
,
0001
0000
1000
0000
0001
1000
0001
1000
0002
0000
0003
0000
0200
0000
0300
0010
,
0100
0000
0010
0000
0100
0010
0100
0010
0200
0000
0300
0000
2000
0000
3000
0100
,
1000
0000
0100
0000
1000
0100
1000
0100
2000
0000
3000
0000
0200
0000
0300
0010
,
0100
0000
0010
0000
0100
0010
0100
0010
0100
0000
0001
0000
0010
0000
0000
0001
,
0010
0000
0001
0000
0010
0001
0010
0001
0010
0000
0100
0010
0100
0010
0001
0010
,
0001
0010
0100
1000
0100
0010
0100
0010
0001
0010
0100
0010
1001
0000
1001
0000
,
1001
0000
0100
0000
0010
0100
0010
0100
0010
0000
0001
0100
0001
0010
0100
1000
,
0100
0010
0001
0010
0100
1000
0100
0010
0001
0010
0100
1000
0200
0000
0000
0000
,
0010
0010
0010
0010
,
0310
0002
0203
2300
,
0000
0001
0001
0001
,
3002
0000
0203
0000
0000
0320
0230
0000
,
0320
0032
0203
2300
,
3002
2003
3002
0203
,
0320
0230
0320
0032
,
0023
0000
0230
0000
0302
0003
1001
1001
,
1001
0000
1001
0000
0220
0000
0330
0000
0100
0010
0100
1000
0111
0000
0000
0100
,
0020
0000
0030
0000
0100
0010
0100
0010
0200
0000
0300
0000
1011
0010
0100
0000
,
0010
0000
0001
0000
0100
0010
1000
0100
0020
0000
0030
0000
1101
0000
0100
0010
,
0001
0000
0010
0000
0100
0000
0100
0000
0200
0000
0300
0000
1011
0100
0000
0010
,
0100
0000
0000
0000
0000
0000
0100
0000
0000
0000
0000
0000
1000
0000
0000
0000
0100
0000
0000
0000
0010
0000
0000
0000
0002
0000
0000
0000
0000
0000
0003
0000
0000
0000
0000
0000
1101
0000
0000
0010
0000
0000
0100
0000
0000
0010
0000
0000
,
0200
0000
0300
0000
0100
0010
0001
0010
0200
0000
0300
0000
1011
0100
0010
0001
,
0010
0000
0100
0000
0010
0100
1000
0100
0020
0000
0030
0000
1101
0000
0100
0000
,
0220
0000
0330
0000
0010
0001
0001
0010
0022
0000
0033
0000
1110
0000
0010
0000
,
0111
0000
0100
0000
1011
0000
0010
0000
1101
0010
0001
0010
0100
0010
0100
0010
,
0100
0000
0010
0000
0100
0010
0100
0001
1000
0000
1000
0000
0011
0000
1000
0100
,
0010
0000
0001
0000
0010
0010
0000
0010
0020
0000
0030
0000
0100
0010
0100
0010
,
0100
0000
0010
0000
0001
0100
1000
0100
0010
0000
0100
0000
1001
0000
0100
1000
,
0100
0000
0010
0000
0001
0010
0000
0001
0020
0000
0030
0000
0100
0010
0000
0010
,
0100
0000
0001
0000
0010
0100
0000
0000
1000
0000
0000
0000
0100
0010
1000
0100
,
0010
0000
0010
0000
0010
0001
1000
0010
0001
0000
0000
0000
0001
0000
0010
0000
,
0202
0000
0303
0000
1000
0010
1000
0010
2002
0000
3003
0000
1001
0000
1000
0000
,
1001
0010
0011
0010
0220
0000
0000
0000
,
0000
0000
0000
0330
;
