#TITLE:Off The Record;
#SUBTITLE:;
#ARTIST:아이브;
#TITLETRANSLIT:;
#SUBTITLETRANSLIT:;
#ARTISTTRANSLIT:IVE;
#GENRE:K-Pop;
#CREDIT:Wrland;
#MUSIC:Off The Record.ogg;
#BANNER:Off The Record.png;
#BACKGROUND:Off The Record-bg.png;
#CDTITLE:Wrland Season 3 CITYGHT.png;
#SAMPLESTART:35.556;
#SAMPLELENGTH:12.000;
#SELECTABLE:YES;
#OFFSET:-0.000;
#BPMS:0.000=54.000
,8.000=108.000
,54.000=54.000
,55.000=108.000
,119.000=54.000
,135.000=108.000
,183.000=54.000
;
#STOPS:;
#DISPLAYBPM:54.000:108.000;
#JACKET:Off The Record-jacket.png;
#CDIMAGE:Off The Record-cd.png;
#METERTYPE:DDR X;
#BGCHANGES:0.000=Off The Record.avi=1.000=0=0=1,
99999.000=-nosongbg-=1.000=0=0=0=StretchNoLoop====
;
#FGCHANGES:;

//--------------- dance-single - Wrland ----------------
#NOTES:
     dance-single:
     Wrland:
     Beginner:
     1:
     0,0,0,0,0:
0000
0000
0000
0000
,
0000
0000
0000
0000
,
0010
0000
0000
0000
,
0000
0000
0000
0000
,
0100
0000
0000
0000
,
0000
0000
0000
0000
,
0010
0000
0000
0000
,
0000
0000
0000
0000
,
0001
0000
0000
0000
,
0000
0000
0000
0000
,
1000
0000
0000
0000
,
0000
0000
0000
0000
,
0001
0000
0000
0000
,
0000
0000
0000
0100
,
0000
0000
0000
0000
,
0000
0000
0000
0010
,
0000
0000
0000
0000
,
0000
0000
0000
0001
,
0000
0000
0000
0000
,
0000
0000
0000
1000
,
0000
0000
0000
0000
,
0000
0000
0000
0100
,
0000
0000
0000
0000
,
0000
0000
0000
0010
,
0000
0000
0000
0000
,
0000
0000
0000
0001
,
0000
0000
0000
0000
,
0000
0000
0000
1000
,
0000
0000
0000
0000
,
0000
0000
0000
0200
,
0300
0000
0000
0020
,
0030
0000
0000
0200
,
0300
0000
0000
0002
,
0003
0000
0000
1000
,
0000
0000
0000
0000
,
0000
0000
0000
0001
,
0000
0000
0000
0000
,
0000
0000
0000
0010
,
0000
0000
0000
0000
,
0000
0000
0000
0100
,
0000
0000
0000
0000
,
0000
0000
0000
0001
,
0000
0000
0000
0000
,
0000
0000
0000
1000
,
0000
0000
0000
0000
,
0000
0000
0000
0010
,
0000
0000
0000
0100
,
0000
0000
0100
0000
;

//--------------- dance-single - Wrland ----------------
#NOTES:
     dance-single:
     Wrland:
     Easy:
     3:
     0,0,0,0,0:
0000
0000
0000
0000
,
0000
0000
0000
0000
,
0100
0000
0000
0000
,
0010
0000
0000
0000
,
0010
0000
0000
0000
,
1000
0000
0000
0000
,
1000
0000
0000
0000
,
1000
0000
0000
0000
,
1000
0000
0000
0000
,
0100
0000
0000
0000
,
0001
1000
0001
0000
,
1000
0001
1000
0000
,
0100
0000
0000
0000
,
0010
0000
0000
0100
,
0000
0100
0000
0010
,
0000
0001
0010
0100
,
0000
0100
0000
1000
,
0000
1000
0100
0010
,
0000
0010
0000
0010
,
0000
0010
0100
1000
,
0000
1000
0000
1000
,
0000
0100
0010
0001
,
0000
0000
0000
0001
,
0000
0000
0000
1000
,
0000
0000
0000
0100
,
0000
0000
0000
0100
,
0000
0000
0000
1000
,
0000
0000
0000
0100
,
0000
0000
0000
0010
,
0000
0000
0000
0002
,
0003
0002
0003
2000
,
3000
2000
3000
0200
,
0300
0200
0300
0020
,
0030
0002
0003
0001
,
0000
0001
0000
0001
,
1000
0001
0100
0010
,
0000
0100
0000
0100
,
0000
0100
0010
0001
,
0000
0001
0000
0001
,
0000
0001
0010
0100
,
0000
1000
0000
1000
,
0000
1000
0100
0010
,
0000
0001
0000
0001
,
0000
0001
0010
0001
,
0000
0001
0000
0010
,
0000
0100
0010
0100
,
0100
0000
1000
0000
1000
0100
1000
0000
,
0100
0010
0100
0000
;

//--------------- dance-single - Wrland ----------------
#NOTES:
     dance-single:
     Wrland:
     Medium:
     5:
     0,0,0,0,0:
0000
0000
0000
0000
,
0000
0000
0000
0000
0000
0000
0000
0000
0000
0000
0000
0000
0000
0000
0000
0000
0000
0000
0000
0000
0000
0000
0000
0000
0000
0000
0001
0000
1000
0000
1000
0001
,
0000
0000
0200
0000
0300
0000
0000
0000
0000
0000
0100
0000
0010
0000
0100
0020
,
0000
0030
0000
0000
0000
0000
0000
0000
0000
0000
0100
0000
0010
0000
0100
0020
,
0000
0030
0001
0000
0100
0000
0010
0200
0000
0300
0100
0000
1000
0001
0000
2000
,
0000
3000
0000
0000
0000
0000
0000
0000
0100
0000
0010
0000
0100
0000
0010
0200
,
0300
0002
0000
0003
0000
0000
0000
0000
0100
0000
0010
0000
0100
0000
0001
0200
,
0000
0300
0000
0000
0000
0000
0000
0000
0010
0000
0100
0000
0010
0000
0010
0200
,
0000
0300
1000
0000
0100
0000
1000
0200
0000
0300
1000
0000
0100
0001
0000
0200
,
0000
0300
0010
0000
0100
0000
0010
0200
0000
0300
0000
0000
0010
0000
0001
0000
,
0100
0010
0100
0010
0100
0020
0030
0000
,
0001
1000
0001
1000
0002
0003
0000
0000
,
0100
0010
0100
1000
0100
0020
0030
0100
,
0010
0000
0100
0000
0010
0000
0001
0000
0200
0300
0020
0030
0220
0000
0330
0000
,
0000
0000
0000
0000
0100
0000
0010
0000
0001
0000
0100
0020
0000
0030
0000
0000
,
0000
0100
0010
0100
1000
0100
1000
0200
,
0300
0000
0000
0000
0100
0000
1000
0000
0100
0000
0010
0002
0000
0003
0000
0000
,
0000
0000
0002
0003
0020
0030
0200
0300
,
0000
0000
0000
0000
1000
0000
0100
0000
0010
0000
0001
0200
0000
0300
0000
0000
,
0000
0010
0100
0010
0001
0100
0010
0200
,
0300
0000
0000
0000
0100
0000
0010
0000
0100
0000
0010
0200
0000
0300
0000
0000
,
0000
0000
0000
0000
0000
0000
0100
0010
0100
0000
0010
0000
0001
0000
1000
0001
,
1000
0000
0001
1000
0001
0000
0001
1000
0000
0000
0200
0000
0300
0000
0010
0000
,
0200
0000
0300
0000
0010
0000
0001
0200
0000
0300
0020
0000
0030
0000
0100
0010
,
1000
0100
0010
0001
0010
0000
1010
0000
0100
0000
0101
0000
0010
0000
0110
0000
,
0100
0110
2002
3003
1001
0110
0011
0110
,
1100
0000
0110
0000
0011
0000
0110
0000
1001
0010
0100
0010
0001
0000
1000
0000
,
0001
1000
0001
0000
0110
0000
0011
0000
2200
0000
3300
0000
0100
0010
0001
0010
,
0100
0010
0001
0100
1000
0000
0100
0000
0010
0000
0001
1000
0000
0001
0100
0000
,
0020
0000
0030
0020
0000
0030
0100
0000
0020
0000
0030
0000
0002
0003
0020
0030
,
0000
0000
0200
0300
0010
0001
0100
0010
0001
0100
0010
0100
0020
0030
0100
0010
0100
0010
0200
0000
0300
0020
0000
0030
,
0000
0000
0000
0000
0000
0000
0000
0000
0001
0000
0000
0000
0100
0000
0000
0000
0010
0000
0000
0000
0100
0000
0000
0000
1000
0000
0000
0000
0100
0000
0000
0000
0010
0000
0000
0000
0001
0000
0000
0000
0010
0000
0000
0000
0100
0000
0000
0000
2000
0000
0000
0000
3000
0000
0002
0000
0000
0003
0000
0000
2000
0000
0000
3000
0000
0000
0002
0000
0000
0003
0000
0000
2000
0000
0000
3000
0000
0000
0000
0000
0000
0000
0000
0000
2000
0000
0000
3000
0000
0000
0200
0000
0000
0300
0000
0000
,
0000
0000
0000
0000
0000
0000
0020
0000
0000
0030
0000
0000
0100
0000
0000
0010
0000
0000
0001
0000
0000
0000
0000
0000
0200
0000
0000
0300
0000
0000
0000
0000
0000
0000
0000
0000
0200
0000
0000
0300
0000
0000
2000
0000
0000
3000
0000
0000
0000
0000
0000
0000
0000
0000
0200
0000
0000
0300
0000
0000
0010
0000
0000
0000
0001
0000
0000
0000
0100
0000
0000
0000
0020
0000
0000
0030
0000
0000
0000
0000
0000
0000
0000
0000
0002
0000
0000
0003
0000
0000
0020
0000
0000
0030
0000
0000
,
0000
0000
0200
0300
0000
0000
0020
0030
0001
0000
0010
0001
0200
0300
0000
0000
0220
0000
0000
0000
0000
0000
0330
0000
0220
0000
0330
0000
0010
0000
0000
0000
,
0200
0300
0000
0000
0010
0000
0010
0000
0100
0000
0010
0200
0000
0300
0000
0000
,
0010
0100
0010
0001
0100
0010
1000
0200
,
0300
0000
0000
0000
0100
0000
1000
0000
0100
0000
0001
0200
0000
0300
0000
0000
,
0000
0000
0200
0300
0020
0030
0200
0300
,
0000
0000
0000
0000
1000
0000
0100
0000
1000
0000
0100
0020
0000
0030
0000
0000
,
0000
0001
1000
0100
0010
0100
0010
0200
,
0300
0000
0000
0000
0010
0000
0001
0000
0100
0000
0010
0200
0000
0300
0000
0000
,
0010
0000
0000
0200
0000
0000
0000
0000
0000
0300
0000
0000
0001
0000
0000
0200
0000
0000
0000
0000
0000
0300
0000
0000
1000
0000
0000
0000
0000
0000
0100
0000
0000
1000
0000
0000
0001
0000
0000
0000
0010
0000
0000
0000
0100
0000
0000
0000
,
0010
0000
0001
0000
0010
0000
0100
0000
0010
0000
1000
0000
0200
0000
0000
0000
0000
0000
0001
0000
0000
0010
0000
0000
,
0301
0000
0000
0010
0100
0001
0100
0010
0100
0010
0010
0100
,
1000
0000
0100
0000
0010
0000
0001
0000
0010
0000
0100
0000
0010
0000
0000
0001
0000
0000
0100
0000
0000
0010
0000
0000
,
0100
1000
0200
0300
0020
0030
0002
0000
,
1003
0000
0001
0000
1000
0000
0001
2000
0000
3000
0000
0000
0000
0000
0100
0000
0010
0000
0100
0000
0010
0000
0100
0000
0010
0000
0002
0000
0003
0000
0000
0000
,
0001
0000
0100
0000
0010
0000
0100
2000
0000
3000
0000
0000
0000
0000
0000
0000
0110
0000
0000
0000
0000
0000
0000
0000
0000
0000
0000
0000
0000
0000
0000
0000
;

//--------------- dance-single - Wrland ----------------
#NOTES:
     dance-single:
     Wrland:
     Hard:
     9:
     0,0,0,0,0:
0000
0000
0000
0000
,
0000
0000
0000
0000
0000
0000
0000
0000
0000
0000
0000
0000
0000
0000
0000
0000
0000
0000
0000
0000
0000
0000
0000
0000
0000
0000
0001
0000
1000
0000
0001
2000
,
0000
3000
0020
0030
0100
0020
0000
0030
0001
0000
0100
0000
0010
0000
0001
0020
,
0000
0030
0100
0000
0010
0200
0000
0300
0010
0000
0001
0000
0010
0000
0100
0020
,
0000
0030
0100
0000
1000
0001
0000
0200
0000
0300
0010
0000
0100
0020
0000
0030
,
0001
0000
0010
0000
0100
0020
0000
0030
0100
0000
0010
0000
0001
0000
0010
0200
,
0300
0002
0000
0003
0100
0020
0000
0030
0100
0000
0010
0000
0001
0000
0100
0020
,
0000
0030
0001
0000
0100
0020
0000
0030
0100
0000
0010
0000
0100
0000
0010
0200
,
0000
0300
1000
0000
0100
0000
0100
2000
0000
3000
0100
0000
0010
0000
0001
0200
,
0000
0300
0010
0000
0001
0000
0010
0002
0000
0003
0000
0010
1001
0000
0000
0000
,
0100
0000
0010
0100
0010
0000
0001
0100
0010
0000
0200
0000
0300
0000
0000
0000
,
1000
0000
0100
0010
1000
0000
1000
0001
0200
0000
0300
0000
0010
0001
0100
0010
,
0100
0000
0010
0100
0010
0000
0001
0100
0010
0000
2000
0000
3000
0000
0100
0000
,
0010
0000
0100
0000
0010
0000
0001
0000
0200
0300
2002
3003
0220
0000
0330
0000
,
0100
0000
0010
0000
0001
0000
0100
0000
0010
0000
0100
0020
0000
0030
0000
0000
,
0100
0010
0100
1000
0100
1000
0100
2000
,
3000
0000
0000
0000
0100
0000
0010
0000
0100
0000
0010
0200
0000
0300
0001
0000
,
0010
0001
0000
0000
0202
0000
0303
0000
2200
0000
3300
0000
0220
0000
0330
0000
,
0100
0001
0000
0000
0010
0000
0100
0000
0010
0000
0100
0020
0000
0030
0001
0000
,
0010
0001
1000
0000
0100
0000
0010
0000
0100
0000
0010
0000
0001
0000
0200
0000
,
0300
0000
0000
0000
0010
0000
0100
0000
0010
0000
0001
0200
0000
0300
0000
0000
,
0001
0100
0000
0000
0010
0000
0100
0001
0100
0010
0100
0010
1000
0000
0100
0010
,
0100
0000
0010
0000
0001
0000
0010
0200
0000
0300
0020
0030
1000
0000
0001
0100
,
0020
0000
0030
0000
0001
0000
1000
0001
0000
2000
0000
3000
0100
0000
0010
0100
,
0010
0001
0010
0100
0011
0010
0110
0100
1001
0010
1100
0100
0011
0100
0011
1000
,
0110
0001
0110
0010
2002
0000
0000
3003
0101
0000
1010
0000
0101
0000
0011
0000
,
0110
0000
1100
0000
0110
0000
0011
0000
0101
0001
0010
0100
0010
0000
0100
0000
,
1000
0100
0010
0000
0001
0000
0100
0000
0220
0000
0330
0000
0010
0100
0010
0100
,
0010
0001
0010
0001
0010
0000
0100
0000
1000
0000
0100
0020
0030
0100
0002
0003
,
0020
0000
0030
0002
0000
0003
0200
0300
0010
0100
0010
0000
0202
0303
2020
3030
,
0000
0000
0000
0000
0002
0000
0003
0000
0100
0000
0010
0000
0001
0000
0100
0000
0010
0000
1000
0000
0100
0000
0010
0000
2002
0000
3003
0000
0010
0000
0100
0000
0010
0000
0100
0000
0022
0000
0000
0033
0000
0000
2002
0000
0000
3003
0000
0000
,
0000
0000
0000
0000
0000
0000
0000
0000
0100
0000
0000
0000
1000
0000
0000
0000
0100
0000
0000
0000
0010
0000
0000
0000
0100
0000
0000
0000
0010
0000
0000
0000
0100
0000
0000
0000
0010
0000
0000
0000
0001
0000
0000
0000
0100
0000
0000
0000
0220
0000
0000
0000
0330
0000
0000
0000
0000
0000
0000
0000
2000
0000
0000
3000
0000
0000
0002
0000
0000
0103
0000
0000
0022
0000
0000
0000
0000
0000
0033
0000
0000
0000
0000
0000
2200
0000
0000
3300
0000
0000
0022
0000
0000
0000
0000
0000
,
0033
0000
0000
0000
0000
0000
0202
0000
0000
0303
0000
0000
2000
0000
0000
3000
0200
0000
0300
0000
0020
0000
0030
0000
0022
0000
0000
0000
0000
0000
0033
0000
0000
0000
0000
0000
0202
0000
0000
0303
0000
0000
2020
0000
0000
0000
0000
0000
3030
0000
0000
0000
0000
0000
0220
0000
0000
0330
0000
0000
0002
0000
0003
0000
2000
0000
3000
0000
0002
0000
0003
0000
2200
0000
0000
0000
0000
0000
3300
0000
0000
0000
0000
0000
0200
0000
0000
0300
0000
0000
0020
0000
0000
0000
0000
0000
,
0030
0000
0002
0000
0003
0000
0200
0300
1000
0000
0001
1000
0002
0000
0003
0000
0220
0000
0000
0000
0000
0000
0000
0330
1001
0000
0000
0000
0010
0000
0001
0000
,
0200
0000
0300
0000
0001
0000
0100
0000
0010
0000
0100
0020
0000
0030
0100
0010
,
0100
0000
0010
0000
0001
0000
0100
0010
0001
0000
0010
0000
0100
0000
2000
0000
,
3000
0000
0000
0000
0100
0000
1000
0000
0100
0000
0010
1000
0002
0003
0100
0001
,
0020
0030
0100
0000
0020
0000
0030
0000
0002
0000
0003
0000
2000
3000
0100
0000
,
0010
0000
0100
0000
0010
0000
0001
0000
0100
0000
0010
0100
0020
0030
0010
0100
,
0020
0030
0001
1000
0001
0000
1000
0001
1000
0000
0100
0010
0202
0303
2020
0000
,
3030
0000
0000
0000
0100
0000
0010
0000
0100
0000
0010
0100
0020
0000
0030
0000
,
0010
0000
0000
0002
0000
0000
0000
0000
0000
0003
0000
0000
0100
0000
0000
0020
0000
0000
0000
0000
0000
0030
0000
0000
0010
0000
0000
0000
0000
0000
0001
0000
0000
0100
0000
0000
0010
0000
0000
0000
0001
0000
0000
0000
0010
0000
0000
0000
,
0100
1000
0100
0010
0001
0010
0200
0000
0000
0320
0000
0000
,
0032
0000
0000
0013
0100
0010
0001
0100
0010
2000
0010
0100
,
3002
0000
0010
0000
0100
0000
0013
0000
0100
0000
0010
0000
0002
0000
0000
0203
0000
0000
0320
0000
0000
0230
0000
0000
,
2300
3200
0320
0032
0203
0310
2002
3003
,
0100
0000
1000
0000
0100
0000
1000
0200
0000
0300
0000
0000
0000
0000
0001
0000
0010
0000
0001
0000
0010
0000
0100
0000
0010
0000
0200
0000
0300
0000
0000
0000
,
0010
0000
0001
0000
0010
0000
0100
2000
0000
3000
0000
0000
0000
0000
0000
0000
0101
0000
0000
0000
0000
0000
0000
0000
0000
0000
0000
0000
0000
0000
0000
0000
;
