#TITLE:アウト;
#SUBTITLE:;
#ARTIST:ポルカドットスティングレイ;
#TITLETRANSLIT:OUT;
#SUBTITLETRANSLIT:;
#ARTISTTRANSLIT:POLKADOT STINGRAY;
#GENRE:J-Pop;
#CREDIT:Wrland;
#MUSIC:OUT.ogg;
#BANNER:OUT.png;
#BACKGROUND:BG.png;
#CDTITLE:Wrland Season 3 CITYGHT + last one night.png;
#SAMPLESTART:37.282;
#SAMPLELENGTH:12.000;
#SELECTABLE:YES;
#OFFSET:-0.021;
#BPMS:0.000=95.006
,5.000=190.011
,93.000=95.006
,97.000=190.011
,105.000=47.503
,106.000=190.011
,266.000=95.006
,270.000=190.011
,278.000=47.503
,279.000=190.011
;
#STOPS:;
#DISPLAYBPM:190.000;
#LYRICSPATH:OUT.lrc;
#JACKET:OUT-jacket.png;
#CDIMAGE:OUT-cd.png;
#METERTYPE:DDR X;
#BGCHANGES:0.000=OUT.avi=1.000=0=0=0=StretchNoLoop====,
99999.000=-nosongbg-=1.000=0=0=0=StretchNoLoop====
;
#FGCHANGES:;

//--------------- dance-single - Wrland ----------------
#NOTES:
     dance-single:
     Wrland:
     Beginner:
     2:
     0,0,0,0,0:
0000
0000
0000
0000
,
0000
0000
0000
0000
,
0000
0000
0000
0000
,
0000
1000
0000
0000
,
0000
1000
0000
0000
,
0000
0100
0000
0000
,
0000
0010
0000
0000
,
0000
0100
0000
0000
,
0000
0100
0000
0000
,
0000
1000
0000
0000
,
0000
0100
0000
0000
,
0000
0010
0000
0000
,
0000
0001
0000
0000
,
0000
0010
0000
0000
,
0000
0110
0000
0000
,
0000
1000
0000
0000
,
0000
1000
0000
0000
,
0000
0100
0000
0000
,
0000
0010
0000
0000
,
0000
0001
0000
0000
,
0000
0010
0000
0000
,
0000
0100
0000
0000
,
0000
1000
0000
0000
,
0000
0100
0000
0000
,
0000
0010
0000
0000
,
0000
0000
0000
0000
0000
0220
0000
0000
,
0000
0330
0100
0000
,
0000
0000
0010
0000
,
0000
0000
0100
0000
,
0000
0000
0010
0000
,
0000
0000
0001
0000
,
0000
0000
0010
0000
,
0000
0000
1000
0000
,
1000
0000
1001
0000
,
0000
0000
0100
0000
,
0000
0000
0010
0000
,
0000
0000
0001
0000
,
0000
0000
0010
0000
,
0000
0000
0100
0000
,
0000
0000
0100
0000
,
0000
0000
0010
0000
,
0010
0000
0011
0000
,
0000
0000
0100
0000
,
0000
0000
1000
0000
,
0000
0000
0100
0000
,
0000
0000
0010
0000
,
0000
0000
0000
0000
,
0000
0000
0000
0000
,
0000
0000
0000
1000
0000
0000
0000
0000
,
0001
0000
1000
0000
,
1001
0000
0100
0000
,
0000
0000
0100
0000
,
0000
0000
0010
0000
,
0000
0000
0001
0000
,
0000
0000
1000
0000
,
0000
0000
0100
0000
,
0000
0000
0010
0000
,
0000
0000
0100
0000
,
0000
0000
0010
0000
,
0000
0000
0001
0000
,
0000
0000
0010
0000
,
0000
0000
0100
0000
,
0000
0000
1000
0000
,
0000
0000
0100
0000
,
0000
0000
0010
0000
,
0000
0000
0001
0000
,
0000
0000
1000
0000
,
0001
0000
0100
0000
,
0010
0000
0000
0000
0100
0000
0000
0220
,
0000
0000
0330
0100
,
0000
0000
0000
0100
,
0000
0000
0000
0001
,
0000
0000
0000
0010
,
0000
0000
0000
0100
,
0000
0000
0000
0100
,
0000
0000
0000
0100
,
0000
0100
0000
0110
,
0000
0000
0000
0001
,
0000
0000
0000
0010
,
0000
0000
0000
0100
,
0000
0000
0000
1000
,
0000
0000
0000
0100
,
0000
0000
0000
0010
,
0000
0000
0000
0001
,
0000
1000
0000
1001
,
0000
0000
0000
0100
,
0000
0000
0000
0010
,
0000
0000
0000
0100
,
0000
0000
0000
0010
,
0000
0000
0000
0001
,
0000
0000
0000
1000
,
0000
0000
0000
0100
,
0000
0000
0000
0010
,
0000
0110
0000
1000
,
0000
0000
0000
0001
,
0000
0000
0000
1000
,
0000
0000
0000
0100
,
0000
0000
0000
0010
,
0000
0000
0000
0000
,
0000
0000
0000
0000
0000
0100
0000
0000
,
0000
0010
0000
0100
,
0000
0110
0000
0000
;

//--------------- dance-single - Wrland ----------------
#NOTES:
     dance-single:
     Wrland:
     Easy:
     4:
     0,0,0,0,0:
0000
0000
0000
0000
,
0000
0000
0000
0000
,
0000
0000
0000
0000
,
0000
1000
0000
1000
,
0000
0100
0000
0010
,
0100
0010
0000
0001
,
0000
0000
0010
0000
0000
0100
0000
0010
,
0000
0100
0000
0010
,
0000
0001
0000
1000
,
0000
0100
0000
1000
,
0000
0100
0000
0000
,
0000
0010
0000
0100
,
0000
0010
0000
0001
,
0000
0100
0000
0100
,
0000
0110
0000
0010
,
0000
0001
0000
1000
,
0000
0100
0000
1000
,
0000
0100
0000
0010
,
0000
0100
0000
0010
,
0000
0001
0000
1000
,
0000
0100
0000
1000
,
0000
0100
0000
0010
,
0000
0001
0000
0100
,
0000
0010
0000
0100
,
0000
0100
0000
0010
,
0000
0000
0100
0000
0000
0220
0000
0000
,
0000
0330
0100
0000
,
1000
0000
0100
0000
,
0010
0000
0100
0010
,
0100
0000
0001
0100
,
0001
0000
0010
1000
,
0100
0000
1000
0100
,
0010
0000
0100
0100
,
0010
0000
0010
0000
0001
0000
0100
0001
,
0000
0101
0000
0000
0001
0000
0000
0000
,
0100
0000
1000
0000
,
0100
0000
1000
0100
,
1000
0000
0100
0010
,
0100
0000
0001
0100
,
0001
0000
0010
0100
,
0010
0000
1000
0001
,
1000
0000
0001
0000
1000
0000
0000
1001
,
0000
0110
0000
0000
0010
0000
0000
0000
,
0100
0000
1000
0000
,
0100
0000
0010
0000
,
0001
0000
0000
0000
0100
0000
0000
1001
,
0000
0110
0000
0000
0020
0000
0000
0000
,
0000
0000
0000
0000
,
0030
0000
0000
0100
0000
0001
0010
0100
,
0010
0000
0100
0000
0010
0000
1000
0000
0000
0000
0000
0000
,
0110
0000
0100
0000
,
0010
0000
0100
0000
,
1000
0000
0100
0000
,
0010
0000
0001
0000
,
0100
0000
0010
0000
,
0100
0000
0010
0000
,
0001
0000
1000
0000
,
0100
0000
1000
0000
,
0100
0000
0010
0000
,
0001
0000
0010
0000
,
0100
0000
0010
0000
,
0100
0000
0010
0000
,
0001
0000
0100
0000
,
0010
0000
0100
0000
,
1000
0000
0100
0000
,
0010
0000
0001
0000
,
0100
0000
0010
0000
,
0100
0000
1000
0000
,
0100
0000
0000
0000
0010
0000
0000
0220
,
0000
0000
0330
0100
,
0000
1000
0000
0100
,
0000
0010
0000
0001
,
0010
0001
0000
0100
,
0010
0100
0000
0100
,
0010
0001
0000
0100
,
1000
0100
0000
0100
,
0100
0010
0010
0110
,
0000
0110
0000
0110
0000
0000
0010
0000
,
0000
0001
0000
1000
,
0000
0100
0000
1000
,
0000
0100
0000
0010
,
0000
0001
0000
0100
,
0000
1000
0000
0100
,
0000
0010
0000
0100
,
0010
0100
0010
0001
,
0000
0110
0000
0010
0100
0010
0100
0000
,
0000
0010
0000
0100
,
0000
1000
0000
0100
,
0000
0010
0000
0001
,
0000
0010
0000
0100
,
0000
0100
0000
1000
,
0000
1000
0000
0100
,
0000
0010
0000
0001
,
0000
0110
0000
1000
,
0000
0001
0000
1000
,
0000
0001
0000
0100
,
0000
0010
0000
0100
,
0000
0010
0000
0200
,
0000
0000
0000
0000
,
0300
0000
0000
0000
0000
0010
0000
1000
,
0100
0000
0000
0001
0000
0000
0010
0000
0000
0000
0100
0000
0000
0000
0010
0000
0000
0000
0001
0000
0000
0000
0000
0000
,
0000
1001
0000
0000
;

//--------------- dance-single - Wrland ----------------
#NOTES:
     dance-single:
     Wrland:
     Medium:
     7:
     0,0,0,0,0:
0000
0000
0000
0000
,
0000
0000
0000
0000
,
0000
0000
0000
0000
,
0000
0100
1000
0100
,
0010
0000
0100
0010
0100
0000
0001
0100
,
0001
0010
0100
1000
,
0100
0000
1000
0100
0010
0100
0000
0110
,
0000
0001
2000
3000
,
0100
1000
0100
0010
,
0100
0001
0010
0100
,
0010
0002
0003
0000
,
0100
1000
0200
0300
,
0000
0100
0010
0001
,
0100
0000
0000
0010
0000
0001
0000
0100
0000
0010
0000
1000
,
0000
0100
0000
0010
0000
0000
0000
0000
0000
0220
0000
0000
,
0330
1000
0100
1000
,
0100
0010
0001
0200
,
0300
0010
0100
0010
,
0001
0100
0010
0200
,
0300
0000
0010
0000
0001
0000
0010
0001
,
0010
0100
0010
0200
,
0300
1000
0100
1000
,
0100
0000
0010
0100
0010
0000
0001
0100
,
0001
0000
0100
0000
0010
0000
0100
0020
0000
0000
0030
0000
0200
0000
0300
0020
,
0000
0000
0000
0030
0000
0000
0100
0000
0000
0000
0010
0000
0000
0000
0001
0000
0000
0000
0100
0000
0000
0000
0010
0000
,
0000
0000
1000
0000
0000
0000
0200
0000
0000
0300
0000
0000
0000
0000
0000
0220
0000
0000
0000
0000
0000
0000
0000
0000
,
0330
0000
0000
0000
0020
0000
0000
0030
0100
0000
0000
0000
1000
0000
0200
0000
,
0300
0020
0030
0100
0000
0010
0100
0000
,
0020
0030
0001
1000
,
0001
0000
0100
1000
,
0100
0000
1000
1000
,
1100
0000
0100
0100
,
0110
0000
0010
0001
,
0100
0000
0010
0000
0100
0000
0010
0100
,
0000
0220
0330
0000
0010
0000
0001
0200
,
0300
0020
0030
1000
0000
0100
1000
0000
,
0200
0300
0100
0100
,
0100
0000
0010
0010
,
0010
0000
0001
0011
,
0001
0011
0010
0110
,
1000
1100
0100
0010
,
0001
0000
0100
0000
0010
0000
0100
0010
,
0000
0002
0000
0003
1000
0000
0001
0000
,
1000
0000
0001
0000
0100
0010
0100
0000
,
0010
0100
0010
0000
0001
0000
0100
0000
,
0001
0000
0010
0000
0100
0010
0100
0010
,
0000
0200
0000
0000
0000
0000
0000
0000
,
0000
0000
0000
0000
,
0300
0000
0000
0011
0000
1100
0011
0011
,
0110
0000
1100
0000
1100
0000
0110
0000
0000
0000
0000
0000
,
0220
0330
1000
0001
,
1000
0001
0100
0010
,
0200
0300
1000
0100
,
1000
0100
0010
0001
,
0100
0000
0010
0100
,
0010
0001
0010
0100
,
0020
0030
1000
0100
,
1000
0100
0010
0002
,
0003
0000
0100
1000
,
0100
0010
0001
0100
,
0010
0100
0010
0001
,
0100
0010
0100
1000
,
0100
1000
0100
0010
,
0001
0100
0010
0100
,
0010
0001
0100
0010
,
0100
1000
0100
0010
,
0001
0000
0100
0000
0020
0030
0200
0300
,
0020
0000
0000
0030
0000
0000
0200
0000
0000
0300
0000
0000
1000
0000
0000
0000
0100
0000
0000
0000
0010
0000
0000
0000
,
0001
0000
0000
0000
0100
0000
0000
0000
0010
0000
0000
0000
0100
0000
0000
0000
0000
0000
0000
0000
0000
0220
0000
0000
,
0000
0000
0330
0010
,
0100
0020
0030
0002
0003
0200
0300
0010
,
2000
3000
0200
0000
0300
0000
0010
0000
,
0100
0010
0000
0001
,
1000
0001
0000
0100
,
1000
1100
0000
0100
,
0010
0110
0000
0100
,
0010
0001
0100
0010
,
0100
0010
0000
0220
0330
0000
0100
0000
,
1000
0200
0300
2000
3000
0200
0300
0010
,
0200
0300
0020
0000
0000
0030
0001
0000
,
0100
0000
0010
0100
0000
0000
0010
0000
,
0100
0010
0000
0000
0001
0100
0001
0000
,
0100
0000
1000
0000
0100
1000
0100
0010
,
0100
0010
0000
0001
,
0100
0000
0010
0000
0100
0000
1000
0010
,
0000
0010
0000
0100
1000
0010
0200
0000
,
0300
0022
0033
0200
,
0300
2200
3300
0200
,
0000
0300
2002
0000
3003
0000
0200
0000
,
0300
0220
0330
0010
,
0100
0010
0001
0100
,
0010
0000
0000
0100
0000
0000
1000
0000
0000
0100
0000
0010
,
0000
0100
0000
0010
0000
0001
0000
0100
0000
0010
0000
0000
,
0000
0220
0330
0100
,
1000
0000
0100
0000
1000
0000
0100
1000
,
0100
0000
0010
0100
0010
0000
0001
0000
,
0100
0000
0010
0100
0010
0000
0001
1000
,
0100
0011
0000
2200
0000
0000
0000
0000
,
0000
0000
0000
0000
,
3300
0000
0000
0000
0000
0110
0000
1100
,
0011
0000
0000
0011
0000
0000
1100
0000
0000
0000
0110
0000
0000
0000
0011
0000
0000
0000
0011
0000
0000
0000
0000
0000
,
0000
2002
0000
0000
,
3003
0000
0000
0000
;

//--------------- dance-single - Wrland ----------------
#NOTES:
     dance-single:
     Wrland:
     Hard:
     19:
     0,0,0,0,0:
0000
0000
0000
0000
,
0000
0000
0000
1000
0000
0100
0000
1000
0000
0100
0000
0010
,
0000
0000
0001
0000
0000
0000
0200
0000
0000
0300
0000
0000
0000
0000
0000
0220
0000
0000
0000
0000
0000
0000
0000
0000
,
0330
0000
0000
0000
1000
0001
1000
0001
1000
0000
0000
0000
0100
0010
0001
0010
,
0100
0000
0010
0100
0010
0001
0100
0010
,
1000
0000
0000
0000
0100
0010
0001
0010
0001
0000
0000
0000
0100
1000
0100
1000
,
0100
0001
0010
0100
0010
0200
0300
0220
,
0000
0330
0200
0300
0020
0000
0000
0000
,
0030
0000
0000
1000
0000
0100
1000
0100
,
0010
0001
0010
0001
0100
0020
0030
0001
,
0100
2000
0000
0000
3000
0000
0000
0000
,
0100
0010
0200
0000
,
0300
0000
0000
0100
0000
0010
0100
0010
,
0001
0000
0000
0100
0000
0000
0011
0000
0000
0000
1100
0000
0000
0000
0110
0000
0000
0000
0011
0000
0000
0000
0101
0000
,
0000
0110
0000
2020
0000
0000
3030
0000
0000
0220
0000
0000
,
0330
0000
1000
0000
0100
0001
0010
0200
,
0300
0020
0030
0100
0020
0030
0002
0003
,
1000
0000
0100
1000
0200
0300
0020
0030
,
0001
0100
0001
0100
0002
0003
0200
0000
,
0300
0000
0020
0030
2000
3000
0100
2000
,
3000
0100
0000
0100
0020
0030
0002
0003
,
1000
0100
1000
0100
0020
0030
0200
0300
,
0020
0030
0001
0100
0002
0003
0010
1000
,
0100
0000
0001
0000
0200
0300
0010
0200
0000
0000
0300
0000
0200
0000
0000
0300
,
0020
0000
0000
0030
0000
0000
0001
0000
0000
0000
1000
0000
0000
0000
0100
0000
0000
0000
0010
0000
0000
0000
0001
0000
,
0000
0000
0100
0000
0000
0000
0020
0000
0000
0030
0000
0000
0000
0000
0000
0220
0000
0000
0000
0000
0000
0000
0000
0000
,
0000
0000
0330
0000
0200
0300
1000
0200
,
0300
0020
0030
0002
0003
0100
0020
0030
,
0200
0000
0300
0000
0010
0001
0100
0001
,
0100
0002
0000
0003
0020
0030
1000
0200
,
0300
0000
0010
0100
0020
0030
0002
0003
,
0100
1000
0100
0001
0100
0001
0020
0030
,
0200
0000
0300
0000
0200
0300
0020
0030
,
0002
0003
0200
0300
1000
0000
0100
0020
,
0030
0220
0330
0000
0020
0030
0100
0020
,
0030
0002
0003
0200
0300
0010
2000
3000
,
0200
0000
0300
0000
1000
0100
0001
0100
,
0010
0200
0300
0001
0020
0030
0100
2000
,
3000
0000
0100
0010
0200
0300
0020
0030
,
0200
0300
0010
0001
0100
0001
0200
0300
,
0020
0000
0030
0000
2000
3000
0200
0300
,
0020
0030
0200
0300
0020
0030
0001
0200
,
0300
0000
0202
0000
0000
0000
0303
0000
1000
0010
0100
0010
0001
0000
0000
0000
,
0010
0100
0010
0001
0100
0010
1000
0100
,
0010
0000
0001
0000
0010
0000
0100
0000
0010
0001
0010
0100
0010
0000
0000
0000
,
0100
0010
0100
1000
0010
0000
0001
0000
0100
0000
0001
0000
0100
0000
0020
0000
,
0030
2020
0000
3030
1000
0000
0001
1000
,
0002
0003
0100
0010
0100
0010
0001
0200
,
0300
0002
0003
0110
0000
0110
0101
0011
,
1100
0000
0011
0000
1100
0000
0011
0000
0000
0000
0000
0000
,
0220
0000
0330
0000
2000
3000
0200
0300
,
1000
0100
0010
0002
0003
0100
0020
0030
,
0200
0300
0020
0030
0001
1000
0002
0003
,
0200
0300
1000
0100
1000
0100
0010
0001
,
0202
0000
0303
0000
2000
3000
0200
0300
,
0020
0030
0001
0100
0000
0010
0200
0300
,
0001
0000
1000
0001
1000
0001
2000
3000
,
0100
0000
0010
0100
0010
0001
0100
0000
,
0010
0100
0020
0030
0001
1000
0001
1000
,
0100
0000
0000
0010
0000
0000
0100
0000
0010
0000
0100
0000
0010
0000
0001
0000
,
1000
0000
0000
0100
0000
0000
0010
0000
0100
0000
0010
0000
0001
0000
0100
0000
,
0010
0000
0000
0100
0000
0000
0000
0000
0010
0000
0100
0000
0010
0000
0000
0000
,
1000
0100
1000
0000
0100
0010
0001
0100
,
0010
0000
0000
0100
0000
0000
0010
0000
0100
0000
0010
0000
0001
0000
0100
0000
,
0010
0000
0000
0100
0000
0000
0000
0000
1000
0000
0100
0000
1000
0000
0100
0000
,
1000
0000
0000
0100
0000
0000
0000
0000
0010
0000
0100
0000
0010
0000
0000
0000
,
0001
0000
0100
0000
0001
0000
0000
0000
0202
0000
0303
0000
0010
0000
0100
0010
,
2200
0000
0000
3300
0000
0000
0220
0000
0000
0330
0000
0000
0010
0000
0000
0000
0100
0000
0000
0000
0010
0000
0000
0000
,
0001
0000
0000
0000
0100
0000
0000
0000
0010
0000
0000
0000
2000
0000
0000
3000
0000
0000
0000
0000
0000
2002
0000
0000
,
0000
0000
0000
0000
3003
0000
0100
1000
,
0010
0002
0003
0200
0300
0002
0003
0100
,
0020
0030
0200
0000
0300
0010
1000
0100
,
1000
0100
1000
0200
0300
0000
0200
0300
,
0010
0200
0300
0000
0010
0001
0200
0300
,
0010
0000
0100
0010
1000
0010
0001
0100
,
0020
0030
0200
0000
0300
0000
0020
0030
,
0002
0003
0200
0300
0020
0030
0100
0002
,
0003
2000
3000
0220
0330
0000
0010
0001
,
0100
0001
0000
0100
0000
1000
0000
0100
,
1000
0000
0200
0000
0300
0010
0100
0010
,
0001
0100
0010
0200
0300
0010
0200
0300
,
0010
0200
0300
0000
0010
0100
0020
0030
,
0002
0003
0100
1000
0100
0010
0001
0010
,
0200
0300
0020
0030
0000
0000
0200
0300
,
0020
0030
0002
0003
0100
0000
1000
0200
,
0300
2000
3000
0100
0010
0001
0200
0000
,
0300
0220
0330
0002
,
0003
0202
0303
2000
,
3000
2200
3300
0200
,
0300
0010
0100
0001
1000
0100
0020
0030
,
0001
0020
0000
0030
0100
0000
1000
0000
,
0100
0000
0000
0001
0000
0000
0100
0000
0000
0010
0000
0100
,
0000
0010
0000
0001
0000
0100
0000
1000
0000
0020
0000
0000
,
0030
0000
0000
0000
0220
0000
0000
0000
0330
0000
0000
0000
0001
1000
0001
1000
,
0001
0000
0100
0010
0010
0001
0010
1000
,
0100
0000
0010
0000
0001
0000
0010
0000
0100
0000
1000
0000
0100
0010
0100
0010
,
0001
0000
0001
1000
0001
0100
0010
0100
,
0011
2002
3003
0220
0330
0000
0100
0000
,
0010
0100
0010
0000
1000
0100
1000
0100
,
0001
0100
0000
0001
0000
1100
0000
0110
,
0011
0000
0000
0110
0000
0000
0011
0000
0000
0000
1100
0000
0000
0000
0110
0000
0000
0000
0110
0000
0000
0000
0000
0000
,
0000
M22M
0000
0000
,
0330
0000
0000
0000
;
