#TITLE:Naughty Girl;
#SUBTITLE:;
#ARTIST:Beyoncé;
#TITLETRANSLIT:;
#SUBTITLETRANSLIT:;
#ARTISTTRANSLIT:;
#GENRE:Pop;
#CREDIT:Wrland;
#MUSIC:Naughty Girl.ogg;
#BANNER:Naughty Girl.png;
#BACKGROUND:BG.png;
#CDTITLE:Wrland Season 3 CITYGHT + last one night.png;
#PREVIEWVID:preview.mp4;
#SAMPLESTART:66.572;
#SAMPLELENGTH:12.000;
#SELECTABLE:YES;
#OFFSET:-0.000;
#BPMS:0.000=100.042;
#STOPS:;
#DISPLAYBPM:100.000;
#LYRICSPATH:Naughty Girl.lrc;
#METERTYPE:DDR X;
#JACKET:Naughty Girl-jacket.png;
#CDIMAGE:Naughty Girl-cd.png;
#BGCHANGES:0.000=Naughty Girl.avi=1.000=0=0=0=StretchNoLoop====,
99999.000=-nosongbg-=1.000=0=0=0=StretchNoLoop====
;
#FGCHANGES:;

//--------------- dance-single - Wrland ----------------
#NOTES:
     dance-single:
     Wrland:
     Beginner:
     1:
     0,0,0,0,0:
0000
0000
0000
0000
,
0000
0000
0000
0000
,
0000
0000
0000
0000
,
0000
0000
0000
0000
,
0100
0000
0000
0000
,
0100
0000
0000
0000
,
1000
0000
0000
0000
,
1000
0000
0000
0000
,
0001
0000
0000
0000
,
0010
0000
0000
0000
,
0100
0000
0000
0000
,
1000
0000
0000
0000
,
0100
0000
0000
0000
,
0100
0000
0000
0000
,
0010
0000
0000
0000
,
0100
0000
0000
0000
,
1000
0000
0000
0000
,
1000
0000
0000
0000
,
0100
0000
0000
0000
,
0010
0000
0000
0000
,
0001
0000
0000
0000
,
1000
0000
0000
0000
,
0100
0000
0000
0000
,
1000
0000
0000
0000
,
1000
0000
0000
0000
,
0100
0000
0000
0000
,
0010
0000
0000
0000
,
0100
0000
0000
0000
,
0200
0000
0300
0000
,
0020
0000
0030
0000
,
0200
0000
0300
0000
,
2000
0000
3000
0000
,
0002
0000
0003
0000
,
0002
0000
0003
0000
,
2000
0000
3000
0000
,
2000
0000
3000
0000
,
0200
0000
0300
0000
,
2000
0000
3000
0000
,
0200
0000
0300
0000
,
0020
0000
0030
0000
,
0200
0000
0300
0000
,
0020
0000
0030
0000
,
0200
0000
0300
0000
,
0002
0000
0003
0000
,
1000
0000
0000
0000
;

//--------------- dance-single - Wrland ----------------
#NOTES:
     dance-single:
     Wrland:
     Easy:
     3:
     0,0,0,0,0:
0000
0000
0000
0000
,
0000
0000
0000
0000
,
0000
0000
0000
0000
,
0000
0000
0000
0000
,
0010
0000
0010
0000
,
0100
0000
0100
0000
,
1000
0000
0001
0000
,
1000
0000
0001
0000
,
0100
0000
1000
0000
,
0100
0000
0010
0000
,
0001
0000
0010
0000
,
0001
0000
0010
0000
,
0100
0000
1000
0000
,
0100
0000
1000
0000
,
0100
0000
0010
0000
,
0001
0000
0010
0000
,
0100
0000
1000
0000
,
0100
0000
0010
0000
,
0100
0000
0001
0000
,
0010
0000
0100
0000
,
1000
1000
1000
0000
,
0001
0001
0001
0000
,
0100
0100
0100
0000
,
0010
0010
0010
0000
,
0001
0001
0001
0000
,
1000
1000
1000
0000
,
0100
0100
0100
0000
,
1000
1000
1000
0000
,
0010
0100
0020
0030
,
0001
0100
0002
0003
,
0100
1000
0200
0300
,
1000
0100
0020
0030
,
0001
0010
0200
0300
,
1000
0100
2000
3000
,
0100
0010
0002
0003
,
0001
0100
0002
0003
,
0010
0100
0020
0030
,
1000
0100
2000
3000
,
0100
0010
0002
0003
,
0010
0100
0020
0030
,
0100
1000
0200
0300
,
0100
0010
0002
0003
,
0010
0100
2000
3000
,
0100
0010
0002
0003
,
1000
0000
0000
0000
;

//--------------- dance-single - Wrland ----------------
#NOTES:
     dance-single:
     Wrland:
     Medium:
     6:
     0,0,0,0,0:
0000
0000
0000
0000
,
0000
0000
0000
0000
,
0000
0000
0000
0000
,
0000
0000
0000
0000
,
0100
0100
1000
0000
,
0010
0100
0010
0000
,
0010
0100
0100
0000
,
1000
0100
1000
0000
,
0100
0010
0100
0100
,
0010
0010
0001
0100
,
0010
0100
1000
0100
,
1000
0100
0010
0100
,
0010
0001
0010
0000
,
1000
0100
1000
0000
,
1000
0100
0010
0000
,
0001
0010
0100
0000
,
0100
1000
0100
0000
,
0100
0010
0001
0000
,
0010
0100
1000
0000
,
0100
1000
0100
0000
,
0100
0000
0000
0000
1000
0100
1000
0000
,
0100
0000
0000
0000
0010
0100
0010
0000
,
0001
0000
0000
0000
0010
0100
0010
0000
,
0100
0000
1000
0000
1000
0001
1000
0001
,
0100
0000
1000
0000
0010
0100
0010
0000
,
0001
0000
0010
0000
0100
1000
0100
0000
,
0010
0000
0100
0000
0100
0010
0100
0000
,
0010
0000
0001
0000
0010
0000
0100
1000
,
0100
0000
0000
0000
0000
0000
1000
0000
0001
0000
0000
1000
0002
0000
0003
0000
,
0100
0000
1000
0000
0100
0000
1000
0100
1000
0000
0000
0100
0020
0000
0030
0000
,
0100
0010
0000
0001
0100
0000
0010
0000
,
0100
0000
1000
0000
0100
1000
0100
0010
,
0001
0000
0000
0000
0000
0000
0100
0000
0010
0000
0000
0100
0020
0000
0030
0000
,
0100
0000
0000
0000
0000
0000
0010
0000
0100
0000
0000
0010
0200
0000
0300
0000
,
0010
0000
0000
0001
0100
0000
1000
0000
,
0100
1000
0100
1000
0100
0001
0100
0010
,
0100
0000
0000
0000
1000
0000
0100
0000
1000
0000
0000
0100
2000
0000
3000
0000
,
0100
0000
0010
0000
0100
0000
0001
0000
0100
0000
0000
0010
0200
0000
0300
0000
,
1000
0100
0000
0100
1000
0100
0010
0001
,
0100
0010
0000
0100
0010
0001
0100
0010
,
0100
0000
0000
0000
0010
0000
0100
0000
0010
0000
0000
0001
0200
0000
0300
0000
,
0010
0000
0100
0000
1000
0000
0100
0000
1000
0000
0000
0100
2000
0000
3000
0000
,
0100
0010
0001
0100
0010
0100
0010
0100
,
0010
0100
0010
0001
0100
0010
0100
0010
,
0100
0000
0000
0000
;

//--------------- dance-single - Wrland ----------------
#NOTES:
     dance-single:
     Wrland:
     Hard:
     8:
     0,0,0,0,0:
0000
0000
0000
0000
,
0000
0000
0000
0000
,
0000
0000
0000
0000
,
0000
0000
0000
0000
,
1000
0000
0001
0000
1000
0000
0001
0100
,
0010
0000
0100
0010
0000
0000
0200
0000
0300
0000
2000
0000
3000
0000
0000
0000
,
1000
0100
0010
0001
,
0100
0000
0010
0200
0000
0300
0020
0000
0000
0030
0002
0000
0000
0003
0000
0000
,
0010
0000
0000
0000
0100
0000
0000
0000
1000
0000
0000
0100
2000
0000
3000
0000
,
0100
0000
0010
0000
0001
0000
0100
0010
0200
0000
0300
0010
0200
0000
0300
0000
,
0010
0000
0100
0000
1000
0000
0010
0100
0020
0000
0030
0100
0020
0000
0030
0000
,
0001
0010
0100
1000
0010
0100
0010
0001
0100
0010
0100
1000
0100
0010
0001
0010
,
0100
0000
0000
0000
1000
0000
0000
0010
0100
0000
1000
0000
0010
0100
0010
0100
,
0002
0000
0003
2000
0000
3000
0000
0010
0001
0000
0100
0000
0010
0100
0010
0100
,
0020
0000
0030
0200
0000
0300
0000
1000
0100
0000
0010
0000
0100
0010
0100
0010
,
0200
0300
0010
0002
0000
0003
0000
0100
1000
0010
0100
0000
0010
0000
0100
0010
,
0100
0000
0000
1000
0100
0000
0010
0100
0010
0000
0100
0000
0001
1000
0001
1000
,
0020
0000
0030
0200
0000
0300
0000
0010
0100
0000
0010
0000
0001
0000
0100
0001
,
0200
0000
0300
2000
0000
3000
0000
0100
1000
0000
0100
0000
0010
0000
0100
0010
,
0100
0010
0001
0010
0100
1000
0100
0010
0001
0010
0100
1000
0100
0010
0001
0010
,
0200
0000
0300
0000
2200
0000
3300
0100
0010
0100
0010
0000
0100
0000
0010
0100
,
0020
0000
0030
0002
0000
0003
0000
0010
0100
1000
0010
0000
0001
0000
1000
0000
,
0100
0010
0000
0200
0000
0000
0300
0000
0010
0000
0100
0000
0010
0100
0010
0000
,
0002
0000
0003
2000
0000
0000
3000
0000
0100
0000
0010
0000
0100
0000
0010
0100
,
0020
0000
0030
0002
0000
0003
0000
1000
0001
0000
1000
0000
0100
0001
0010
0100
,
0020
0000
0030
0200
0000
0300
0000
0100
0010
0100
0010
0000
0001
0000
1000
0001
,
0100
0020
0030
0200
0000
0300
0000
0010
0100
0010
0200
0300
0020
0030
0002
0003
,
0100
0000
0010
0200
0000
0300
0020
0000
0000
0030
0100
0000
0010
0100
0010
0000
,
0002
0000
0000
0000
0003
0000
1000
0100
2000
0000
3000
0100
0020
0000
0030
0000
,
0202
0000
0000
0000
0303
0000
0010
0100
0020
0000
0030
0100
2000
0000
0000
3000
,
2200
0000
0000
0000
3300
0000
0010
0100
0010
0000
0001
1000
0000
0100
0010
0000
,
0002
0000
0000
0000
0003
0000
1000
0001
1000
0000
0001
1000
0000
0001
1000
0000
,
0200
0000
0000
0000
0300
0000
0010
0100
0020
0000
0030
0100
0020
0000
0030
0000
,
2002
0000
0000
0000
3003
0000
0100
1000
0200
0000
0300
0010
0200
0000
0300
0000
,
0220
0000
0000
0000
0330
0000
0100
0010
0100
0000
0010
0001
0000
0010
0100
0000
,
0020
0000
0000
0000
0030
0000
1000
0100
1000
0000
0100
0010
0000
0100
0010
0000
,
2002
0000
0000
0000
3003
0000
1000
0100
2000
0000
3000
0100
0020
0000
0030
0000
,
0220
0000
0000
0000
0330
0000
0001
0010
0002
0000
0000
0103
0020
0000
0030
0000
,
0220
0000
0000
0000
0330
0000
0100
1000
0100
0000
0010
0100
0000
0010
0001
0000
,
0202
0000
0000
0303
0000
0000
0100
0010
0100
0000
0010
0100
0000
0010
0001
0000
,
0202
0000
0000
0000
0303
0000
0100
0010
0200
0000
0300
0001
0020
0000
0030
0000
,
0202
0000
0000
0000
0303
0000
1000
0100
2000
0000
3000
0100
0020
0000
0030
0000
,
0220
0000
0000
0000
0330
0000
0001
1000
0001
0000
0100
0010
0000
0100
0010
0000
,
0002
0000
0000
0000
0003
0000
0100
0010
0100
0000
1000
0100
0000
0010
0100
0000
,
0010
0000
0000
0000
;
