#VERSION:0.83;
#TITLE:NOIZY BOUNCE;
#SUBTITLE:;
#ARTIST:八王子P feat. ななひら・まめこ;
#TITLETRANSLIT:;
#SUBTITLETRANSLIT:;
#ARTISTTRANSLIT:Hachiouji-P feat. Nanahira, Mameko;
#GENRE:EDM;
#CREDIT:Wrland;
#MUSIC:NOIZY BOUNCE.ogg;
#BANNER:NOIZY BOUNCE.png;
#BACKGROUND:BG.png;
#CDTITLE:Wrland Season 3 CITYGHT.png;
#SAMPLESTART:52.005;
#SAMPLELENGTH:12.000;
#SELECTABLE:YES;
#OFFSET:0.000;
#BPMS:0.000=74.992
,8.000=149.984
,16.000=299.969
,20.000=599.938
,28.000=149.984
,128.000=74.992
,129.000=149.984
,130.000=599.938
,134.000=149.984
,262.000=74.992
,263.000=149.984
,264.000=599.938
,268.000=149.984
;
#STOPS:;
#DISPLAYBPM:74.000:149.000;
#JACKET:NOIZY BOUNCE-jacket.png;
#CDIMAGE:NOIZY BOUNCE-cd.png;
#METERTYPE:DDR X;
#BGCHANGES:0.000=NOIZY BOUNCE.avi=1.000=0=0=0=StretchNoLoop====,
99999.000=-nosongbg-=1.000=0=0=0=StretchNoLoop====
;
#FGCHANGES:;

//--------------- dance-single - Wrland ----------------
#NOTEDATA:;
#STEPSTYPE:dance-single;
#DESCRIPTION:Wrland;
#DIFFICULTY:Beginner;
#METER:4;
#RADARVALUES:0,0,0,0,0;
#NOTES:
0000
0000
0000
0000
,
0000
0000
0000
0000
,
0000
0000
0000
0000
,
0000
0000
0000
0000
,
0000
0000
0000
0000
,
0000
0000
0000
0000
,
0000
0000
0000
0000
,
0000
0000
0000
1001
,
0001
0000
0100
0000
,
1000
0000
1000
0000
,
0100
0000
1000
0000
,
0100
0000
0010
0000
,
0100
0000
0010
0000
,
0001
0000
0010
0000
,
0100
0000
1000
0000
,
0100
0000
0000
0110
,
0020
0030
0002
0003
,
0020
0000
0030
0000
,
0100
0000
1000
0000
,
0100
0000
0000
0000
,
0200
0300
2000
3000
,
0200
0000
0300
0000
,
0010
0000
0001
0000
,
0020
0000
0030
0000
,
0200
0000
0300
0000
,
2000
0000
3000
0000
,
2000
0000
3000
0000
,
0200
0000
0300
0000
,
0010
0000
0001
0000
,
0010
0000
0100
0000
,
1000
0001
0001
1000
,
2002
0000
0000
0000
,
3003
0000
0000
0000
,
0000
0000
0100
0000
,
0100
0000
1000
0000
,
0100
0000
0010
0000
,
0001
0000
0001
1000
,
0001
1000
0100
0000
,
1000
0000
0100
0000
,
0010
0000
0100
0000
,
0010
0000
0001
0000
,
0000
1001
1000
0000
,
0100
0000
1000
0000
,
0100
0000
0010
0000
,
0001
0000
0010
0000
,
0100
0000
1000
0000
,
0100
0000
1000
0000
,
0100
0000
0010
0000
,
0100
0000
0010
0000
,
0001
0000
2000
0000
,
3000
0000
0200
0000
,
0300
0000
2000
0000
,
3000
0000
0020
0000
,
0030
0000
0002
0000
,
0003
0000
0020
0000
,
0030
0000
0200
0000
,
0300
0000
2000
0000
,
3000
0000
0100
0000
,
1000
0000
0100
0000
,
1100
0000
0100
0000
,
0010
0000
0100
0000
,
0110
0000
0010
0001
,
0010
0000
0100
1000
,
0100
0000
1000
0001
,
1000
0001
2002
0000
,
3003
0000
2002
3003
,
0000
0000
0000
0000
,
0100
0000
0100
0000
,
1000
0000
0100
0000
,
0010
0000
0001
0000
,
0010
0100
0010
0100
,
1000
0000
0100
0000
,
1000
0000
0100
0000
,
0010
0000
0001
0000
,
0010
0000
0000
0110
,
0100
0000
1000
0000
,
0100
0000
0010
0000
,
0001
0000
0010
0000
,
0100
1000
0100
0010
,
0100
0000
0100
0000
,
1000
0000
1000
0000
,
0100
0000
1000
0000
,
0100
0000
0001
1001
;

//--------------- dance-single - Wrland ----------------
#NOTEDATA:;
#STEPSTYPE:dance-single;
#DESCRIPTION:Wrland;
#DIFFICULTY:Easy;
#METER:7;
#RADARVALUES:0,0,0,0,0;
#NOTES:
0000
0000
0000
0000
,
0000
0000
0000
0000
,
1000
0001
1000
0001
,
1000
0001
1000
0001
,
1000
0001
1000
0001
,
1000
0000
0001
0000
,
1000
0000
0001
0000
,
0000
0000
0000
0110
,
0100
1000
0100
1000
,
0000
0100
0000
0000
0010
0000
0100
0000
,
0000
0010
0000
0000
0001
0000
0010
0000
,
0100
0000
0100
0000
1000
0100
1000
0000
,
0000
0100
0000
0000
0010
0000
0100
0000
,
0000
0100
0000
0000
0010
0000
0001
0000
,
0000
0010
0000
0000
0100
0000
2000
0000
,
3000
0000
0000
0000
1000
0001
1000
0000
,
0200
0000
0300
1000
0200
0000
0300
0100
,
0020
0000
0000
0000
0030
0001
1000
0010
,
0100
0010
0100
0010
,
0001
0100
0010
0000
,
0200
0000
0300
0010
2000
0000
3000
0100
,
0020
0000
0000
0000
0030
0100
0010
0100
,
0010
0001
0010
0100
,
1000
0100
2200
3300
,
0200
0000
0000
0300
,
0020
0000
0000
0030
,
0002
0000
0000
0003
,
2002
0000
0000
3003
,
1000
0000
1100
0000
,
0100
0000
0110
0000
,
0010
0000
0011
0000
,
2002
0000
0000
0000
,
3003
0000
0000
0000
,
0000
0000
0100
1000
,
0100
0000
1000
0100
0010
0000
0100
0010
,
0001
0000
0000
0000
0100
0000
0010
0100
,
0100
0000
0010
0000
0100
0010
0110
0000
,
0001
0100
0101
0000
0010
0000
0100
0000
,
1000
0000
0100
0010
0001
0000
0100
0010
,
0100
0000
0000
0000
1000
0001
1000
0010
,
0100
0010
1000
0100
0100
0100
0010
0001
,
0100
0001
0110
0000
0010
0100
1000
0100
,
0010
0100
0100
1000
,
0100
0000
0100
1000
,
0100
0010
0001
0100
,
0010
0000
0100
0000
0000
0010
0100
0010
,
0001
0100
0010
0100
,
1000
0000
0100
1000
,
0100
1000
0100
0001
0000
0000
0100
0010
,
0000
0100
0000
0000
0200
0000
0000
0000
,
0000
0300
0020
0000
,
0000
0030
0200
0000
,
0300
0000
2000
0000
,
0000
3000
0002
0000
,
0000
0003
2000
0000
,
0000
3000
0200
0000
,
0000
0300
2000
0000
,
0000
3000
0020
0030
,
0200
0300
0020
0030
,
0002
0003
0020
0030
,
0200
0300
2000
3000
,
0200
0300
1100
1100
,
0110
0110
0011
0011
,
0110
0000
0110
0000
0100
0010
0010
0100
,
0010
0001
0100
0010
0000
0200
0000
0000
,
0000
0300
2002
3003
,
0000
0000
0000
0000
,
0100
0000
1000
0000
0100
0000
0010
0001
,
0100
0000
0010
0100
0010
0000
0000
0000
,
0100
0010
0001
0100
0010
1000
0100
0010
,
0100
0010
0110
0000
0001
0100
0101
0000
,
0001
0000
0010
0000
0100
0000
1000
0100
,
1000
0000
0100
1000
0100
0000
0000
0000
,
1000
0100
1000
0100
0010
0001
0100
0010
,
0100
0000
0010
0100
0010
0000
0110
0000
,
0100
0010
0100
0000
,
0000
0100
0000
0000
1000
0000
0100
0000
,
0010
0001
0010
0100
,
0100
1000
1100
0100
,
0000
0100
0000
0000
0010
0000
0100
0000
,
0000
0010
0000
0000
0001
0000
0100
0000
,
0000
0010
0000
0000
0100
0000
1000
0000
,
0100
0000
0010
0011
;

//--------------- dance-single - Wrland ----------------
#NOTEDATA:;
#STEPSTYPE:dance-single;
#DESCRIPTION:Wrland;
#DIFFICULTY:Medium;
#METER:10;
#RADARVALUES:0,0,0,0,0;
#NOTES:
0000
0000
0000
0000
,
0000
0000
0000
0000
,
1000
0100
0010
0000
0100
0010
0001
0000
,
0010
0100
0010
0000
0001
0100
0010
0000
,
1000
0001
1000
0001
,
1000
0001
1000
0001
,
1000
0001
1000
0001
,
2000
0000
3000
0110
,
0000
0000
0200
0000
0300
0000
0001
0000
0100
0000
0000
0010
0000
0000
0200
0000
,
0300
0000
0020
0000
0030
0000
0000
0000
0100
0000
0000
0010
0000
0000
0001
0000
,
0000
0000
0200
0000
0300
0000
0000
0000
0010
0000
0000
0100
0000
0000
0010
0000
,
0100
0000
0010
0000
0100
0010
0200
0300
,
0000
0000
0020
0000
0030
0000
0000
0000
0001
0000
0000
0010
0000
0000
0100
0000
,
0000
0000
2000
0000
3000
0000
0000
0000
0100
0000
0000
1000
0000
0000
0100
0000
,
0000
0000
0020
0000
0030
0000
0000
0000
0001
0000
0000
0010
0000
0000
0100
0000
,
0020
0000
0000
0000
0030
0000
0000
0000
0100
0000
0000
0110
0000
0000
0100
0000
,
0020
0000
0030
0100
0020
0000
0030
0001
,
0020
0000
0000
0000
0030
0100
1000
0100
,
0020
0000
0030
0001
0000
0000
0020
0000
0030
0000
0100
0000
0010
0000
0100
0000
,
0020
0000
0030
0001
0000
0000
0200
0000
0300
0000
0010
0000
0100
0000
1000
0000
,
0200
0000
0300
0100
0020
0000
0030
1000
,
0200
0000
0000
0000
0300
1000
0100
1000
,
0100
0000
0000
0020
0000
0030
0002
0000
0003
0000
0020
0000
0030
0000
0100
0000
,
0010
0000
0000
0100
0000
0000
0220
0000
0000
0000
0000
0000
0330
0000
0000
0000
,
0200
0000
1300
0000
,
0020
0000
0031
0000
,
0020
0000
0130
0000
,
2000
0000
3100
0000
,
0100
0011
0100
0011
,
0001
0110
0220
0330
,
1000
0001
1000
0001
0100
0010
0100
0010
,
0010
0100
0010
0100
0010
0100
0010
0100
0010
0100
0010
0100
,
0220
0000
0000
0330
1000
0000
0000
0100
1000
0000
0000
0000
0000
0000
0000
0000
,
0000
0000
0000
0000
0100
0010
0001
0100
,
0010
0001
0100
0000
0010
0000
0100
0000
1000
0000
0100
0000
0010
0000
0001
0000
,
0010
0001
0100
0000
0001
0000
0010
0000
0100
0000
1000
0000
0100
0000
0010
0000
,
0001
0100
0001
0000
0010
0000
0100
0000
0010
0000
0100
0000
0110
0000
0000
0000
,
1000
0001
1001
0000
0001
0100
0010
0100
,
0010
0100
0010
0000
0001
0000
0100
0000
0010
0000
1000
0000
0100
0000
1000
0000
,
0100
1000
0100
0000
0010
0000
0100
0000
0010
0000
0001
0000
0100
0000
0010
0000
,
0100
0010
0100
0000
0010
0000
0100
0000
0000
0000
0010
0001
0010
0000
0001
0000
,
0010
0000
0000
0100
0000
0000
1000
0000
0000
0000
0100
0000
0010
0000
0001
0000
,
0100
0000
0000
0010
0000
0000
0100
0000
0010
0000
0001
0000
0010
0000
0200
0000
,
0300
0000
0020
0000
0030
0000
0000
0000
0100
0000
0000
0110
0000
0000
0010
0000
,
0001
0000
1000
0000
0100
0000
0010
0000
0011
0000
0000
0011
0000
0000
0001
0000
,
0202
0303
0020
0030
0000
0100
0010
0100
,
2000
0000
3000
0100
0000
0000
0010
0000
0001
0000
0010
0000
0100
0000
0020
0000
,
0030
0002
0003
0000
0100
0000
1100
0000
,
0010
0000
0011
0200
0000
0300
0010
0200
,
0300
0220
0330
0010
0002
0000
0000
0000
,
1003
0000
0200
0000
,
1300
0000
2000
0000
,
3100
0000
0020
0000
,
0031
0000
0002
0000
,
0013
0000
0200
0000
,
0310
0000
0200
0000
,
1300
0000
0200
0000
,
0310
0000
0001
1000
,
0001
1000
0001
0100
,
0110
0000
0010
0001
,
0010
0001
0010
0001
,
0011
0000
0000
0000
0100
1000
0100
0000
,
0010
0100
0010
0000
0001
0100
0010
0000
,
0100
0020
0000
0030
0100
0010
0001
0010
,
0100
0010
0001
0010
0100
0010
0001
0100
,
0010
0000
0000
0000
0001
0000
0000
0000
0010
0000
0000
0000
0001
0000
0000
0000
0010
0000
0000
0000
0001
0000
0000
0000
0022
0000
0000
0000
0000
0000
0000
0000
0000
0033
0000
0000
0100
0000
0000
0000
0000
0000
0000
0000
0000
0010
0000
0000
,
0100
0000
0000
0000
,
0010
0000
0100
0000
0010
0000
0001
0000
0100
1000
0100
0000
0010
0000
0100
0000
,
0010
0000
0001
0000
0100
0000
0010
0000
0100
0010
0001
0000
0010
0000
0100
0000
,
0010
0000
1000
0000
0100
0000
1000
0000
0100
1000
0010
0000
0100
0000
0010
0000
,
0001
0010
0110
0000
0100
1000
1100
0000
,
0100
0000
0010
0000
0001
0000
0100
0000
0010
0100
0000
0000
0010
0000
0001
0000
,
0010
0000
0100
0000
1000
0000
0100
0000
1000
0010
0100
0000
0010
0000
0001
0000
,
0010
0000
0100
0000
1000
0000
0100
0000
1000
0100
0000
0000
0010
0000
0001
0000
,
0200
0000
0300
0000
0010
0100
0220
0000
,
0330
0000
0200
0000
0300
0000
1000
0000
0100
0000
0000
1000
0000
0000
0200
0000
,
0300
0000
0200
0000
0300
0000
0000
0000
0010
0000
0100
0010
0000
0000
0002
0000
,
0003
0000
0200
0000
0300
0000
0000
0000
0010
0000
0000
0100
0000
0000
0100
0000
,
2000
3000
0200
0300
0010
0001
0200
0300
,
0000
0000
0200
0000
0300
0000
0000
0000
0010
0000
0000
0100
0000
0000
0020
0000
,
0030
0000
0002
0000
0003
0000
0000
0000
0010
0000
0100
0010
0000
0000
0200
0000
,
0300
0000
0020
0000
0030
0000
0000
0000
0100
0000
0000
0010
0000
0000
0002
0000
,
0000
0000
0000
0000
0003
0000
0000
0000
0001
0000
0001
1000
0110
0000
0000
0000
;

//--------------- dance-single - Wrland ----------------
#NOTEDATA:;
#STEPSTYPE:dance-single;
#DESCRIPTION:Wrland;
#DIFFICULTY:Hard;
#METER:13;
#RADARVALUES:0,0,0,0,0;
#NOTES:
0000
0000
0000
0000
,
0000
0000
0000
0000
,
0100
0010
0000
0100
0010
0000
0010
0000
0001
0000
0000
0000
0010
0000
0000
0000
,
0100
0010
0000
0100
0010
0000
0100
0000
0010
0000
0000
0000
0110
0000
0000
0000
,
1000
0100
0010
0001
,
0100
0010
0100
0010
,
0100
0001
0100
0010
,
0001
0000
1000
0100
1000
0000
0100
0000
0010
0000
0000
0001
0000
0000
0010
0000
,
0000
0000
0200
0000
0300
0000
1000
0000
0200
0000
0300
2000
0000
3000
0200
0000
,
0300
0000
0100
0000
0010
0000
0100
0000
0010
0000
0100
0020
0000
0030
0200
0000
,
0300
0000
0020
0000
0030
0000
0000
0000
0001
0000
0010
0200
0000
0300
0010
0000
,
0100
0100
1000
0100
1000
0100
2200
0000
,
3300
0000
0100
0000
0010
0000
0001
0000
0100
0000
0010
0200
0000
0300
0020
0000
,
0030
0000
0001
0000
0100
0000
0010
0000
0100
0000
0010
0200
0000
0300
0020
0000
,
0030
0000
0001
0000
0100
0000
0010
0000
1000
0000
0100
2000
0000
3000
0200
0000
,
0300
0000
0010
0100
0010
0000
0001
0000
0010
0000
0000
0100
0000
0000
1000
0000
,
0200
0000
0300
0100
0020
0000
0030
0001
,
0020
0000
0000
0000
0030
0100
0010
1000
,
0200
0000
0300
0020
0000
0030
0002
0000
0003
0000
0020
0000
0030
0000
0100
0000
,
0020
0000
0030
0200
0000
0300
2000
0000
3000
0000
0200
0000
0000
0000
0300
0000
,
0200
0000
0300
1000
0200
0000
0300
0100
,
0020
0000
0000
0000
0030
0100
0010
0001
,
0200
0000
0300
0020
0000
0030
0200
0000
0300
0000
0020
0000
0030
0000
0100
0000
,
0020
0000
0030
0200
0000
0300
0220
0000
0000
0000
0000
0000
0330
0000
0000
0000
,
0200
0000
0300
0000
2000
0000
3000
0000
0200
0000
0300
0020
0000
0030
0001
0000
,
0020
0000
0030
0000
0200
0000
0300
0000
0020
0000
0030
0200
0000
0300
0000
0000
,
0100
0010
1000
0200
0300
0020
0030
0100
,
0010
0001
0100
0020
0000
0000
0030
0000
,
0100
0100
2200
3300
0100
0100
0220
0330
,
0010
0010
0010
0001
0022
0033
0200
0300
,
1000
0100
0010
0001
0100
0010
0200
0300
,
1000
0001
1000
0001
1000
0001
1000
0001
1000
0001
1000
0001
,
0220
0000
0000
0330
1000
0000
0010
0100
0110
0000
0000
0000
0000
0000
0000
0000
,
0010
0000
1000
0000
0100
0100
0010
0100
,
0010
0001
0100
0010
0100
0000
1000
0000
0100
0000
0010
0000
0001
0000
0100
0000
,
0010
0100
0010
1000
0001
0000
0100
0000
0010
0000
0100
0000
0010
0000
0100
0000
,
0010
0100
0010
0100
0010
0000
0001
0000
0010
0000
0100
0000
0220
0000
0330
0000
,
1000
0100
2200
3300
0100
0010
0001
0100
,
0010
0100
0010
0001
0010
0000
0100
0000
1000
0000
0100
0000
1000
0000
0100
0000
,
1000
0100
1000
0100
1000
0000
0100
0000
0010
0000
0001
0000
0100
0000
0010
0000
,
0100
0010
0100
0010
0001
0000
0010
0000
0000
0000
0100
1000
0100
0000
0010
0000
,
0011
0000
0000
1100
0000
0000
1100
0000
0000
0000
0001
0000
1000
0000
0001
0000
,
1000
0000
0001
1000
0000
0000
0100
0000
0010
0000
0100
0000
0100
0000
0020
0000
,
0030
0000
0200
0000
0300
0000
0000
0000
1000
0000
0000
0100
0000
0000
0010
0000
,
0001
0000
0010
0000
0010
0000
0100
0000
0011
0000
0000
1100
0000
0000
0110
0000
,
1001
0000
1000
0001
1000
0000
0100
0000
0010
0000
0001
0000
0010
0000
0100
0000
,
0020
0000
0030
0200
0000
0300
0010
0000
0100
0000
1000
0000
0100
0000
0020
0000
,
0030
0002
0003
0000
0220
0330
2200
3300
,
0220
0330
0022
0000
0033
0000
0100
0020
,
0030
0220
0330
0010
0002
0000
0000
0000
,
1003
0000
2000
0000
,
3001
0000
0200
0000
,
0310
0000
0002
0000
,
0013
0000
0200
0000
,
1300
0000
0200
0000
,
0010
0300
0000
0000
0002
0000
0000
0000
,
0013
0000
0200
0000
,
1300
0000
0000
1000
0200
0300
0020
0030
,
0002
0003
0010
0100
1000
0100
0020
0000
,
0030
0100
0010
0001
0200
0300
0010
0100
,
0010
0001
2000
3000
0200
0000
0000
0300
,
1000
0100
0010
0100
0020
0030
0002
0003
,
0200
0300
0010
2000
0000
3000
0100
0020
,
0030
0002
0000
0003
2000
3000
2200
3300
,
1000
0000
0000
1001
0000
0000
0100
0000
0000
0001
0000
0000
0001
0000
0010
0000
0100
0000
0010
0000
0001
0000
0010
0000
,
0100
0000
0000
0000
0010
0000
0000
0000
0100
0000
0000
0000
1000
0000
0000
0000
0100
0000
0000
0000
0010
0000
0000
0000
2002
0000
0000
0000
0000
0000
0000
0000
0000
3003
0000
0000
0100
0000
0000
0000
0000
0000
0010
0000
0000
0100
0000
0000
,
0011
0000
0100
0010
,
0001
0000
0010
0000
0100
0000
1000
0000
0100
0010
0001
0100
0010
0000
0100
0000
,
0010
0000
0100
0000
0010
0000
0001
0000
0100
0001
0100
0010
0100
0000
1000
0000
,
0100
0000
1000
0000
0100
0000
1000
0000
0100
1000
0100
1000
0100
0000
0010
0000
,
0100
0010
0220
0330
0001
0010
0022
0033
,
0001
0000
0010
0000
0100
0000
0010
0000
0100
0010
0100
0010
0001
0000
0010
0000
,
0100
0000
1000
0000
0100
0000
0010
0000
0100
0010
0100
0010
0001
0000
0010
0000
,
0100
0000
1000
0000
0100
0000
1000
0000
0100
1000
0100
1000
0100
0000
0020
0000
,
0030
0000
0100
0010
0100
0000
0010
0000
0011
0000
0000
1010
0000
0000
0101
0000
,
0000
0000
0010
0000
0100
0000
0010
0000
0002
0000
0003
0200
0000
0300
0020
0000
,
0030
0000
0100
0000
1000
0000
0100
0000
1000
0000
0100
2000
0000
3000
0200
0000
,
0300
0000
0100
0000
0010
0000
0001
0000
0010
0000
0100
0020
0000
0030
0100
0000
,
0010
0100
0010
0001
0100
0010
2000
3000
,
0000
0000
1000
0100
1000
0000
0100
0000
0020
0000
0030
0002
0000
0003
0200
0000
,
0300
0000
0010
0100
0010
0000
0001
0000
0100
0000
0010
0002
0000
0003
0020
0000
,
0030
0000
0100
1000
0100
0000
0010
0000
0200
0000
0300
0020
0000
0030
0200
0000
,
0300
0000
0000
0000
0000
0000
0000
0000
1000
0000
0100
0010
1001
0000
0000
0000
;

//--------------- dance-single - Wrland ----------------
#NOTEDATA:;
#STEPSTYPE:dance-single;
#DESCRIPTION:Wrland;
#DIFFICULTY:Challenge;
#METER:15;
#RADARVALUES:0,0,0,0,0;
#NOTES:
0000
0000
0000
0000
,
0000
0000
0000
0000
,
1000
0100
1000
0000
0100
0010
0001
0000
0001
0010
0100
0000
0010
0100
0010
0000
,
1000
0100
0010
0000
0001
0010
0100
0000
0010
0001
0010
0000
0100
1000
0100
0000
,
1001
1001
0110
0110
,
0100
0000
0000
0000
0010
0000
0000
0000
0100
0000
0000
0000
,
0010
0000
0000
0000
0100
0000
0000
0000
0010
0000
0000
0000
,
MMMM
0000
0100
0010
0001
0000
0010
0000
0100
0000
0000
0100
0000
0000
2002
0000
,
3003
0000
0100
0010
0100
0000
0010
0000
0200
0000
0300
2000
0000
3000
0200
0000
,
0300
0000
1000
0100
1000
0000
0100
0000
0010
0000
0001
2000
0000
3000
0200
0000
,
0300
0000
1000
0100
1000
0000
0100
0000
0020
0000
0030
0002
0000
0003
0100
0000
,
0010
0001
0010
0001
0010
1000
0220
0000
,
0330
0000
0100
0010
0100
0000
0010
0000
0200
0000
0300
0020
0000
0030
0002
0000
,
0003
0000
0100
0010
0100
0000
1000
0000
0100
0000
0010
0002
0000
0003
0200
0000
,
0300
0000
0010
0000
0100
0000
1000
0000
0100
0000
0010
0200
0000
0300
0020
0000
,
0030
0000
0001
1000
0001
0000
0100
0000
1000
0000
0000
0100
0000
0000
0110
0000
,
0002
0000
0003
1000
0002
0000
0003
0100
,
2000
0000
0000
0000
3000
0100
0010
0100
,
0020
0000
0030
0002
0000
0003
0200
0000
0300
0000
2000
0000
3000
0000
0100
0000
,
2000
0000
3000
0200
0000
0300
0020
0000
0000
0030
0200
0000
0000
0000
0300
0000
,
0200
0000
0300
0010
0002
0000
0003
0010
,
0200
0000
0000
0000
0300
0100
1000
0100
,
0020
0000
0030
0002
0000
0003
0200
0000
0300
0000
0020
0000
0030
0000
0100
0000
,
2000
0000
3000
0200
0000
0300
0022
0000
0000
0000
0000
0000
0033
0000
1000
0000
,
0220
0000
0330
0000
0002
0000
0003
0000
0020
0000
0030
0200
0000
0300
1000
0000
,
0200
0000
0300
0000
0010
0000
0100
0000
0020
0000
0030
0002
0000
0000
0003
0000
,
0100
1000
0100
2000
3000
0200
0300
0010
,
0100
0010
0001
0200
0000
0000
0300
0000
,
0010
0001
0022
0033
0100
1000
2200
3300
,
0100
0010
0001
0100
0020
0030
0100
0010
,
0001
0000
0100
0000
0010
0000
1000
0000
0100
0001
0010
1000
0001
0100
0010
0100
,
0010
0011
0100
0110
1000
1100
0100
0110
0010
0011
0100
0110
,
2002
0000
0000
3003
0100
0000
0010
0100
0010
0000
0000
0000
0000
0000
0000
0000
,
0100
0000
0000
0000
0010
0000
0000
0000
0001
0010
0100
1000
0100
1000
0100
0010
,
0001
0010
0100
1000
0100
0000
MMMM
0000
0100
0000
0100
0000
0010
0000
0001
0000
,
1000
0001
1000
0001
1000
0000
MMMM
0000
0100
1000
0100
0010
0001
0010
0100
0010
,
0001
0010
0100
0010
0001
0000
MMMM
0000
1000
0000
0100
0000
0110
0000
MMMM
0000
,
0001
0000
0100
0000
1010
0000
MMMM
0000
0100
0010
0001
0010
0100
0010
0001
0100
,
0010
1000
0100
0010
0001
0000
MMMM
0000
1000
0000
0010
0000
0100
0000
0010
0000
,
0001
0010
0001
0010
0001
0000
MMMM
0000
0010
0100
1000
0100
0010
0001
0010
0100
,
0010
0001
0010
0100
0010
0000
MMMM
0000
0000
0000
0001
1000
0001
0000
1000
0000
,
0110
0000
0000
1001
0000
0000
0110
0000
0010
0000
0100
0000
0010
0000
0010
0000
,
0100
0000
1000
0200
0000
0000
0310
0000
0001
0000
0100
0000
0010
0000
0200
0000
,
0300
0000
0020
0000
0030
0000
0000
0000
0200
0000
0300
2000
0000
3000
0100
0000
,
0010
0000
0100
0000
0001
0000
0010
0000
0200
0000
0300
0020
0000
0030
0100
0000
,
0220
0000
0000
0330
1000
0001
1000
0000
0100
0000
1000
0000
0100
0000
0010
0000
,
0002
0000
0003
0200
0000
0300
0010
0000
0100
0000
0100
0000
0010
0000
0200
0000
,
0300
2000
3000
0000
0202
0303
2200
3300
,
0202
0000
0303
0000
0100
0000
0101
0000
1000
0100
1000
0100
0010
0001
0020
0000
,
0030
0200
0300
0010
0200
0300
0200
0300
,
2000
3000
0100
1000
0200
0300
0020
0030
,
0200
0300
0010
0001
0200
0300
0020
0030
,
0200
0300
1000
0100
2000
3000
0200
0300
,
0020
0030
0002
0003
0200
0300
0010
0100
,
0020
0030
0001
0100
0002
0003
0010
1000
,
0020
0030
0100
1000
0200
0300
0010
0100
,
0020
0030
0001
0100
0020
0030
0100
0010
,
0002
0003
0000
1000
0200
0300
0020
0030
,
0200
0000
0300
0000
1000
0000
0100
0000
0010
0000
0001
0000
0020
0000
0000
0030
,
0000
0000
0100
0000
0010
0000
0001
0000
0100
0000
0000
0100
1000
0000
0100
0000
,
0010
0001
0200
0300
0100
1000
0100
0010
,
0002
0003
1000
0100
2020
3030
0202
0303
,
2200
3300
0100
0220
0000
0330
0100
0020
,
0000
0030
0002
0000
0000
0000
0003
0000
1000
0100
0010
0100
1000
0100
0010
0001
,
0100
0000
0000
1000
0000
0000
0010
0000
0000
0001
0000
0000
0100
0000
0110
0000
0010
0000
0011
0000
0100
0000
1100
0000
,
0100
0000
0000
0000
0110
0000
0000
0000
0001
0000
0000
0000
0011
0000
0000
0000
0100
0000
0000
0000
0110
0000
0000
0000
2MM2
0000
0000
0000
0000
0000
0000
0000
0000
3003
0000
0000
0100
0000
0000
0000
0000
0000
0010
0000
0000
0100
0000
0000
,
0010
0000
0001
0010
,
0100
0010
0001
0010
0100
0010
0001
0010
0100
0010
0001
0010
0100
0000
MMMM
0000
,
1010
0000
0000
1100
0000
0000
0110
0000
1001
0000
0100
0010
0100
0000
MMMM
0000
,
0010
0001
0010
0100
1000
0100
1000
0100
0010
0001
0010
0100
0010
0000
MMMM
0000
,
0100
0010
0110
MMMM
0001
0100
0101
MMMM
,
1000
0100
1000
0100
1000
0100
0010
0100
0010
0001
0010
0001
0010
0000
MMMM
0000
,
0110
0000
0000
0110
0000
0000
0110
0000
1001
0000
1001
0000
0110
0000
MMMM
0000
,
0100
0010
0001
0010
0100
1000
0100
1000
0100
0010
0001
0010
0100
0000
MMMM
0000
,
0000
0000
0010
0100
0010
0000
0100
0000
1001
0000
0000
0110
0000
0000
0110
0000
,
0000
0000
1000
0000
0100
0000
0010
0000
0200
0000
0300
0020
0000
0030
0002
0000
,
0003
0000
1000
0000
0100
0000
1000
0000
0100
0000
0010
0200
0000
0300
0002
0000
,
0003
0000
0010
0000
0100
0000
0010
0000
0001
0000
0100
0002
0000
0003
1000
0000
,
0100
0110
0010
0011
0010
0100
0220
0000
,
0330
0000
0001
1000
0001
0000
0100
0000
0020
0000
0030
0200
0000
0300
0020
0000
,
0030
0000
0001
1000
0001
0000
0100
0000
1000
0000
0100
2000
0000
3000
0200
0000
,
0300
0000
0100
0010
0100
0000
0010
0000
0100
0000
0010
0002
0000
0003
0020
0000
,
0030
0000
0000
0000
0000
0000
0000
0000
1000
0000
0001
1000
1MM1
0000
0000
0000
;
