#TITLE:My Soul, Your Beats!;
#SUBTITLE:;
#ARTIST:Lia;
#TITLETRANSLIT:;
#SUBTITLETRANSLIT:;
#ARTISTTRANSLIT:;
#GENRE:J-Pop;
#CREDIT:Wrland;
#MUSIC:My Soul, Your Beats!.ogg;
#BANNER:My Soul, Your Beats!.png;
#BACKGROUND:My Soul, Your Beats!-bg.png;
#CDTITLE:Wrland Season 3 CITYGHT.png;
#SAMPLESTART:52.963;
#SAMPLELENGTH:12.000;
#SELECTABLE:YES;
#OFFSET:-0.204;
#BPMS:0.000=145.000
,276.000=36.250
,277.000=72.500
,292.000=36.250
;
#STOPS:;
#DISPLAYBPM:145.000;
#CDIMAGE:My Soul, Your Beats!-cd.png;
#JACKET:My Soul, Your Beats!-jacket.png;
#BGCHANGES:;
#FGCHANGES:;

//--------------- dance-single - by Wrland ----------------
#NOTES:
     dance-single:
     by Wrland:
     Beginner:
     2:
     0,0,0,0,0:
0000
0000
0000
0000
,
0000
0000
0000
0000
,
0000
0000
0000
0000
,
0000
0000
0000
0000
,
0000
0000
0000
0000
,
0000
0000
0000
0000
,
0000
0000
0000
0000
,
0000
0000
0000
0000
,
0000
0000
0000
0000
,
0100
0100
0100
0100
,
0010
0000
0001
1000
0000
0000
0001
0100
,
0000
0010
0100
0000
0010
0000
0001
0000
,
0010
0100
0010
0100
0000
0010
0001
0000
,
0100
0010
0100
0000
,
0100
0000
0010
0100
0000
0010
0100
0000
,
0000
0000
0000
0000
0000
0000
0000
0010
,
0100
0010
0001
0010
,
0100
0000
0000
1000
,
0100
1000
0100
0100
,
0000
0000
0000
0000
,
1000
0100
1000
0100
0000
0100
0010
0001
,
0010
0100
0010
0001
0000
0000
0000
0000
,
0100
0010
0100
0010
0000
0100
0010
0000
,
0000
0000
0000
0000
0000
0000
0000
0100
,
0010
0100
0010
0001
,
0100
0000
0000
1000
,
0100
1000
0010
0100
,
0010
0000
0000
0001
,
0100
0001
0000
0100
0000
0010
0100
0000
,
0100
0000
0000
1000
,
0100
1000
0100
0010
,
0200
0000
0000
0300
,
0100
0010
0100
0010
0000
0000
0001
0100
,
0000
0000
1000
0200
0000
0000
0300
0000
,
0100
0000
1000
0100
0000
0000
0010
0100
,
0000
0000
0001
0100
0000
0000
0001
0200
,
0000
0000
0000
0000
,
0000
0000
0000
0000
0300
1000
0100
1000
,
0100
1000
0000
0000
0000
0100
0010
0100
,
0010
0100
0010
0001
,
0100
0000
0010
0100
0000
0000
0001
0100
,
0000
0000
1000
0200
0000
0000
0300
0000
,
0100
0000
0010
0100
0000
0000
0100
1000
,
0000
0000
0100
0020
0000
0030
0100
0020
,
0000
0000
0000
0000
0000
0000
0030
0001
,
1000
0001
2000
0000
0000
3000
1000
0002
,
0000
0000
0000
0000
,
0000
0000
0000
0003
,
0100
0000
0010
0100
0000
0000
0010
0100
,
0000
0000
1000
0200
0000
0000
0300
0000
,
0100
0000
0010
0100
0000
0000
0010
0100
,
0000
0000
0001
0200
0000
0300
0001
0200
,
0000
0000
0000
0000
,
0000
0000
0300
0000
0000
1000
0100
1000
,
0100
1000
0000
0000
0000
0100
0010
0100
,
0010
0100
1000
0100
,
0010
0001
0100
0010
0000
0000
0100
0010
,
0000
0000
0100
0020
0000
0000
0030
0000
,
0100
0001
0010
0100
0000
0000
0010
0100
,
0000
0000
1000
0100
0000
0000
1000
0200
,
0000
0000
0000
0000
0300
0000
0000
0100
,
0010
0100
0010
0000
0000
0000
0001
0100
,
2000
0000
0000
0000
0000
0000
3000
0100
,
0010
0010
0100
2000
,
0000
0000
0000
0000
3000
0000
0100
0010
,
0100
0010
0001
0200
,
0000
0000
0000
0000
0300
0000
0000
0100
,
0010
0100
1000
0200
,
0000
0000
0000
0300
,
1001
0110
0000
0000
,
0000
0110
0000
0000
,
0000
0100
0000
0000
,
0000
0010
0000
0000
,
0100
0000
0000
0000
;

//--------------- dance-single - by Wrland ----------------
#NOTES:
     dance-single:
     by Wrland:
     Easy:
     4:
     0,0,0,0,0:
0000
0000
0000
0000
,
0000
0000
0000
0000
,
0000
0000
0000
0000
,
0000
0000
0000
0000
,
0000
0000
0000
0000
,
0000
0000
0000
0000
,
0000
0000
0000
0000
,
0000
0000
0000
0000
,
0000
0000
0000
0000
,
0100
0100
0100
0100
0100
0100
0100
0100
,
0010
0000
0010
0002
0003
0000
0001
0020
,
0030
0100
2000
3000
0100
0010
0100
0010
,
1000
0001
1000
0002
0003
1000
0002
0003
,
0100
0010
0100
0020
0000
0000
0030
0000
,
0010
0100
0010
0002
0003
0010
0200
0000
,
0000
0000
0300
0000
0000
0000
0000
0010
,
0200
0300
0020
0030
0200
0300
0020
0030
,
0002
0000
0003
0000
0000
0000
2000
3000
,
0200
0300
0200
0300
0020
0030
0200
0000
,
0300
0000
0000
0000
,
0100
0010
0100
0020
0030
0001
0100
1000
,
0100
0010
0001
0020
0000
0030
0000
0100
,
0010
0100
0010
0200
0300
0010
0200
0000
,
0300
0000
0000
0000
0000
0000
0000
0001
,
0200
0300
0200
0300
2000
3000
0200
0300
,
2000
0000
3000
0000
0000
0000
2000
3000
,
0200
0300
0200
0300
0020
0030
0200
0300
,
0020
0000
0030
0000
0000
0000
0200
0300
,
0010
0001
0000
0020
0030
0100
2000
3000
,
0200
0000
0300
0000
0000
0000
0200
0300
,
1000
0200
0300
0200
0300
1000
0200
0300
,
0022
0000
0000
0033
,
0100
0010
0100
2000
0000
3000
1000
0200
,
0000
0300
0100
0020
0000
0000
0000
0030
,
0002
0003
0100
0002
0000
0003
0010
0200
,
0000
0300
1000
0200
0000
0300
0100
0020
,
0000
0000
0000
0000
,
0000
0000
0000
0000
0030
0010
0100
0010
,
1000
0200
0000
0000
0300
0100
0010
0001
,
0200
0300
0020
0030
0200
0300
2000
3000
,
0200
0300
0010
0200
0000
0300
0100
2000
,
0000
3000
0100
0020
0000
0000
0000
0030
,
0100
0010
0100
0020
0000
0030
0001
0200
,
0000
0300
0010
0200
0000
0300
1000
0200
,
0000
0000
0000
0000
0000
0000
0300
0100
,
0010
0100
0020
0000
0000
0030
0100
0020
,
0000
0000
0000
0000
,
0000
0000
0000
0030
,
0001
1000
0001
2000
0000
3000
0100
0020
,
0000
0030
0100
2000
0000
0000
0000
3000
,
0100
1000
0100
0020
0000
0030
0100
0020
,
0000
0030
0001
0200
0000
0300
1000
0200
,
0000
0000
0000
0000
,
0000
0000
0000
0000
0300
0010
0010
0010
,
0010
0020
0000
0000
0030
0001
0100
0010
,
2000
3000
0200
0300
0020
0030
0200
0300
,
0100
1000
0100
0020
0000
0030
0100
0020
,
0000
0030
0001
0200
0000
0000
0000
0300
,
0010
0010
0100
0020
0000
0030
0001
2000
,
0000
3000
0100
0020
0000
0030
0100
2000
,
0000
0000
0000
0000
0000
0000
3000
1000
,
0100
1000
0200
0000
0000
0300
0100
0020
,
0000
0000
0000
0000
0000
0000
0030
0001
,
0020
0030
0200
0300
2000
3000
0200
0000
,
0000
0000
0000
0000
0000
0300
1000
0100
,
2000
3000
0200
0300
0020
0030
0002
0000
,
0000
0000
0000
0000
0000
0003
0100
0010
,
0200
0300
0020
0030
0200
0300
0020
0000
,
0000
0000
0000
0000
,
0130
0020
0000
0000
,
0030
0200
0000
0000
,
0300
0020
0000
0000
,
0030
0200
0000
0300
,
0020
0000
0000
0030
;

//--------------- dance-single - by Wrland ----------------
#NOTES:
     dance-single:
     by Wrland:
     Medium:
     9:
     0,0,0,0,0:
0000
0000
0000
0000
,
0000
0000
0000
0000
,
0000
0000
0000
0000
,
0000
0000
0000
0000
,
0000
0000
0000
0000
,
0000
0000
0000
0000
0000
0000
0000
0100
,
0010
0100
0010
0220
,
0000
0000
0000
0330
,
0010
0010
0010
0010
,
0010
0100
0010
0100
0010
0100
0010
0100
,
0010
0000
0000
0000
0100
0010
0200
0000
0000
0000
0300
0000
0010
0000
0200
0000
,
0300
0000
0010
0000
0200
0000
0300
0000
0010
0100
0010
0001
1000
0001
1000
0100
,
0010
0100
0010
0200
0300
0010
0200
0300
,
0001
1000
0001
2000
0000
0000
3000
0001
,
1000
0001
1000
0002
0003
1000
0200
0000
,
0000
0000
0000
0000
0300
0000
0000
0000
0100
0010
0100
0010
0100
0000
0010
0000
,
0200
0300
0020
0030
0002
0003
0020
0030
,
0200
0300
0010
0020
0030
0100
0020
0030
,
0002
0003
0020
0030
0200
0300
0020
0030
,
0001
0000
0002
0000
0003
0000
0100
0000
0010
0100
0010
0001
0200
0000
0300
0000
,
0010
0100
0010
0200
0300
0010
0100
0010
,
0100
0000
0010
0000
0001
0000
0100
0000
0010
0001
0100
0010
2000
0000
3000
0000
,
0100
0010
0100
0020
0030
0001
2000
0000
,
3000
0000
0001
0000
0100
0010
0001
0010
0200
0000
0000
0000
0300
0000
0001
0000
,
0200
0300
2000
3000
0200
0300
2000
3000
,
0200
0000
0300
0002
0000
0003
0200
0300
,
0200
0300
0020
0030
0200
0300
0020
0030
,
0002
0000
0000
0003
0010
0000
2000
3000
,
0100
2000
3000
0200
0300
1000
0200
0300
,
0010
0001
0010
0001
0010
0001
0200
0300
,
0010
0200
0300
0010
0000
0001
0100
0000
,
0020
0000
0000
0000
1000
0100
1030
0000
,
0100
0010
0100
0020
0000
0030
0100
2000
,
0000
3000
0100
2010
0001
0001
0010
3000
,
1000
0000
0001
2000
0000
3000
0100
0020
,
0000
0030
0100
0020
0000
0030
1000
0200
,
0000
0001
0010
0001
,
0010
0000
0301
0000
0010
0100
0010
0100
,
1000
0200
0000
0000
0300
0100
0010
0100
,
0020
0030
0002
0003
0200
0300
2000
3000
,
0200
0300
1000
0200
0000
0300
0010
0200
,
0000
0300
0010
0200
1000
0010
1000
0301
,
0100
0100
0010
0200
0000
0300
0010
0200
,
0000
0300
0001
0200
0000
0300
0010
0200
,
0001
0000
0010
0000
0001
0010
0300
1000
,
0100
1000
0200
0000
0000
0300
0100
0020
,
0000
0000
0000
0000
0000
0000
1000
0001
1000
0000
0000
0000
0000
0000
0000
0000
,
1000
1000
1000
1000
0001
0001
0031
0000
,
2000
3000
0100
2000
0000
3000
0100
0020
,
0000
0030
0100
0020
1000
0100
1000
0130
,
0200
0300
0010
0002
0000
0003
0010
0200
,
0000
0300
1000
0200
0000
0300
1000
0200
,
0000
0000
0010
0001
0010
0001
0010
0001
,
0010
0001
0010
0001
1300
0010
0100
0010
,
0100
0020
0000
0000
0030
0001
0010
0100
,
2000
3000
0200
0300
0020
0030
0200
0300
,
0010
0001
0100
0002
0000
0003
0010
0200
,
0000
0300
1000
0210
0001
0010
0001
0310
,
1000
0100
1000
0200
0000
0300
0100
0020
,
0000
0030
0001
0200
0000
0300
0010
0200
,
0000
0000
1000
0000
0001
0010
0300
0010
,
0100
0010
0200
0000
0000
0300
0001
0100
,
0020
0000
0100
0000
1000
0100
0030
0101
,
1010
0101
0011
0220
,
0000
0000
0000
0000
0330
0000
1010
0101
,
1100
1100
0110
0022
,
0000
0000
0000
0000
0000
0000
0033
0011
,
1100
0101
1100
0220
,
0000
0000
0000
0330
,
0110
0000
0000
0000
0000
0000
0000
0001
0100
0000
0000
0000
0010
0000
0000
0000
0100
0000
0000
0000
0020
0000
0000
0000
0000
0000
0000
0000
0000
0000
0000
0000
,
0030
0000
0000
0100
0010
0000
0100
0000
1000
0000
0200
0000
0000
0000
0000
0000
,
0300
0000
0000
1000
0100
0000
1000
0000
0100
0000
0020
0000
0000
0000
0000
0000
,
0030
0000
0000
0100
0010
0000
0100
0000
0000
0020
0000
0000
0000
0000
0030
0000
,
0200
0000
0000
0300
;

//--------------- dance-single - by Wrland ----------------
#NOTES:
     dance-single:
     by Wrland:
     Hard:
     11:
     0,0,0,0,0:
0000
0000
0000
0000
,
0000
0000
0000
0000
,
0000
0000
0000
0000
,
0000
0000
0000
0000
0000
0000
0000
0100
,
0020
0000
0030
0000
0200
0000
0300
0000
0010
0000
0001
0100
0020
0000
0030
0000
,
0200
0000
0000
0000
0000
0300
0000
0100
,
0020
0030
0200
0300
0020
0030
2002
0000
,
0000
0000
0000
3003
,
0100
0100
0100
0100
,
0100
0100
0100
0100
0100
0100
0010
0010
,
0001
0000
1000
0000
0100
0010
0002
0000
0003
0000
0000
0000
0001
0000
2000
0000
,
3000
0000
0001
0000
2000
0000
3000
0000
0001
1000
0100
0010
0100
0010
0001
0100
,
0010
1000
0100
2000
3000
1000
0200
0300
,
0100
0000
1000
0000
0100
0000
0010
0001
0001
0001
0010
0011
0010
0100
0100
0010
,
0010
0100
0010
0200
0300
0010
0100
0010
,
0010
0000
0010
0000
0002
0000
0003
0000
0001
0100
0001
0100
0001
0100
0001
0000
,
0020
0030
0200
0300
2000
3000
0200
0300
,
2000
0000
3000
0000
0100
0000
0020
0000
0030
0000
0100
1000
0010
0001
0010
0000
,
0020
0030
0200
0300
0010
0001
0200
0300
,
0010
0000
0200
0000
0300
0000
0010
0000
0100
0010
0100
0010
0001
0010
0001
0010
,
1000
0100
1000
0200
0300
0100
0010
0100
,
0010
0000
0001
0000
0010
0000
0100
0010
0001
0020
0000
0030
0001
0010
1000
0100
,
0010
0100
0010
0200
0300
0010
0200
0300
,
0010
0000
0100
0000
0010
0000
0001
1000
0001
0000
0001
1000
0001
1000
0001
1000
,
0002
0003
0200
0300
0020
0030
0200
0300
,
0010
0001
0100
0020
0030
1000
0100
0001
,
0010
1000
0002
0003
0020
0030
0200
0300
,
0010
0000
0200
0000
0000
0000
0300
0000
0010
0000
0000
0100
0020
0000
0030
0000
,
0001
0020
0030
2000
3000
0100
0020
0030
,
0100
1000
0001
0001
0001
0001
0010
0001
,
0100
2000
3000
0200
0300
0100
0020
0030
,
0200
0000
0000
0000
0010
0000
0000
0000
0001
0000
0000
0000
0010
0000
0000
0000
0001
0010
0001
0010
0001
0010
0001
0010
0001
0010
0001
0010
0001
0010
0001
0010
,
0301
1000
0100
0200
0000
0300
0100
1000
,
0010
0001
1000
0100
0001
1000
0020
0030
,
0002
0003
0010
0002
0000
0003
0010
2000
,
0000
3000
0100
0200
0000
0300
0010
0200
,
0000
0000
0001
1000
0001
1000
0001
1000
,
0001
1000
0001
1000
0301
0010
0100
0010
,
0100
0020
0100
0001
1030
0010
0001
0010
,
2000
0000
3000
0000
0200
0000
0300
0000
0020
0000
0030
0000
0001
0010
0001
0010
,
0200
0300
0010
0200
0300
0001
0010
0200
,
0000
0300
0100
1000
0001
0010
0001
0010
,
1000
0100
1000
0200
0000
0300
0001
0200
,
0000
0300
0010
0200
0000
0300
0010
0200
,
0000
0300
0020
0030
0001
0020
0030
0010
,
0001
0010
2000
0000
0000
3000
0100
0020
,
0000
0000
0100
2000
3000
0100
2000
3000
,
0100
1000
0100
1000
0100
1000
0100
1000
0100
0001
0001
0001
0001
0001
0001
0001
,
0031
1000
0100
0200
0000
0300
1000
0200
,
0000
0300
0010
0200
0000
0000
0000
0300
,
0100
0010
0100
0020
0000
0030
0001
0200
,
0000
0300
1000
0200
0000
0300
0010
0020
,
0000
0000
1000
0100
1000
0100
1000
0100
,
1000
0100
1000
0100
1000
0100
0031
0100
,
1000
0200
0300
0020
0030
0100
0010
0100
,
0020
0030
0002
0003
0020
0030
2000
3000
,
0100
0010
0100
0020
0000
0030
0001
0020
,
0000
0030
0100
0020
0001
0100
0001
0130
,
0001
0010
0100
2000
0000
3000
0100
0020
,
0000
0030
0100
0020
0000
0030
0001
0200
,
0000
0300
0020
0030
0001
0020
0030
0010
,
0100
0010
0200
0000
0000
0300
1000
0200
,
0000
0000
0000
0000
0010
0001
0010
0000
0010
0001
0010
0000
0300
0000
0010
0000
,
0002
0003
0020
0030
0200
0300
0220
0000
,
0001
1000
0001
1000
0001
1000
0001
1330
,
0200
0300
0020
0030
0002
0003
0022
0000
,
1000
0000
0100
0000
0000
0000
1000
0000
0100
1000
0100
1000
0133
0000
0001
0000
,
0020
0000
0030
0000
0200
0000
0300
0000
2000
0000
3000
0000
2100
0010
0001
0000
,
0100
0010
0001
0000
0100
0010
0001
0000
0100
0010
0001
0000
0100
0010
3001
0000
,
0220
0000
0000
0000
0000
0000
0330
0100
0010
0000
0001
0000
1000
0000
0001
0000
1000
0000
0001
0000
2000
0000
0000
0000
0000
0000
0000
0000
0000
0000
0000
0000
,
3000
0000
0000
1000
1000
1000
0100
0010
0100
0010
0200
0000
0000
0000
0000
0000
,
0300
0000
0000
0100
0010
0100
0010
0100
0010
0001
0020
0000
0000
0000
0000
0000
,
0030
0000
0000
0000
0000
0000
1000
0000
0200
0000
0000
0300
0000
0002
0000
0000
0000
0003
1000
0000
0000
0200
0000
0000
0000
0000
0000
0000
0000
0000
0300
0000
,
0200
0000
0000
0300
;
