#TITLE:魔理沙は大変なものを盗んでいきました;
#SUBTITLE:;
#ARTIST:IOSYS;
#TITLETRANSLIT:MARISA STOLE THE PRECIOUS THING;
#SUBTITLETRANSLIT:;
#ARTISTTRANSLIT:;
#GENRE:Touhou Remix;
#CREDIT:Wrland;
#MUSIC:MARISA STOLE THE PRECIOUS THING.ogg;
#BANNER:MARISA STOLE THE PRECIOUS THING.png;
#BACKGROUND:BG.png;
#CDTITLE:Wrland Season 3 CITYGHT + last one night.png;
#SAMPLESTART:90.354;
#SAMPLELENGTH:12.000;
#SELECTABLE:YES;
#OFFSET:-0.001;
#BPMS:0.000=170.000;
#STOPS:;
#DISPLAYBPM:170.000;
#LYRICSPATH:MARISA STOLE THE PRECIOUS THING.lrc;
#JACKET:MARISA STOLE THE PRECIOUS THING-jacket.png;
#CDIMAGE:MARISA STOLE THE PRECIOUS THING-cd.png;
#METERTYPE:DDR X;
#BGCHANGES:0.000=MARISA STOLE THE PRECIOUS THING.avi=1.000=0=0=0=StretchNoLoop====,
99999.000=-nosongbg-=1.000=0=0=0=StretchNoLoop====
;
#FGCHANGES:;

//--------------- dance-single - Wrland ----------------
#NOTES:
     dance-single:
     Wrland:
     Beginner:
     3:
     0,0,0,0,0:
0000
0000
0000
0000
,
0000
0000
0000
0000
,
0000
0000
0000
0000
,
0000
0000
0000
0000
,
0000
0000
0000
0000
,
0000
0000
0000
0000
,
0000
0000
0000
0000
,
0000
0000
0000
0000
,
0100
0000
0000
0000
,
0100
0000
0000
0000
,
0010
0000
0000
0000
,
0010
0000
0000
0000
,
0001
0000
0000
0000
,
0001
0000
0000
0000
,
1000
0000
0001
0000
,
1000
0000
1001
0000
,
0100
0000
0000
0000
,
1000
0000
0000
0000
,
0100
0000
0000
0000
,
1000
0000
0000
0000
,
0010
0000
0000
0000
,
0001
0000
0000
0000
,
0200
0000
0000
0000
,
0000
0000
0000
0300
,
0220
0000
0000
0000
,
0000
0000
0000
0330
,
2002
0000
0000
0000
,
0000
0000
0000
3003
,
2200
0000
0000
0000
,
0000
0000
0000
3300
,
0022
0000
0000
0000
,
0000
0000
0000
0033
,
0100
0000
0000
0000
,
0100
0000
0000
0000
,
1000
0000
0000
0000
,
1000
0000
0000
0000
,
0001
0000
0000
0000
,
0001
0000
0000
0000
,
0010
0000
0000
0000
,
0100
0000
0000
0000
,
1000
0000
0000
0000
,
1000
0000
0000
0000
,
0100
0000
0000
0000
,
0100
0000
0000
0000
,
0010
0000
0000
0000
,
0001
0000
0000
0000
,
0010
0000
0000
0000
,
0100
0000
0000
0000
,
1000
0000
0000
0000
,
1000
0000
0000
0000
,
0100
0000
0000
0000
,
0010
0000
0000
0000
,
0001
0000
0000
0000
,
0100
0000
0000
0000
,
1000
0000
0000
0000
,
0100
0000
0000
0000
,
0010
0000
0000
0000
,
0100
0000
0000
0000
,
0010
0000
0000
0000
,
0100
0000
0000
0000
,
0010
0000
0000
0000
,
0001
0000
0000
0000
,
1000
0000
0000
0000
,
2002
0000
0000
3003
,
1000
0001
1000
0000
,
0100
1000
0100
0000
,
0010
0001
0010
0000
,
0100
0001
0100
0000
,
0010
0100
0010
0000
,
1000
0100
1000
0000
,
1000
0000
0001
0000
,
1001
0000
0000
0000
,
0100
1000
0100
0000
,
0001
0100
0001
0000
,
0010
0100
0010
0000
,
0001
1000
0001
0000
,
0100
0000
1000
0000
,
0100
0000
0010
0000
,
0001
0000
0100
0000
,
0010
0000
0100
0000
,
0220
0000
0000
0000
,
0000
0000
0000
0330
,
1001
0000
0000
0000
;

//--------------- dance-single - Wrland ----------------
#NOTES:
     dance-single:
     Wrland:
     Easy:
     5:
     0,0,0,0,0:
0000
0000
0000
0000
,
0000
0000
0000
0000
,
0000
0000
0000
0000
,
0000
0000
0000
0000
,
0000
0000
1000
0000
,
0000
0000
1001
0000
,
0000
0000
0001
0000
,
1001
0000
1000
0000
,
0100
0000
1000
0000
,
0100
0000
0010
0000
,
0001
0000
0100
0000
,
0010
0000
0100
0000
,
0010
0000
0001
0000
,
0100
0000
1000
0000
,
0100
0000
1000
0000
,
0100
0010
0001
0000
,
0010
0100
1000
0000
,
1000
0100
0010
0000
,
0001
0100
0001
0000
,
1000
0010
1000
0000
,
0010
0100
0010
0000
,
0001
0100
0001
0000
,
1000
0001
1000
0001
,
1000
0001
1000
0001
1000
0001
1000
0001
,
2000
0000
0000
0000
,
0000
0000
0000
3000
,
0002
0000
0000
0000
,
0000
0000
0000
0003
,
2000
0000
0000
0000
,
0000
0000
0000
3000
,
0200
0000
0000
0300
,
0010
0000
0000
0100
0000
0000
0000
0000
,
0010
0100
0010
0001
,
0010
0100
0010
0001
,
0100
0010
0100
1000
,
0100
1000
0100
0000
0001
0100
0001
0000
,
0010
0100
0010
0001
,
0100
0010
0100
1000
,
0100
1000
0100
0000
0001
0100
0001
0000
,
0010
0100
0010
0000
0001
0100
0001
0000
,
0010
0100
0010
0001
,
0100
0010
0100
1000
,
0100
0001
0100
0010
,
0001
0100
0010
0100
,
0100
0000
1100
0000
,
0100
0000
0110
0000
,
0010
0000
0011
0000
,
1000
0001
1000
0001
1000
0001
1000
0001
,
1000
0100
1000
0000
,
0100
0000
0010
0000
,
0001
0000
0100
0000
0001
0000
0000
0101
,
0000
0000
1010
0000
,
0100
0000
1000
0000
,
0100
0000
0010
0000
,
0100
0000
0001
0000
,
0100
0000
1000
0000
,
0100
0000
0100
0000
,
0010
0000
0001
0000
,
0010
0000
0100
0000
,
1000
0000
0100
0000
,
0010
0000
0001
0000
,
0100
0000
0010
0000
,
0100
0000
1000
0000
,
0220
0000
0000
0330
,
1000
0001
1000
0000
,
0100
0010
0001
0100
0010
0100
0010
0000
,
0100
1000
0010
0000
,
0100
1000
0100
1000
0100
1000
0100
0000
,
0010
0001
0100
0000
,
0010
0100
0010
0000
,
0001
0100
0001
0000
,
1000
0010
1000
0000
,
0100
0010
0110
0000
,
0100
0001
0100
0010
1000
0100
0010
0000
,
0001
0100
0010
0000
,
0100
1000
0100
0010
0001
0100
0010
0000
,
0100
1000
0100
0000
,
1000
0100
0001
0000
,
0100
0010
0100
0000
,
0001
0100
0001
0000
,
0010
0000
1010
0000
,
0100
0000
0110
0000
,
0101
0000
0000
0000
;

//--------------- dance-single - Wrland ----------------
#NOTES:
     dance-single:
     Wrland:
     Medium:
     8:
     0,0,0,0,0:
0000
0000
0000
0000
,
0000
0000
0000
0000
,
0000
0000
0000
0000
,
0000
0000
0000
0000
1000
0000
0001
1000
,
0000
0000
0000
0000
0000
0000
0000
0000
0100
1000
0100
0000
0010
0000
1000
0000
,
0000
0000
0000
0000
0100
0000
0010
0100
,
0000
0000
0000
0000
0000
0000
0000
0000
0001
0100
0001
0000
0001
0000
0100
0000
,
1000
0000
0100
0000
0000
0000
0010
0000
0001
0010
0000
0000
0100
0000
0000
0000
,
0010
0100
1000
0100
,
1000
0000
0100
0000
0001
0100
0101
0000
,
0010
0100
0010
0100
,
0010
0000
0100
0000
1000
0100
1100
0000
,
0100
0010
0001
0100
,
0010
0000
0100
0000
0010
0100
0011
0000
,
0110
0000
1100
0000
0110
0000
1000
0001
,
1000
0000
0001
0000
1000
0001
1000
0001
,
0100
1000
0100
1000
0100
0001
0100
0001
,
0000
0100
0010
0100
1000
0100
0110
0000
,
0010
0001
0100
0010
0100
0010
1000
1000
,
0000
0100
0010
0001
0100
0010
0110
0000
,
0010
0001
0100
0010
1000
0100
1000
0100
,
0000
0010
0100
0001
0100
0010
0100
0000
,
0010
0100
0010
0100
0010
0000
0000
0000
0001
1000
0001
1000
0001
0000
0000
0000
,
1000
0100
1000
0100
1000
0000
0000
0000
0100
0010
0001
0000
0100
0010
0001
0000
,
2000
3000
2000
3000
,
0200
0300
0020
0030
,
0002
0003
0200
0300
,
0020
0000
0030
0000
0200
0000
0300
0020
,
0000
0030
0000
0000
0200
0000
0300
0000
,
0020
0030
0002
0003
,
0200
0300
0020
0030
,
0200
0000
0300
0020
0000
0030
0000
0000
,
0100
0010
0100
0010
0001
0100
0010
1000
,
0100
0010
0001
0100
0010
1000
0100
1000
,
0110
0101
1010
0110
,
0101
0110
2002
3003
,
1000
0100
0010
0100
0010
0001
0100
0010
,
1000
0100
0010
0001
0100
0010
0100
0010
,
1100
0110
0011
0110
,
1100
0110
2002
3003
,
0100
0010
0001
0100
0010
1000
0100
0010
,
0001
0100
0010
0001
0100
1000
0010
0001
,
0110
1001
1100
0110
,
0011
0110
1100
0101
,
0100
0110
0001
0110
1000
0101
0100
0011
,
0100
1000
0100
1000
0100
1000
0100
0010
,
0001
1001
1000
1100
,
0100
0010
0001
0100
0010
0200
0000
0300
,
0010
0100
1000
0100
,
0002
0003
2000
3000
,
0100
0000
1000
0000
0100
0001
0000
0100
,
0000
0010
0100
0000
1000
0000
0100
0001
,
0200
0300
0100
1000
,
0200
0000
0300
2000
0000
3000
0200
0300
,
0002
0000
0003
0200
0000
0300
0010
0000
,
0200
0300
0020
0030
,
0220
0000
0000
0000
0330
0000
0000
0100
,
2000
3000
0200
0300
,
0001
0000
0010
0000
0100
0010
0000
0001
,
0000
0000
0100
0000
0010
0000
0000
0000
1000
0000
0000
0100
0000
0000
2000
0000
,
0000
3000
0000
0200
0000
0300
0010
0000
,
0200
0000
0300
0020
0000
0030
0002
0003
,
0200
0000
0300
0020
0000
0000
0000
0030
,
0100
0010
0001
0100
0010
1000
0100
0000
,
0010
0000
0100
0000
0010
0001
0000
0100
,
0010
0001
0010
0000
1000
0100
0010
0000
0100
0010
0001
0000
0010
0100
0010
0000
,
1000
0000
0100
0000
0001
0100
0000
0010
,
0100
0010
0001
0010
0100
0010
0001
0000
,
0100
0000
0000
0000
0010
0000
0000
0000
1000
0000
0000
0100
0000
0000
0001
0000
,
0000
0100
0000
0010
0100
0000
1000
0000
,
0100
0000
0001
0000
0100
0010
0000
0200
,
0000
0000
0300
0000
,
0110
0000
0001
0000
0100
0010
0000
1000
,
0100
0010
0001
0000
0001
0010
0100
0000
1000
0100
1000
0000
0100
0010
0001
0000
,
0100
0000
0010
0000
0100
0010
0000
0001
,
0100
0010
1000
0100
0010
0001
0010
0000
,
0100
0000
0000
0000
0010
0000
0000
0000
0001
0000
0000
0100
0000
0000
0010
0000
,
0000
0100
0000
1000
0100
0000
0010
0000
,
0200
0300
0020
0030
,
0002
0003
0200
0300
,
0220
0000
0000
0330
,
1000
0000
0100
0010
0001
0000
0001
0000
0010
0000
0100
1000
0100
0000
0010
0000
,
0110
0000
0000
0000
;

//--------------- dance-single - Wrland ----------------
#NOTES:
     dance-single:
     Wrland:
     Hard:
     10:
     0,0,0,0,0:
0000
0000
0000
0000
,
0000
0000
0000
0000
,
0000
0000
0000
0000
,
0000
0000
0000
0000
1000
0000
0100
1000
,
0000
0000
0000
0000
0000
0000
0000
0000
0100
0010
0001
0000
0100
0000
0020
0000
,
0000
0000
0000
0000
0030
0000
0000
0000
0100
1000
0100
0000
0010
0000
0002
0000
,
0000
0000
0000
0000
0003
0000
0000
0000
0100
0010
0001
0000
1000
0000
0100
0000
,
1000
0000
0100
0000
0010
0000
0100
0000
0001
0010
0000
0010
0002
0000
0003
0000
,
2000
3000
0100
1000
0100
0010
0001
0100
,
0010
0100
0010
0001
1000
0100
0202
0303
,
0020
0030
1000
0100
1000
0100
0010
0001
,
0100
0010
1000
0100
1000
0010
2200
3300
,
0200
0300
0010
0001
0100
0010
0100
0010
,
0001
0100
0010
0010
0100
0001
0220
0330
,
2000
3000
2200
3300
0100
0001
0100
0001
,
0010
1000
0100
0010
0001
0001
0001
0001
,
0010
0100
0010
0001
0100
0010
1000
0100
,
0000
0100
0010
0001
0100
0001
0110
0000
,
0100
1000
0100
0010
0001
0100
0010
0100
,
0000
1000
0100
0010
0001
0100
0101
0000
,
0010
1000
0100
0010
0001
0100
1000
0100
,
0000
1000
0100
0001
0100
0010
0110
0000
,
0010
0100
0010
0001
0010
0100
1000
0100
0010
0001
0100
0010
0100
0010
0100
0010
,
0001
0010
0100
0010
0001
0010
0100
0010
1000
0100
0010
0000
0100
0010
0001
0000
,
1001
0000
1000
0001
1000
0001
1000
0000
0000
0000
0001
1000
0001
1000
0001
0000
,
0000
0000
1000
0001
1000
0001
1000
0000
0000
0000
0001
1000
0001
1000
0001
0000
,
0000
0000
1000
0001
1000
0001
1000
0000
0000
0000
0001
1000
0001
1000
0001
0000
,
0000
0000
1000
0001
1000
0001
1000
0000
0000
0000
0001
1000
0001
1000
0001
0000
,
0100
0000
0010
0100
0010
0001
0010
0000
0001
0000
0010
0100
1000
0100
0010
0000
,
0100
0000
1000
0100
0010
0001
0010
0000
1000
0000
0001
0010
0001
0010
0001
0000
,
0100
0000
0010
0100
0010
0001
0010
0000
0100
0000
1000
0100
1000
0100
1000
0000
,
0100
0000
0010
0001
0010
0001
0010
0000
0100
0000
0010
0001
0010
0100
0010
0001
,
0100
0110
0100
0110
0010
0110
0010
0110
,
0100
0110
0100
0110
0010
0110
0010
0110
,
1000
1001
1000
1001
0001
1001
0001
1001
,
1000
1001
1000
1001
0220
0000
0330
0000
,
0001
0110
0001
0110
1000
0110
1000
0110
,
0001
0110
0001
0110
1000
0110
1000
0110
,
0010
0011
0010
0011
0100
1100
0100
1100
,
0010
0011
0010
0011
2002
0000
3003
0000
,
1000
0100
1000
0100
1000
0100
0010
0001
,
0100
0010
1000
0100
0010
0001
0100
0001
,
0100
0001
0100
0001
0010
1000
0010
1000
,
0010
1000
0010
1000
0100
0001
0100
0001
,
0110
1100
0110
0011
0110
1001
0110
0110
,
0001
0100
0010
0100
0001
1000
0010
0100
,
0001
0010
0001
0100
0010
0100
1000
0100
,
0010
0001
0100
0010
0100
1000
0100
0010
0001
1000
0010
0100
0010
0001
0010
1000
,
0200
0000
0300
0000
0010
0001
0010
0000
1000
0000
0000
0100
0000
0000
0001
0000
,
0200
0300
0020
0030
,
0100
0000
1000
0000
1100
1100
0000
0100
,
0000
0110
0110
0000
0011
0000
0001
1000
,
0002
0000
0003
0000
0200
0300
2000
3000
,
0200
0000
0300
0020
0000
0030
0200
0300
,
0020
0000
0030
0002
0000
0003
0200
0300
,
0020
0000
0000
0000
0000
0000
0030
0000
0100
0000
0000
0010
0000
0000
0100
0000
,
0002
0000
0003
0000
1000
0001
1000
0000
0100
0000
0000
0010
0000
0000
0001
1000
,
0200
0300
0020
0030
,
0002
0003
0010
0000
0100
1000
0000
0100
,
0000
0000
0001
0000
0020
0000
0030
0000
0100
0000
0000
0010
0000
0000
0002
0000
,
0000
0000
0003
0200
0000
0300
2000
3000
,
0200
0000
0300
0002
0000
0003
0200
0300
,
0020
0000
0030
0220
0000
0000
0330
0000
,
1000
0001
1000
0001
1000
0001
1000
0001
1000
0100
0010
0001
0010
0100
0010
0001
,
0020
0000
0030
0000
0200
0000
0300
0000
2000
0000
3000
0100
0000
0000
0001
0000
,
1000
0100
0010
0001
0100
0000
0000
0000
0010
0100
0010
0001
0010
0000
0000
0000
,
0020
0000
0030
0000
0002
0000
0003
0000
0200
0000
0300
1000
0000
0000
0100
0000
,
0010
0001
0010
0001
0010
0000
0000
0000
1000
0100
1000
0100
1000
0000
0000
0000
,
0200
0000
0300
0000
0020
0000
0030
0000
0002
0000
0003
0100
0000
0000
2000
0000
,
3000
0200
0300
0001
0200
0300
0020
0030
,
0200
0000
0300
0000
0020
0000
0030
0000
0002
0000
0003
0100
0000
0000
0010
0000
,
1000
0100
0010
0000
0100
0010
0001
0000
,
2000
0000
3000
0000
0002
0000
0003
0000
2000
0000
3000
0001
0000
0000
1000
0000
,
0100
0010
0001
0010
0100
0000
0000
0000
1000
0100
0001
0010
0100
0000
0000
0000
,
0200
0000
0300
0000
2000
0000
3000
0000
0200
0000
0300
0001
0000
0000
0100
0000
,
0010
0001
0010
0100
0010
0000
0000
0000
0100
1000
0100
0010
0001
0000
0000
0000
,
0020
0000
0030
0000
0002
0000
0003
0000
0020
0000
0030
0100
0000
0000
0020
0000
,
0030
0002
0003
0100
0020
0030
2000
3000
,
0200
0300
2000
3000
,
0200
0000
0000
0000
0300
0000
0010
0000
0100
0000
0000
0010
0000
0000
0001
0000
,
0100
0000
0010
0100
0010
0000
0001
1000
0001
0000
0100
1000
0100
0000
0000
0000
,
0010
0000
0100
0010
0100
0000
0001
1000
0001
0000
1000
0100
1000
0000
0000
0000
,
0110
0000
0000
0000
;
