#TITLE:Live It Up (feat. Pitbull);
#SUBTITLE:;
#ARTIST:Jennifer Lopez;
#TITLETRANSLIT:;
#SUBTITLETRANSLIT:;
#ARTISTTRANSLIT:;
#GENRE:Pop;
#CREDIT:Wrland;
#MUSIC:Live It Up (feat. Pitbull).ogg;
#BANNER:Live It Up (feat. Pitbull).png;
#BACKGROUND:BG.png;
#CDTITLE:Wrland Season 3 CITYGHT + last one night.png;
#PREVIEWVID:preview.mp4;
#SAMPLESTART:86.284;
#SAMPLELENGTH:12.000;
#SELECTABLE:YES;
#OFFSET:-0.034;
#BPMS:0.000=128.000
,68.000=64.000
,70.000=128.000
,102.000=64.000
,104.000=128.000
;
#STOPS:202.000=0.938;
#DISPLAYBPM:128.000;
#LYRICSPATH:Live It Up (feat. Pitbull).lrc;
#METERTYPE:DDR X;
#JACKET:Live It Up (feat. Pitbull)-jacket.png;
#CDIMAGE:Live It Up (feat. Pitbull)-cd.png;
#BGCHANGES:0.000=Live It Up (feat. Pitbull).avi=1.000=0=0=0=StretchNoLoop====,
99999.000=-nosongbg-=1.000=0=0=0=StretchNoLoop====
;
#FGCHANGES:;

//--------------- dance-single - Wrland ----------------
#NOTES:
     dance-single:
     Wrland:
     Beginner:
     3:
     0,0,0,0,0:
0000
0000
0000
0000
,
0000
0000
0000
0000
,
0000
0000
0000
0000
,
0000
0000
0000
0000
,
0000
0000
0000
0000
,
0000
0000
0000
0000
,
0000
0000
0000
0000
,
0000
0000
0000
0000
,
0000
0000
0000
0000
,
0000
0000
0000
0000
,
0100
0000
0000
0000
,
0100
0000
0000
0000
,
1000
0000
0000
0000
,
0100
0000
0000
0000
,
0010
0000
0000
0000
,
0001
0000
0000
0000
,
0010
0000
0000
0000
,
0200
0300
1000
0000
,
0000
0000
0100
0000
,
0000
0000
1000
0000
,
0000
0000
0010
0000
,
0000
0000
0100
0000
,
0000
0000
1000
0000
,
0000
0000
1000
0000
,
0000
0000
0100
0000
,
0000
0000
0000
0000
,
0010
0000
0000
0000
,
0100
0000
0000
0000
,
0100
0000
0000
0000
,
1000
0000
0000
0000
,
0100
0000
0000
0000
,
0010
0000
0000
0000
,
0001
0000
0000
0000
,
1000
0000
1000
0000
,
1001
0000
0000
0000
,
0001
0000
0001
0000
,
1001
0000
0000
0000
,
1000
0000
1000
0000
,
1001
0000
0000
0000
,
0001
0000
0001
0000
,
2002
0000
0000
3003
,
0200
0000
0000
0300
,
0020
0000
0000
0030
,
0200
0000
0000
0300
,
0020
0000
0000
0030
,
0100
0000
0000
0000
,
1000
0000
0000
0000
,
0100
0000
0000
0000
,
1000
0000
0000
0000
,
0010
0000
0000
0000
,
0000
0000
0000
0000
0000
0000
0000
0000
0000
0000
0000
0000
0000
0000
0000
0000
0000
0000
0000
0000
0000
0000
0000
0000
0000
0000
0000
0000
0000
0000
0000
0000
0000
0000
0000
0000
0000
0000
0000
0000
0000
0000
0000
0000
0000
0000
0000
0000
0000
0000
0000
0000
0000
0000
0000
0000
0000
0000
0000
0000
0000
0000
0000
0000
0000
0000
0000
0000
0000
0000
0000
0000
0000
0000
0000
0000
0000
0000
0000
0000
0000
0000
0000
0000
0000
0000
0000
0000
0000
0000
0000
0000
0000
0000
0000
0000
0000
0100
0000
0000
0000
0000
0000
0000
0000
0000
0000
0000
0000
0000
0000
0000
0000
0000
0000
0000
0000
0000
0000
0000
0000
0000
0000
0000
0000
0000
0000
0000
0000
0000
0000
0000
0000
0000
0000
0000
0000
0000
0000
0000
0000
0000
0000
0000
0000
0000
0000
0000
0000
0000
0000
0000
0000
0000
0000
0000
0000
0000
0000
0000
0000
0000
0000
0000
0000
0000
0000
0000
0000
0000
0000
0000
0000
0000
0000
0000
0000
0000
0000
0000
0000
0000
0000
0000
0000
0000
0000
0000
0000
0000
0000
0000
,
0000
0000
0100
0000
,
0000
0000
0010
0000
,
0000
0000
0010
0000
,
0000
0000
0100
0000
,
0000
0000
1000
0000
,
0000
0000
0100
0000
,
0000
0000
0010
0000
,
0000
0000
0110
0000
;

//--------------- dance-single - Wrland ----------------
#NOTES:
     dance-single:
     Wrland:
     Easy:
     5:
     0,0,0,0,0:
0000
0000
0000
0000
,
0000
0000
0000
0000
,
0000
0000
0000
0000
,
0000
0000
0000
0000
,
1000
0000
1000
0000
,
0100
0000
0100
0000
,
0010
0000
0001
0000
,
0010
0000
0100
0000
,
0100
0000
0000
0000
,
0020
0000
0000
0000
0000
0000
0000
0000
0000
0000
0000
0000
0000
0000
0000
0000
0000
0000
0000
0000
0000
0000
0000
0000
0000
0000
0000
0000
0000
0000
0000
0000
0000
0000
0000
0000
0000
0000
0000
0000
0000
0000
0000
0000
0000
0000
0000
0030
0000
0000
0000
0000
0000
0000
0000
0000
0000
0000
0000
0000
0000
0000
0000
0000
,
1000
0000
1000
0000
,
0100
0000
0100
0000
,
1000
0000
1000
0000
,
0100
0000
0100
0000
,
0010
0000
0001
0000
,
0010
0000
0010
0000
,
0100
0000
0100
0000
,
0000
0000
0010
0000
,
0100
0000
0100
0000
,
1000
0000
1000
0000
,
0100
0000
0010
0000
,
0001
0000
0100
0000
,
0010
0000
0100
0000
,
0010
0000
1000
0000
,
1000
0000
0100
0000
,
0010
0000
0000
0000
,
0100
0000
0100
0000
,
0010
0000
0010
0000
,
0001
0000
0001
0000
,
0010
0000
0100
0000
,
0010
0000
0100
0000
,
1000
0000
1000
0000
,
0100
0000
0010
0000
,
1000
1000
1000
0000
,
0100
0100
0100
0000
,
0010
0010
0010
0000
,
0001
0001
0001
0000
,
0001
0100
0001
0000
,
0010
1000
0010
0000
,
0100
1000
0100
0000
,
0220
0000
0000
0330
,
0200
0000
0000
0000
,
1300
0000
0000
0000
,
0200
0000
0000
0000
,
0310
0000
0000
0000
,
0100
0000
0000
0000
,
0100
0000
0000
0000
,
0010
0000
0000
0000
,
0100
0000
0000
0000
,
0010
0000
0000
0000
,
0000
0000
0000
0000
0000
0000
0000
0000
0000
0000
0000
0000
0000
0000
0000
0000
0000
0000
0000
0000
0000
0000
0000
0000
0000
0000
0000
0000
0000
0000
0000
0000
0000
0000
0000
0000
0000
0000
0000
0000
0000
0000
0000
0000
0000
0000
0000
0000
0000
0000
0000
0000
0000
0000
0000
0000
0000
0000
0000
0000
0000
0000
0000
0000
0000
0000
0000
0000
0000
0000
0000
0000
0000
0000
0000
0000
0000
0000
0000
0000
0000
0000
0000
0000
0000
0000
0000
0000
0000
0000
0000
0000
0000
0000
0000
0000
0000
0100
0000
0000
0000
0000
0000
0000
0000
0000
0000
0000
0000
0000
0000
0000
0000
0000
0000
0000
0000
0000
0000
0000
0000
0000
0000
0000
0000
0000
0000
0000
0000
0000
0000
0000
0000
0000
0000
0000
0000
0000
0000
0000
0000
0000
0000
0000
0000
0000
0000
0000
0000
0000
0000
0000
0000
0000
0000
0000
0000
0000
0000
0000
0000
0000
0000
0000
0000
0000
0000
0000
0000
0000
0000
0000
0000
0000
0000
0000
0000
0000
0000
0000
0000
0000
0000
0000
0000
0000
0000
0000
0000
0000
0000
0000
,
0000
0000
1000
0000
,
0000
0000
0100
0000
,
0000
0000
0010
0000
,
0000
0000
0100
0000
,
0000
0000
1000
0000
,
0000
0000
0100
0000
,
0000
0000
0010
0000
,
0000
0000
0110
0000
;

//--------------- dance-single - Wrland ----------------
#NOTES:
     dance-single:
     Wrland:
     Medium:
     7:
     0,0,0,0,0:
0000
0000
0000
0000
,
0000
0000
0000
0000
,
0000
0000
0000
0000
,
0000
0000
0000
0000
,
1000
0000
0100
0000
1000
0000
0100
1000
,
1100
0000
0100
0000
0010
0100
0010
0000
,
0001
0010
0100
0010
,
0100
0010
0001
0100
,
0100
0000
0000
1000
0000
0000
0200
0000
0000
0000
0000
0000
0300
0000
0000
0000
,
0100
0000
0000
0010
0000
0000
0002
0000
0000
0000
0000
0000
0003
0000
0000
0000
,
0100
1000
0100
0000
1000
0100
0010
0001
,
0000
0001
0010
0100
1000
0100
0010
0001
,
0000
0100
0010
0100
1000
0100
1000
0100
,
0010
0000
0001
0000
0010
0000
0100
0000
0010
0100
0010
0000
0001
0000
1000
0000
,
0000
0100
1000
0000
0100
0010
0001
0000
,
0100
0010
0100
0010
0100
1000
0100
1000
,
0100
0000
0100
0010
0100
0010
0100
0000
,
0002
0000
0003
0000
1000
0001
0100
0010
,
0100
0010
0001
0100
0010
1000
0100
1000
,
0100
0010
0001
0100
0010
0100
1000
0100
,
0010
0001
0100
0010
0100
0000
0100
0000
,
0010
0000
0000
0000
0000
0000
0000
0000
0100
0000
0000
0000
0010
0000
0000
0000
0000
0000
0000
0000
0000
0000
0000
0000
0001
0000
0000
0000
0000
0000
0001
0000
0000
0100
0000
0000
1000
0000
0000
0000
0000
0000
0000
0000
0000
0000
0000
0000
,
0100
0010
0100
0010
0001
0100
0010
1000
,
0100
0010
0001
0200
0000
0300
0000
0100
,
0010
0000
0001
0000
0100
0000
0000
0000
1000
0100
1000
0100
0010
0000
0100
0000
,
0010
0000
0001
0000
0010
0000
0100
0000
1000
0200
0000
0000
0300
0000
0000
0000
,
0100
0000
0010
0100
0010
0001
0100
0010
,
1000
2200
0000
3300
0000
0100
0010
0001
,
0100
0000
0010
0100
0000
0010
0001
0100
,
0010
2000
0000
3000
0000
1000
0100
1000
,
2200
0000
3300
0000
0000
0100
0010
0001
,
0100
0010
0100
0010
0001
0100
0010
0100
,
2000
0000
3000
0000
0000
0100
0010
0001
,
0200
0300
0110
0000
0002
0003
0011
0000
,
0001
0010
0100
1000
0000
0100
0010
0100
,
2000
3000
1100
0000
0200
0300
0110
0000
,
1000
0100
0010
0001
0000
0001
0010
0100
,
0200
0300
0110
0000
0020
0030
0110
0000
,
0100
0010
0001
1000
0000
0100
0010
0100
,
2000
3000
1010
0000
0200
0300
0101
0000
,
1000
0001
1000
2002
0000
0000
3003
0000
,
0200
0000
0000
0300
0000
0100
0010
0001
,
0100
1000
0100
0010
0002
0003
1000
0001
,
2000
0000
3000
0000
0000
1000
0001
1000
,
0002
0003
0100
0010
0200
0000
0300
0000
,
0100
0000
0010
0100
0000
0010
0100
0010
,
0001
0100
1000
0100
2000
3000
1000
0100
,
0001
0000
0000
0100
0000
0000
0010
0000
0000
0000
0100
0000
0010
0000
0001
0000
,
0020
0030
0100
0010
0200
0300
1000
0000
,
1100
0100
0110
0010
,
0011
0000
0000
0000
0000
0000
0000
0000
0000
0000
0000
0000
0000
0000
0000
0000
0000
0000
0000
0000
0000
0000
0000
0000
0000
0000
0000
0000
0000
0000
0000
0000
0000
0000
0000
0000
0000
0000
0000
0000
0000
0000
0000
0000
0000
0000
0000
0000
0001
0000
0000
0000
0000
0000
0000
0000
0000
0000
0000
0000
0000
0000
0000
0000
0000
0000
0000
0000
0000
0000
0000
0000
0000
0000
0000
0000
0000
0000
0000
0000
0000
0000
0000
0000
0000
0000
0000
0000
0000
0000
0000
0000
0000
0000
0000
0000
0000
0010
0000
0000
0000
0000
0000
0000
0000
0000
0000
0000
0000
0000
0000
0000
0000
0000
0000
0000
0000
0000
0000
0000
0000
0000
0000
0000
0000
0000
0000
0000
0000
0000
0000
0000
0100
0000
0000
0000
0000
0000
0000
0000
0000
0000
0000
0000
0000
0000
0000
0000
0000
0000
0000
0000
0000
0000
0000
0000
0000
0000
0000
0000
0000
0000
0000
0000
0000
0000
0000
0000
0010
0000
0000
0000
0000
0000
0000
0000
0000
0000
0000
0000
0000
0000
0000
0000
0000
0000
0000
0000
0000
0000
0000
0000
,
0000
0100
0000
0000
0010
0000
0000
0001
0000
0000
0010
0000
0000
0100
0000
0000
,
1000
0000
0000
0100
0000
0000
0100
0000
1000
0000
0000
0100
0000
0000
0010
0000
,
0000
0100
0000
0000
0010
0000
0000
0001
0000
0000
0100
0000
0000
1000
0000
0000
,
0100
0000
0010
0100
0000
0000
0000
0000
0010
0000
0000
0001
0000
0000
0010
0000
,
0000
0100
0000
0000
1000
0000
0000
0100
0000
0000
1000
0000
0000
0100
0000
0000
,
0010
0000
0000
0001
0000
0000
0100
0000
0110
0000
0000
0100
0000
0000
1000
0000
,
0000
0100
0000
0000
0010
0000
0000
0001
0000
0000
0100
0000
0000
0010
0000
0000
,
0100
0000
0010
0100
0000
0000
0000
0000
2002
0000
0000
0000
0000
0000
0000
0000
,
0000
0000
0000
0000
,
3003
0000
0000
0000
;

//--------------- dance-single - Wrland ----------------
#NOTES:
     dance-single:
     Wrland:
     Hard:
     10:
     0,0,0,0,0:
0000
0000
0000
0000
,
0000
0000
0000
0000
,
M000
0000
0000
0M00
0000
0000
M000
0000
0000
0M00
0000
0000
000M
0000
0M00
0000
,
00M0
0000
0000
M000
0000
0000
0M00
0000
0000
00M0
0000
0000
0M00
0000
00M0
0000
,
1000
0000
0100
1000
0000
0000
0100
0000
0010
0000
0100
0010
0000
0000
0100
0000
,
0010
0000
0100
0010
0000
0000
0001
1000
0100
0000
0010
0000
0110
0000
0000
0000
,
0010
0000
0100
0010
0000
0000
0100
0000
0100
0000
1000
0100
0000
0000
0001
0000
,
0010
0000
0001
0010
0000
0000
0001
0010
0100
0000
0000
0000
0110
0000
0110
0000
,
0001
0000
0000
1000
0000
0000
0001
0000
0000
0100
0000
0000
0010
0000
0100
0000
,
2000
0000
0000
0001
0000
0000
0001
0000
0000
3001
0000
0000
1001
0000
0000
0000
,
0000
0000
0100
0000
0010
0000
0000
0000
0100
0010
0100
0010
0100
0000
0100
0000
,
0000
0010
0100
0100
0010
1000
0100
0010
0100
0001
0100
0010
0100
0000
0100
0000
,
0000
1000
0100
0010
0001
0100
0010
0100
0010
0000
0100
0000
0010
0000
0001
0000
,
0010
0000
0100
0000
1000
0000
0100
0000
1000
0100
1000
0000
0100
0000
0010
0000
,
0000
0100
0010
0001
0100
0010
0100
1000
,
0100
0000
0000
0000
0000
0000
0010
0000
0000
0000
0000
0000
0100
0000
0000
0010
0000
0000
0100
0000
0000
0000
0000
0000
0010
0000
0000
0000
0000
0000
0100
0000
0000
0000
0000
0000
0010
0000
0000
0000
0100
0000
0000
0000
0001
0000
0000
0000
,
0010
0000
0001
0000
0100
0000
1000
0000
0100
0000
0010
1000
0100
0000
0000
0000
,
0100
0000
0010
0000
0100
0000
0100
0000
0000
0020
0000
0000
0000
0000
0000
0000
0000
0000
0030
0000
0000
0000
0000
0000
0010
0000
0000
0000
0000
0000
0100
0000
0000
0000
0000
0000
1000
0000
0000
0000
0000
0000
0100
0000
0000
1000
0000
0000
,
0000
0000
0100
0000
0010
0000
0001
0000
0100
0000
0010
0000
0100
0000
0010
0100
,
0000
0000
0010
0000
0001
0000
0100
0000
0010
0000
1000
0000
0100
0000
0100
0010
,
0000
0100
0010
0001
1000
0000
0001
0000
,
1000
0000
0000
0000
0000
0000
0000
0000
0001
0000
0000
0000
2000
0000
0000
0000
0000
0000
0000
0000
0000
0000
0000
0000
3000
0000
0000
0000
0000
0000
0000
0000
0000
0010
0000
0000
0100
0000
0000
0000
0000
0000
0000
0000
0000
0000
0000
0000
,
0010
1000
0100
0001
0010
0000
0100
0000
1000
0000
0100
0000
0010
0000
0001
0000
,
0100
0000
0010
0000
0100
0000
2000
0000
0000
3000
0000
0000
0000
1000
0100
0000
,
0100
0000
0010
0000
0200
0000
0300
0000
0010
0100
0010
0001
0100
0000
0010
0000
,
0100
0000
1000
0000
0100
0000
0010
0000
0100
0220
0000
0000
0330
0001
1000
0001
,
1001
1000
0001
1000
0001
0100
0010
0100
,
1000
0200
0001
0001
0301
0010
0100
1000
,
0020
0000
0000
0100
0000
0000
0100
0000
0000
1030
0000
0000
0100
0000
0010
0000
,
0001
0100
0100
0100
0100
1000
0100
0020
,
0001
0001
0001
0001
0031
0010
0100
1000
,
0100
0010
0001
0100
0010
0100
1000
0100
,
2000
0000
0000
0100
0000
0000
0010
0000
3000
1000
0100
0010
0100
0010
0001
0010
,
0100
0000
0000
1000
1000
0000
0100
0000
0100
0000
0000
0100
0100
0000
0010
0000
,
0010
0011
0010
0011
0000
0001
0010
0100
,
0100
0000
0000
0100
0100
0000
1000
0000
0100
0000
0000
0100
0100
0000
0010
0000
,
0100
0010
0100
0110
0000
0010
0001
0100
,
0001
0000
0000
0100
0001
0000
0000
0000
0001
0000
0000
0100
0100
0000
0000
0000
,
1000
0100
1000
1100
0000
0100
0010
0100
,
0100
0000
0000
0010
0010
0000
0000
0000
0001
0000
0000
0010
0001
0010
0001
0010
,
0100
0000
0000
1000
0000
0000
0100
0000
0000
1000
0000
0000
1100
0000
0110
0000
0011
0000
0110
0000
1100
0000
0011
0000
,
M22M
0000
0000
0000
0330
0100
0010
0100
,
0010
0001
0100
1000
0200
0300
1000
0100
,
0020
0000
0030
0100
0000
0000
0100
0000
0000
0010
0000
0000
0100
0000
0010
0000
,
0200
0000
0300
0000
1000
0000
0100
0000
0020
0000
0030
0000
0100
0010
0100
0010
,
0200
0000
0000
0001
0000
0000
0001
0000
0000
0000
0301
0000
0010
0000
0100
0000
,
1000
0000
0100
0000
1000
0000
0100
0000
0020
0000
0000
0030
0100
0000
0010
0000
,
0200
0000
0000
0010
0000
0000
1000
0000
0300
0001
0000
0000
0010
0000
0001
0000
,
0020
0030
0100
0010
0002
0003
0200
0300
,
2200
3300
0020
0030
0022
0033
0020
0030
,
0220
0000
0000
0000
0000
0000
0000
0000
0000
0000
0000
0000
0000
0000
0000
0000
0000
0000
0000
0000
0000
0000
0000
0000
0330
0000
0000
0000
0000
0000
0000
0000
0000
0000
0000
0000
0000
0000
0000
0000
0000
0000
0000
0000
0000
0000
0000
0000
2000
0000
0000
0000
0000
0000
0000
0000
0000
0000
0000
0000
0000
0000
0000
0000
0000
0000
0000
0000
0000
0000
0000
0000
3000
0000
0000
0000
0000
0000
0000
0000
0000
0000
0000
0000
0000
0000
0000
0000
0000
0000
0000
0000
0000
0000
0000
0000
0000
1100
0000
0000
0000
0000
0000
0000
0000
0000
0000
0000
0100
0000
0000
0000
0000
0000
0000
0000
0000
0000
0000
0000
0010
0000
0000
0000
0000
0000
0000
0000
0000
0000
0000
0000
0110
0000
0000
0000
0000
0000
0000
0000
0000
0000
0000
0000
0000
0000
0000
0000
0000
0000
0000
0000
0000
0000
0000
0000
0000
0000
0000
0000
0000
0000
0000
0000
0000
0000
0000
0000
0011
0000
0000
0000
0000
0000
0000
0000
0000
0000
0000
0000
0000
0000
0000
0000
0000
0000
0000
0000
0000
0000
0000
0000
,
0000
0110
0000
0000
1000
0000
0000
0110
0000
0000
0011
0000
0000
1010
0000
0000
,
0101
0000
0000
0110
0000
0000
0101
0000
1010
0100
0010
0101
0000
0000
0011
0000
,
0000
0110
0000
0000
1001
0000
0000
1100
0000
0000
1100
0000
0000
0110
0000
0000
,
0010
0000
1000
0100
0010
0100
0010
0001
0010
0000
0000
0100
0000
0000
1000
0000
,
0000
0100
0000
0000
0010
0000
0000
0001
0000
0000
0010
0000
0000
0100
0000
0000
,
0010
0000
0000
0001
0000
0000
0010
0000
0100
0000
0000
1000
0000
0000
0100
0000
,
0000
0010
0000
0000
0001
0000
0000
0100
0000
0000
0010
0000
0000
0100
0000
0000
,
0100
0000
0010
0100
0000
1000
0010
0000
2002
0000
0000
0000
0000
0000
0000
0000
,
0000
0000
0000
0000
,
3003
0000
0000
0000
;
